osu file format v14

[General]
AudioFilename: audio.mp3
AudioLeadIn: 0
PreviewTime: 48006
Countdown: 0
SampleSet: Soft
StackLeniency: 0.7
Mode: 0
LetterboxInBreaks: 0
WidescreenStoryboard: 0

[Editor]
Bookmarks: 8256,16256,32256,48006
DistanceSpacing: 1.2
BeatDivisor: 4
GridSize: 4
TimelineZoom: 1.1

[Metadata]
Title:Takarabako
TitleUnicode:タカラバコ
Artist:Sasanomaly
ArtistUnicode:ササノマリイ
Creator:Enrdus
Version:Treasure
Source:夏目友人帳 伍
Tags:Natsume Yuujinchou Go
BeatmapID:1543478
BeatmapSetID:716436

[Difficulty]
HPDrainRate:6
CircleSize:4
OverallDifficulty:7
ApproachRate:8
SliderMultiplier:1.6
SliderTickRate:1

[Events]
//Background and Video events
Video,0,"Natsume Yuujinchou Go.avi"
0,0,"Background.jpg",0,0
//Break Periods
//Storyboard Layer 0 (Background)
//Storyboard Layer 1 (Fail)
//Storyboard Layer 2 (Pass)
//Storyboard Layer 3 (Foreground)
//Storyboard Sound Samples

[TimingPoints]
256,500,4,2,1,50,1,0
256,-125,4,2,1,50,0,0
8256,-100,4,2,1,50,0,0
32256,-111.111111111111,4,2,1,50,0,0
48006,-90.9090909090909,4,2,1,50,0,1
80756,-90.9090909090909,4,2,1,50,0,0

[Colours]
Combo1 : 255,0,0
Combo2 : 255,128,0
Combo3 : 239,194,61
Combo4 : 235,73,39

[HitObjects]
305,55,256,6,0,P|257:83|247:116,1,64
319,128,756,1,0,0:0:0:0:
430,233,1256,2,0,P|478:261|488:294,1,64
416,306,1756,1,0,0:0:0:0:
340,292,2006,5,0,0:0:0:0:
292,352,2256,2,0,P|262:304|264:270,1,64
256,220,2756,2,0,P|246:189|225:165,1,64
176,224,3256,1,0,0:0:0:0:
116,176,3506,1,0,0:0:0:0:
116,100,3756,1,0,0:0:0:0:
172,48,4006,1,0,0:0:0:0:
259,78,4256,6,0,P|258:109|270:139,1,64
332,96,4756,2,0,P|347:68|373:49,1,64
408,116,5256,2,0,P|437:105|469:106,2,64
348,160,6006,5,0,0:0:0:0:
272,144,6256,2,0,P|271:175|284:204,1,64
352,240,6756,2,0,P|388:228|416:200,1,64
452,152,7256,1,0,0:0:0:0:
452,152,7506,2,0,P|464:122|464:84,1,64
368,244,8256,6,0,P|340:192|316:180,1,80
280,268,8756,2,0,P|266:305|235:329,1,80
192,244,9256,2,0,P|160:219|147:182,2,80
236,160,10006,2,0,P|249:122|280:98,1,80
328,180,10506,1,0,0:0:0:0:
328,180,10756,1,0,0:0:0:0:
236,160,11006,6,0,P|223:198|192:222,1,80
128,168,11506,1,0,0:0:0:0:
76,88,11756,2,0,P|76:52|100:16,1,80
168,84,12256,6,0,P|199:101|219:139,1,80
128,168,12756,1,0,0:0:0:0:
128,264,13006,1,0,0:0:0:0:
36,296,13256,2,0,P|53:331|87:351,2,80
32,200,14006,6,0,L|88:100,1,80
140,64,14506,1,0,0:0:0:0:
212,128,14756,1,0,0:0:0:0:
284,64,15006,1,0,0:0:0:0:
356,128,15256,1,0,0:0:0:0:
404,212,15506,1,0,0:0:0:0:
404,308,15756,1,0,0:0:0:0:
324,360,16006,1,0,0:0:0:0:
220,356,16256,6,0,P|235:319|231:279,2,80
128,304,17006,1,0,0:0:0:0:
92,216,17256,2,0,P|53:239|36:275,2,80
184,192,18006,5,0,0:0:0:0:
224,104,18256,2,0,P|262:127|279:163,2,80,0|0|4,0:0|0:0|0:0,0:0:0:0:
128,124,19006,1,0,0:0:0:0:
92,36,19256,2,0,P|53:59|36:95,2,80
188,36,20006,5,0,0:0:0:0:
276,72,20256,2,0,P|256:106|222:126,1,80
128,148,20756,1,0,0:0:0:0:
128,148,21006,1,0,0:0:0:0:
96,240,21256,2,0,P|61:220|41:186,2,80,4|0|0,0:0|0:0|0:0,0:0:0:0:
192,228,22006,5,0,0:0:0:0:
192,228,22256,2,0,P|211:262|246:281,1,80
324,340,22756,1,0,0:0:0:0:
408,296,23006,1,0,0:0:0:0:
496,252,23256,2,0,P|484:229|432:200,1,80
348,168,23756,1,4,0:0:0:0:
248,136,24006,5,0,0:0:0:0:
160,96,24256,2,0,P|179:62|214:43,2,80
92,168,25006,1,4,0:0:0:0:
132,256,25256,2,0,P|166:237|186:202,1,80
212,108,25756,1,0,0:0:0:0:
284,44,26006,1,0,0:0:0:0:
344,120,26256,1,0,0:0:0:0:
408,48,26506,1,0,0:0:0:0:
468,120,26756,2,0,P|444:180|364:180,1,120
364,192,27256,5,0,0:0:0:0:
292,256,27506,1,0,0:0:0:0:
220,192,27756,1,0,0:0:0:0:
148,256,28006,1,0,0:0:0:0:
88,180,28256,6,0,P|112:120|192:120,1,120
188,108,28756,1,0,0:0:0:0:
228,16,29006,2,0,P|263:34|282:68,1,80
316,156,29506,2,0,P|348:134|368:92,1,80
432,28,30006,1,4,0:0:0:0:
240,52,30506,5,0,0:0:0:0:
148,24,30756,1,0,0:0:0:0:
60,60,31006,1,0,0:0:0:0:
24,148,31256,1,0,0:0:0:0:
120,152,31506,1,0,0:0:0:0:
184,80,31756,1,0,0:0:0:0:
228,160,32006,5,0,0:0:0:0:
228,160,32256,2,0,P|256:220|284:236,2,71.9999978027344,2|0|0,0:0|0:0|0:0,0:0:0:0:
316,152,33006,1,0,0:0:0:0:
316,152,33256,2,0,P|349:164|374:189,2,71.9999978027344,2|0|0,0:0|0:0|0:0,0:0:0:0:
300,236,34006,1,0,0:0:0:0:
300,236,34256,2,0,P|325:261|358:273,1,71.9999978027344
444,292,34756,1,2,0:0:0:0:
444,292,35006,2,0,P|433:326|408:352,2,71.9999978027344
444,204,35756,1,0,0:0:0:0:
376,152,36006,5,2,0:0:0:0:
376,152,36256,2,0,P|360:120|333:98,1,71.9999978027344
292,20,36756,2,0,P|264:42|248:74,1,71.9999978027344
224,160,37256,1,2,0:0:0:0:
224,160,37506,1,0,0:0:0:0:
224,248,37756,2,0,P|168:228|148:200,1,71.9999978027344
128,140,38256,2,0,P|154:86|184:70,2,71.9999978027344,2|0|0,0:0|0:0|0:0,0:0:0:0:
112,224,39006,1,0,0:0:0:0:
52,288,39256,2,0,P|136:308|188:268,1,143.999995605469,2|4,0:0|0:0,0:0:0:0:
232,208,40006,5,0,0:0:0:0:
232,208,40256,2,0,P|240:164|280:128,1,71.9999978027344
316,80,40756,1,2,0:0:0:0:
316,80,41006,1,0,0:0:0:0:
376,16,41256,1,2,0:0:0:0:
432,80,41506,2,0,P|436:115|426:149,1,71.9999978027344
380,228,42006,1,0,0:0:0:0:
300,264,42256,6,0,L|220:200,1,71.9999978027344
176,164,42756,1,0,0:0:0:0:
144,84,43006,1,0,0:0:0:0:
216,36,43256,2,0,P|250:25|285:31,1,71.9999978027344
256,112,43756,1,4,0:0:0:0:
312,180,44006,5,2,0:0:0:0:
312,180,44256,2,0,P|301:214|276:240,2,71.9999978027344
364,112,45006,1,0,0:0:0:0:
404,36,45256,2,0,P|431:58|446:90,1,71.9999978027344
448,176,45756,1,2,0:0:0:0:
400,248,46006,5,4,0:0:0:0:
324,288,46256,2,0,L|296:311,1,35.9999989013672,8|0,0:0|0:0,0:0:0:0:
260,336,46506,1,8,0:0:0:0:
176,352,46756,2,0,L|136:340,1,35.9999989013672,8|0,0:0|0:0,0:0:0:0:
100,328,47006,1,8,0:0:0:0:
68,300,47131,2,0,P|55:266|60:231,1,71.9999978027344,8|0,0:0|0:0,0:0:0:0:
72,192,47506,1,8,0:0:0:0:
100,112,47756,1,0,0:0:0:0:
216,36,48006,5,2,0:0:0:0:
260,132,48256,1,0,0:0:0:0:
352,184,48506,1,0,0:0:0:0:
452,220,48756,2,0,P|427:256|390:279,1,88.000002685547
368,380,49256,2,0,P|324:372|284:340,1,88.000002685547
248,252,49756,1,4,0:0:0:0:
144,272,50006,5,2,0:0:0:0:
40,252,50256,2,0,P|56:211|90:183,1,88.000002685547
192,160,50756,2,0,P|175:119|141:91,1,88.000002685547
56,28,51256,1,0,0:0:0:0:
56,28,51506,2,0,P|81:63|121:82,1,88.000002685547
224,108,52006,5,2,0:0:0:0:
276,16,52256,2,0,P|309:44|326:84,1,88.000002685547
412,144,52756,2,0,P|380:174|339:188,1,88.000002685547
240,224,53256,1,0,0:0:0:0:
144,272,53506,2,0,P|169:307|209:326,1,88.000002685547
316,336,54006,5,2,0:0:0:0:
420,312,54256,2,0,P|403:271|369:243,1,88.000002685547
328,148,54756,2,0,P|291:172|270:210,1,88.000002685547
212,120,55256,1,0,0:0:0:0:
212,120,55506,2,0,P|172:160|160:204,1,88.000002685547
200,288,56006,5,0,0:0:0:0:
160,376,56256,2,0,P|123:352|99:316,1,88.000002685547
60,220,56756,1,0,0:0:0:0:
76,116,57006,2,0,P|126:45|209:18,1,176.000005371094
188,124,57756,1,2,0:0:0:0:
224,224,58006,2,0,P|260:201|284:165,1,88.000002685547
392,160,58506,1,0,0:0:0:0:
440,264,58756,1,4,0:0:0:0:
404,364,59006,2,0,P|367:340|343:304,1,88.000002685547
244,264,59506,5,2,0:0:0:0:
208,164,59756,2,0,P|171:187|147:223,1,88.000002685547
112,324,60256,2,0,P|75:300|51:264,1,88.000002685547
92,168,60756,2,0,P|124:128|176:96,1,88.000002685547,2|0,0:0|0:0,0:0:0:0:
204,12,61256,2,0,P|238:38|256:88,1,88.000002685547
340,144,61756,1,0,0:0:0:0:
444,164,62006,2,0,P|427:204|392:230,1,88.000002685547
288,216,62506,2,0,P|309:298|385:337,1,176.000005371094,2|0,0:0|0:0,0:0:0:0:
392,230,63256,6,0,P|426:204|443:164,1,88.000002685547
356,136,63756,1,0,0:0:0:0:
272,72,64006,1,0,0:0:0:0:
168,96,64256,2,0,P|184:136|224:168,1,88.000002685547
312,216,64756,1,0,0:0:0:0:
376,300,65006,1,0,0:0:0:0:
436,380,65256,2,0,P|468:344|476:288,1,88.000002685547
468,200,65756,1,4,0:0:0:0:
384,136,66006,5,2,0:0:0:0:
332,44,66256,2,0,P|299:72|282:112,1,88.000002685547
264,216,66756,2,0,P|222:202|191:171,1,88.000002685547
164,72,67256,1,0,0:0:0:0:
164,72,67506,2,0,P|125:91|99:126,1,88.000002685547
136,228,68006,5,0,0:0:0:0:
164,328,68256,2,0,P|202:308|228:273,1,88.000002685547
328,236,68756,1,2,0:0:0:0:
384,148,69006,1,0,0:0:0:0:
384,148,69256,2,0,B|316:124|324:60|260:184|260:108|200:80,1,176.000005371094
120,92,70006,5,0,0:0:0:0:
28,140,70256,2,0,P|54:174|92:194,1,88.000002685547
188,240,70756,2,0,P|161:274|123:294,1,88.000002685547
20,312,71256,2,0,P|44:364|96:392,1,88.000002685547
123,294,71756,1,0,0:0:0:0:
100,192,72006,5,2,0:0:0:0:
100,192,72256,2,0,L|192:124,1,88.000002685547
208,40,72756,1,0,0:0:0:0:
208,40,73006,2,0,L|356:64,1,132.00000402832
392,68,73506,1,0,0:0:0:0:
332,160,73756,1,2,0:0:0:0:
332,160,74006,2,0,L|380:233,1,88.000002685547
288,284,74506,1,0,0:0:0:0:
236,376,74756,1,0,0:0:0:0:
236,376,75006,2,0,P|188:352|140:248,1,132.00000402832
124,240,75506,5,0,0:0:0:0:
64,152,75756,1,2,0:0:0:0:
96,52,76006,2,0,P|134:71|160:106,1,88.000002685547
216,200,76506,1,0,0:0:0:0:
312,244,76756,1,2,0:0:0:0:
364,316,77006,2,0,P|384:348|396:364,4,44.0000013427735
392,212,77756,1,0,0:0:0:0:
392,212,78006,5,0,0:0:0:0:
364,112,78256,2,0,P|325:131|299:166,1,88.000002685547
264,268,78756,2,0,P|225:248|199:213,1,88.000002685547
192,108,79256,2,0,P|148:128|104:200,1,132.00000402832
96,248,79756,1,0,0:0:0:0:
96,352,80006,1,0,0:0:0:0:
180,288,80256,1,0,0:0:0:0:
276,328,80506,2,0,P|249:362|211:382,2,88.000002685547
320,232,81256,6,0,P|343:268|381:290,1,88.000002685547
420,192,81756,2,0,P|396:155|358:133,1,88.000002685547
308,40,82256,2,0,P|280:73|270:116,1,88.000002685547
196,188,82756,2,0,P|164:158|148:117,1,88.000002685547
84,36,83256,2,0,P|56:69|46:112,1,88.000002685547
92,208,83756,2,0,P|123:237|139:278,1,88.000002685547
224,340,84256,6,0,P|264:300|256:268,1,88.000002685547
224,172,84756,1,0,0:0:0:0:
224,172,85006,1,0,0:0:0:0:
324,144,85256,2,0,P|363:128|373:87,1,88.000002685547
224,172,85756,1,0,0:0:0:0:
224,172,86006,1,0,0:0:0:0:
136,116,86256,2,0,P|107:84|65:89,1,88.000002685547
224,172,86756,1,0,0:0:0:0:
224,172,87006,1,0,0:0:0:0:
220,276,87256,5,0,0:0:0:0:
220,276,87506,1,0,0:0:0:0:
220,380,87756,2,0,L|220:252,1,88.000002685547
