osu file format v14

[General]
AudioFilename: audio.mp3
AudioLeadIn: 0
PreviewTime: 50988
Countdown: 0
SampleSet: Soft
StackLeniency: 0.7
Mode: 0
LetterboxInBreaks: 0
WidescreenStoryboard: 1

[Editor]
Bookmarks: 5108,32800,51262,76079
DistanceSpacing: 1
BeatDivisor: 6
GridSize: 32
TimelineZoom: 1.6

[Metadata]
Title:Sora to Utsuro (TV Size)
TitleUnicode:空と虚 (TV Size)
Artist:Sasanomaly
ArtistUnicode:ササノマリイ
Creator:AirinCat
Version:Normal
Source:ヴァニタスの手記
Tags:The Case Study of vanitas no carte karte Shuki les memoires de anime opening japanese pop jpop utaite nekobolo ねこぼーろ
BeatmapID:3093161
BeatmapSetID:1509783

[Difficulty]
HPDrainRate:3
CircleSize:3.6
OverallDifficulty:4
ApproachRate:5.5
SliderMultiplier:1.3
SliderTickRate:1

[Events]
//Background and Video events
0,0,"edittt.jpg",0,0
Video,76,"cuteboi.mp4"
//Break Periods
//Storyboard Layer 0 (Background)
//Storyboard Layer 1 (Fail)
//Storyboard Layer 2 (Pass)
//Storyboard Layer 3 (Foreground)
//Storyboard Layer 4 (Overlay)
//Storyboard Sound Samples

[TimingPoints]
508,576.923076923077,4,2,1,50,1,0
5123,-76.9230769230769,4,2,1,60,0,0
13200,-76.9230769230769,4,2,1,60,0,0
13777,-76.9230769230769,4,2,1,70,0,0
14065,-76.9230769230769,4,2,1,70,0,0
14354,-83.3333333333333,4,2,1,55,0,0
32238,-83.3333333333333,4,2,1,70,0,0
32815,-83.3333333333333,4,2,2,60,0,0
42046,-80,4,2,2,60,0,0
48681,-80,4,2,1,60,0,0
48969,-80,4,2,1,60,0,0
51277,-76.9230769230769,4,2,1,70,0,1
69450,-76.9230769230769,4,2,1,70,0,1
69738,-76.9230769230769,4,2,1,70,0,1
76084,-76.9230769230769,4,2,1,60,0,0
76661,-83.3333333333333,4,2,2,50,0,0
81277,-90.9090909090909,4,2,2,40,0,0
85219,-90.9090909090909,4,2,1,60,0,0
85315,-90.9090909090909,4,2,1,60,0,0
85604,-90.9090909090909,4,2,1,60,0,0
85892,-90.9090909090909,4,2,1,60,0,0
86181,-90.9090909090909,4,2,1,5,0,0

[Colours]
Combo1 : 217,117,219
Combo2 : 121,162,198
Combo3 : 105,71,224
Combo4 : 173,113,223

[HitObjects]
0,200,5123,6,0,L|88:183,1,84.4999961318971,6|0,1:2|0:2,0:0:0:0:
130,113,5700,1,8,0:2:0:0:
209,154,5988,2,0,P|213:181|218:209,1,56.3333307545981,2|0,0:2|1:2,0:0:0:0:
196,228,6277,2,0,P|187:269|184:311,1,84.4999961318971,0|2,1:2|0:2,0:0:0:0:
231,383,6854,1,10,0:2:0:0:
301,337,7142,2,0,L|372:350,1,56.3333307545981,2|2,1:2|0:2,0:0:0:0:
468,358,7719,5,0,1:2:0:0:
509,284,8008,1,8,0:2:0:0:
436,240,8296,2,0,P|431:209|426:176,1,56.3333307545981,2|2,0:2|1:2,0:0:0:0:
443,161,8584,2,0,P|450:126|456:93,1,56.3333307545981,2|2,1:2|0:2,0:0:0:0:
376,23,9161,1,10,0:2:0:0:
312,78,9450,1,2,1:2:0:0:
246,25,9738,6,0,P|204:37|146:51,1,84.4999961318971,2|0,1:2|0:2,0:0:0:0:
84,18,10315,1,8,0:2:0:0:
37,88,10604,2,0,P|41:115|46:143,1,56.3333307545981,2|2,0:2|1:2,0:0:0:0:
63,165,10892,2,0,P|51:206|40:247,1,84.4999961318971,2|2,1:2|0:2,0:0:0:0:
66,327,11469,1,10,0:2:0:0:
148,310,11758,6,0,B|202:295|236:328|209:344|244:380|292:369,1,168.999992263794,2|2,1:2|1:2,0:0:0:0:
374,350,12623,1,10,0:2:0:0:
380,266,12911,1,8,0:3:0:0:
463,252,13200,1,2,1:2:0:0:
391,125,13681,6,0,L|347:134,1,28.1666653772991,10|10,0:2|0:2,0:0:0:0:
290,88,14065,1,10,0:2:0:0:
236,152,14354,6,0,L|250:228,1,77.999997619629,2|2,1:3|0:2,0:0:0:0:
303,285,14931,1,0,1:2:0:0:
272,356,15219,1,2,0:2:0:0:
197,333,15508,2,0,P|162:337|118:350,1,77.999997619629,2|2,1:3|0:2,0:0:0:0:
46,325,16084,2,0,P|40:285|26:245,1,77.999997619629,2|2,1:3|0:2,0:0:0:0:
92,205,16661,6,0,P|96:166|107:128,1,77.999997619629,2|2,1:3|0:2,0:0:0:0:
65,62,17238,1,0,1:2:0:0:
119,6,17527,1,2,0:2:0:0:
188,41,17815,2,0,P|226:50|279:55,1,77.999997619629,2|2,1:3|0:2,0:0:0:0:
316,112,18392,2,0,P|352:97|402:89,1,77.999997619629,2|2,1:3|0:2,0:0:0:0:
429,22,18969,5,2,1:3:0:0:
502,159,19546,1,0,1:2:0:0:
476,232,19834,1,2,0:2:0:0:
406,197,20123,2,0,P|367:207|307:214,1,77.999997619629,2|2,1:3|0:2,0:0:0:0:
279,272,20700,2,0,P|241:263|198:255,1,77.999997619629,2|2,1:3|0:2,0:0:0:0:
164,187,21277,6,0,P|128:196|83:204,1,77.999997619629,2|2,1:3|0:2,0:0:0:0:
13,228,21854,1,0,1:2:0:0:
5,305,22142,1,2,0:2:0:0:
64,355,22431,2,0,P|102:361|140:371,1,77.999997619629,2|2,1:3|0:2,0:0:0:0:
209,334,23008,2,0,P|213:293|223:249,1,77.999997619629,2|8,1:3|0:1,0:0:0:0:
281,207,23584,5,2,1:3:0:0:
223,154,23873,2,0,P|179:146|128:133,2,77.999997619629,2|2|2,0:2|1:2|0:2,0:0:0:0:
282,103,24738,1,2,1:3:0:0:
330,164,25027,2,0,P|364:169|392:177,1,51.999998413086,2|2,0:2|0:2,0:0:0:0:
436,229,25508,2,0,P|434:239|428:270,1,25.999999206543,2|2,0:2|0:2,0:0:0:0:
367,299,25892,5,2,1:3:0:0:
420,356,26181,2,0,P|459:344|508:338,2,77.999997619629,2|2|2,0:2|1:2|0:2,0:0:0:0:
345,379,27046,2,0,B|277:393|288:337|221:351,1,129.999996032715,2|2,1:3|0:2,0:0:0:0:
145,361,27815,2,0,L|116:349,1,25.999999206543,2|2,0:2|0:2,0:0:0:0:
43,358,28200,5,2,1:3:0:0:
4,290,28488,1,2,0:2:0:0:
61,237,28777,2,0,P|67:196|80:156,1,77.999997619629,2|2,1:2|0:2,0:0:0:0:
62,84,29354,2,0,P|99:76|128:99,1,77.999997619629,2|2,1:3|0:2,0:0:0:0:
179,159,29931,1,2,1:3:0:0:
249,125,30219,1,2,0:2:0:0:
297,186,30508,6,0,P|287:224|279:271,1,77.999997619629,2|2,1:3|0:2,0:0:0:0:
234,325,31084,1,2,1:2:0:0:
287,382,31373,1,2,0:2:0:0:
355,344,31661,2,0,P|395:353|451:370,1,77.999997619629,2|2,1:2|0:2,0:0:0:0:
495,319,32238,1,8,0:2:0:0:
491,163,32815,6,0,B|446:147|409:176|434:189|400:222|353:211,1,155.999995239258,2|8,1:2|0:2,0:0:0:0:
293,162,33681,1,2,3:2:0:0:
232,211,33969,1,0,3:2:0:0:
146,113,34450,2,0,P|150:92|157:72,1,25.999999206543,2|8,3:2|0:2,0:0:0:0:
94,35,34834,6,0,P|17:57|15:131,1,155.999995239258,2|2,3:2|0:2,0:0:0:0:
51,190,35700,1,10,0:2:0:0:
3,251,35988,1,2,3:2:0:0:
63,300,36277,1,2,0:2:0:0:
203,231,36854,2,0,L|272:247,1,51.999998413086,10|0,0:2|3:2,0:0:0:0:
268,263,37142,1,2,1:2:0:0:
330,216,37431,6,0,P|396:184|451:233,1,155.999995239258,2|8,1:2|0:2,0:0:0:0:
482,305,38296,1,2,3:2:0:0:
427,360,38584,1,2,3:2:0:0:
302,323,39065,2,0,L|276:326,1,25.999999206543,2|8,3:2|0:2,0:0:0:0:
200,307,39450,6,0,B|172:278|186:227|202:242|226:201|202:160,1,155.999995239258,2|10,3:2|0:2,0:0:0:0:
151,102,40315,1,10,0:2:0:0:
81,137,40604,1,2,3:2:0:0:
38,286,41181,1,2,1:2:0:0:
105,324,41469,2,0,P|140:316|193:312,1,77.999997619629,10|2,0:2|3:2,0:0:0:0:
248,265,42046,6,0,P|315:318|381:287,1,162.5,2|10,1:2|0:2,0:0:0:0:
423,223,42911,1,2,3:2:0:0:
362,168,43200,1,2,3:2:0:0:
481,103,43681,2,0,P|482:81|487:62,1,27.0833333333333,2|8,3:2|0:2,0:0:0:0:
431,14,44065,6,0,P|392:10|345:1,1,81.25,2|0,3:2|1:2,0:0:0:0:
276,35,44642,2,0,P|271:55|265:104,1,54.1666666666667,8|2,0:2|3:2,0:0:0:0:
240,97,44931,2,0,P|247:133|257:189,1,81.25,10|2,0:2|1:2,0:0:0:0:
320,225,45508,1,2,0:2:0:0:
279,295,45796,1,2,1:2:0:0:
202,267,46084,1,10,0:2:0:0:
139,319,46373,2,0,P|109:309|72:305,1,54.1666666666667,2|0,0:2|1:2,0:0:0:0:
64,321,46661,6,0,P|53:227|38:156,1,162.5,2|8,1:2|0:2,0:0:0:0:
82,91,47527,1,2,0:2:0:0:
150,135,47815,1,2,1:2:0:0:
242,36,48296,2,0,L|281:43,1,27.0833333333333,2|8,3:2|0:2,0:0:0:0:
327,97,48681,2,0,P|320:122|313:159,1,54.1666666666667,2|0,3:2|1:2,0:0:0:0:
292,165,48969,1,0,1:2:0:0:
341,229,49258,6,0,P|380:238|428:253,1,81.25,2|8,1:2|1:2,0:0:0:0:
400,328,49834,2,0,P|360:318|313:304,1,81.25,10|8,0:2|0:2,0:0:0:0:
266,246,50411,1,0,1:2:0:0:
214,308,50700,1,8,0:2:0:0:
105,178,51277,6,0,P|30:203|32:282,1,168.999992263794,6|8,1:2|0:2,0:0:0:0:
66,359,52142,2,0,P|95:350|130:346,1,56.3333307545981,2|0,0:2|1:2,0:0:0:0:
140,326,52431,1,2,1:2:0:0:
207,376,52719,1,2,3:2:0:0:
282,337,53008,2,0,B|294:311|294:311|278:287,1,56.3333307545981,10|0,0:2|3:0,0:0:0:0:
259,267,53296,6,0,B|232:240|243:173|266:197|290:149|266:110,1,168.999992263794,2|0,1:2|1:2,0:0:0:0:
215,41,54161,1,8,0:2:0:0:
290,2,54450,2,0,P|310:8|354:18,1,56.3333307545981,2|0,0:2|1:2,0:0:0:0:
356,41,54738,1,2,1:2:0:0:
436,15,55027,1,2,0:2:0:0:
490,78,55315,1,10,0:2:0:0:
433,140,55604,6,0,P|439:182|445:236,1,84.4999961318971,2|0,1:2|1:2,0:0:0:0:
475,302,56181,2,0,P|446:304|419:309,1,56.3333307545981,2|0,3:2|0:2,0:0:0:0:
398,328,56469,1,10,0:2:0:0:
320,361,56758,2,0,P|289:351|262:347,1,56.3333307545981,2|0,0:2|1:2,0:0:0:0:
252,322,57046,1,2,1:2:0:0:
195,259,57334,1,2,3:2:0:0:
122,302,57623,2,0,P|93:294|63:288,1,56.3333307545981,10|0,0:0|3:0,0:0:0:0:
40,296,57911,6,0,P|5:223|56:161,1,168.999992263794,2|2,1:2|1:2,0:0:0:0:
91,84,58777,1,10,0:2:0:0:
172,106,59065,2,0,L|239:94,1,56.3333307545981,10|0,0:2|1:2,0:0:0:0:
242,70,59354,1,2,1:2:0:0:
325,82,59642,1,2,1:2:0:0:
292,160,59931,2,0,P|298:186|303:229,1,56.3333307545981,10|10,0:2|0:2,0:0:0:0:
327,227,60219,2,0,P|320:253|316:296,1,56.3333307545981,2|2,1:2|0:2,0:0:0:0:
298,304,60508,6,0,P|339:308|379:321,1,84.4999961318971,6|0,1:2|0:2,0:0:0:0:
455,358,61084,1,10,0:2:0:0:
482,279,61373,2,0,P|487:243|495:217,1,56.3333307545981,2|0,3:2|0:2,0:0:0:0:
479,198,61661,1,2,1:2:0:0:
410,147,61950,1,2,3:2:0:0:
466,84,62238,1,10,0:2:0:0:
404,25,62527,6,0,B|333:18|350:81|276:67,1,140.833326886495,2|0,1:2|3:2,0:0:0:0:
248,63,63104,2,0,P|221:93|230:135,1,84.4999961318971,2|10,1:2|0:2,0:0:0:0:
286,195,63681,2,0,P|280:222|279:258,1,56.3333307545981,2|0,0:2|1:2,0:0:0:0:
297,271,63969,1,2,1:2:0:0:
261,347,64258,1,2,1:2:0:0:
189,301,64546,1,10,0:2:0:0:
136,367,64834,6,0,P|97:358|52:354,1,84.4999961318971,2|0,1:2|1:2,0:0:0:0:
0,287,65411,2,0,P|12:242|19:194,1,84.4999961318971,2|10,3:2|0:2,0:0:0:0:
86,154,65988,2,0,P|80:124|79:87,1,56.3333307545981,2|0,0:2|1:2,0:0:0:0:
56,79,66277,1,2,1:2:0:0:
108,12,66565,1,2,3:2:0:0:
185,47,66854,1,10,0:2:0:0:
262,13,67142,6,0,B|338:16|298:76|376:82,1,140.833326886495,2|0,1:2|0:0,0:0:0:0:
403,79,67719,2,0,P|396:113|393:165,1,84.4999961318971,2|10,1:2|0:2,0:0:0:0:
325,213,68296,2,0,P|296:203|267:201,1,56.3333307545981,2|0,0:2|1:2,0:0:0:0:
249,182,68584,1,2,1:2:0:0:
164,184,68873,1,2,1:2:0:0:
135,263,69161,1,10,0:2:0:0:
186,330,69450,1,2,3:3:0:0:
268,314,69738,6,0,P|309:322|350:333,1,84.4999961318971,6|0,1:2|0:2,0:0:0:0:
422,289,70315,1,10,0:2:0:0:
506,280,70604,2,0,P|508:247|516:212,1,56.3333307545981,2|0,3:2|1:2,0:0:0:0:
489,207,70892,2,0,P|483:162|470:107,1,84.4999961318971,2|0,1:2|0:2,0:0:0:0:
482,39,71469,1,10,0:2:0:0:
398,22,71758,6,0,B|346:19|318:66|351:67|334:121|279:117,1,168.999992263794,2|2,1:2|1:2,0:0:0:0:
218,58,72623,1,8,0:2:0:0:
139,88,72911,2,0,P|108:78|82:70,1,56.3333307545981,2|0,0:2|1:2,0:0:0:0:
66,49,73200,1,2,1:2:0:0:
11,113,73488,1,2,1:2:0:0:
49,188,73777,1,10,0:2:0:0:
0,261,74065,6,0,P|6:294|13:346,1,84.4999961318971,2|0,1:2|1:2,0:0:0:0:
93,370,74642,2,0,P|122:361|152:354,1,56.3333307545981,0|2,1:2|3:2,0:0:0:0:
165,333,74931,2,0,P|212:286|275:309,1,140.833326886495,10|2,0:2|1:2,0:0:0:0:
296,329,75508,1,2,1:2:0:0:
376,354,75796,1,2,0:2:0:0:
421,282,76084,2,0,P|413:236|409:191,1,84.4999961318971,10|2,0:2|0:2,0:0:0:0:
470,149,76661,6,0,P|397:153|313:165,1,155.999995239258,6|8,1:2|0:2,0:0:0:0:
195,64,77815,2,0,P|122:79|101:151,1,155.999995239258,2|10,3:2|0:2,0:0:0:0:
29,182,78681,2,0,L|36:229,1,38.9999988098145,2|2,0:2|0:2,0:0:0:0:
11,251,78969,2,0,B|95:243|50:308|147:307,1,155.999995239258,2|8,3:2|0:2,0:0:0:0:
287,376,80123,2,0,B|371:383|326:318|423:319,1,155.999995239258,2|10,3:2|0:2,0:0:0:0:
420,161,81277,6,0,P|346:151|318:214,1,143.000004364014,2|2,3:2|0:2,0:0:0:0:
319,362,82431,2,0,P|276:347|202:342,1,107.25000327301,2|2,3:2|0:2,0:0:0:0:
98,360,83296,1,2,0:2:0:0:
31,317,83584,2,0,P|16:267|52:225,1,107.25000327301,2|2,3:2|0:2,0:0:0:0:
88,144,84354,2,0,P|121:156|170:167,1,71.5000021820069,2|2,0:2|0:2,0:0:0:0:
173,184,84738,2,0,P|197:175|223:171,1,47.6666681213379,2|2,3:2|0:2,0:0:0:0:
300,202,85219,6,0,L|305:225,1,23.833334060669,8|8,0:2|0:2,0:0:0:0:
376,266,85604,1,10,0:2:0:0:
336,336,85892,2,0,P|301:344|253:355,1,71.5000021820069,2|0,1:2|0:2,0:0:0:0:
