osu file format v14

[General]
AudioFilename: audio.mp3
AudioLeadIn: 0
PreviewTime: 50988
Countdown: 0
SampleSet: Soft
StackLeniency: 0.7
Mode: 0
LetterboxInBreaks: 0
WidescreenStoryboard: 0

[Editor]
Bookmarks: 5108,32800,51262,76079
DistanceSpacing: 1
BeatDivisor: 6
GridSize: 32
TimelineZoom: 1.6

[Metadata]
Title:Sora to Utsuro (TV Size)
TitleUnicode:空と虚 (TV Size)
Artist:Sasanomaly
ArtistUnicode:ササノマリイ
Creator:AirinCat
Version:Insane
Source:ヴァニタスの手記
Tags:The Case Study of vanitas no carte karte Shuki les memoires de anime opening japanese pop jpop utaite nekobolo ねこぼーろ
BeatmapID:3091763
BeatmapSetID:1509783

[Difficulty]
HPDrainRate:5
CircleSize:4
OverallDifficulty:8
ApproachRate:9
SliderMultiplier:2.4
SliderTickRate:1

[Events]
//Background and Video events
0,0,"edittt.jpg",0,0
Video,76,"cuteboi.mp4"
//Break Periods
//Storyboard Layer 0 (Background)
//Storyboard Layer 1 (Fail)
//Storyboard Layer 2 (Pass)
//Storyboard Layer 3 (Foreground)
//Storyboard Layer 4 (Overlay)
//Storyboard Sound Samples

[TimingPoints]
508,576.923076923077,4,2,1,50,1,0
5123,-71.4285714285714,4,2,1,60,0,0
13200,-111.111111111111,4,2,1,60,0,0
13777,-66.6666666666666,4,2,1,70,0,0
14065,-111.111111111111,4,2,1,70,0,0
14354,-111.111111111111,4,2,1,55,0,0
32238,-333.333333333332,4,2,1,70,0,0
32815,-125,4,2,2,60,0,0
42046,-111.111111111111,4,2,2,60,0,0
48681,-99.9999999999999,4,2,1,60,0,0
48969,-71.4285714285714,4,2,1,60,0,0
50796,-71.4285714285714,4,2,1,5,0,0
51277,-68.9655172413793,4,2,1,70,0,1
69450,-105.263157894737,4,2,1,70,0,1
69738,-68.9655172413793,4,2,1,70,0,1
76084,-68.9655172413793,4,2,1,60,0,0
76661,-133.333333333333,4,2,2,50,0,0
81277,-181.818181818181,4,2,2,40,0,0
85219,-181.818181818181,4,2,1,60,0,0
85315,-74.0740740740741,4,2,1,60,0,0
85604,-133.333333333333,4,2,1,60,0,0
85892,-200,4,2,1,60,0,0
86181,-200,4,2,1,5,0,0

[Colours]
Combo1 : 217,117,219
Combo2 : 121,162,198
Combo3 : 105,71,224
Combo4 : 173,113,223

[HitObjects]
19,238,4450,5,2,0:2:0:0:
14,228,4546,2,0,P|7:268|-3:322,1,80,2|0,0:2|0:2,0:2:0:0:
69,371,4834,2,0,P|105:357|163:339,1,80,2|2,0:2|0:2,0:2:0:0:
143,266,5123,6,0,P|170:340|249:339,1,167.999994873047,6|0,1:2|0:2,0:2:0:0:
351,210,5604,1,0,3:2:0:0:
352,202,5700,2,0,P|301:213|242:232,1,111.999996582031,8|0,0:2|3:2,0:2:0:0:
167,196,5988,2,0,B|135:145|187:140|157:86,1,111.999996582031,2|0,0:2|1:2,0:2:0:0:
96,40,6277,1,0,1:2:0:0:
96,40,6565,2,0,P|153:36|217:22,1,111.999996582031,2|0,0:2|0:2,0:2:0:0:
280,78,6854,2,0,P|336:88|395:106,1,111.999996582031,10|0,0:2|3:2,0:2:0:0:
436,181,7142,2,0,P|481:153|478:100,1,111.999996582031,2|2,1:2|0:2,0:2:0:0:
172,187,7623,5,2,0:2:0:0:
166,181,7719,2,0,P|175:235|185:298,1,111.999996582031,0|2,1:2|0:2,0:2:0:0:
144,375,8008,1,8,0:2:0:0:
305,384,8200,1,2,3:2:0:0:
308,376,8296,1,2,0:2:0:0:
349,285,8488,1,2,1:2:0:0:
350,294,8584,2,0,B|404:292|395:339|447:339,1,111.999996582031,2|2,1:2|0:2,0:2:0:0:
512,276,8873,2,0,P|506:223|455:211,1,111.999996582031,2|0,0:2|3:2,0:2:0:0:
390,72,9161,6,0,P|372:126|359:180,1,111.999996582031,10|0,0:2|0:2,0:2:0:0:
264,310,9450,2,0,P|252:255|232:202,1,111.999996582031,2|0,1:2|0:2,0:2:0:0:
225,40,9738,6,0,P|184:108|106:98,1,167.999994873047,2|0,1:2|0:2,0:2:0:0:
3,213,10219,1,0,3:2:0:0:
4,221,10315,2,0,P|57:221|83:268,1,111.999996582031,8|0,0:2|3:2,0:2:0:0:
109,344,10604,2,0,P|113:291|163:273,1,111.999996582031,2|2,0:2|1:2,0:2:0:0:
254,231,10892,2,0,P|305:252|359:267,1,111.999996582031,2|0,1:2|0:2,0:2:0:0:
434,224,11181,1,2,0:2:0:0:
480,375,11373,1,0,3:2:0:0:
486,380,11469,2,0,P|523:341|512:289,1,111.999996582031,10|0,0:2|3:2,0:2:0:0:
496,147,11758,6,0,P|441:204|369:173,1,167.999994873047,2|0,1:2|3:2,0:2:0:0:
213,192,12238,1,0,3:2:0:0:
207,199,12334,2,0,P|182:152|218:106,1,111.999996582031,2|0,1:2|0:2,0:2:0:0:
328,10,12623,2,0,P|312:70|303:119,1,111.999996582031,10|0,0:2|3:2,0:2:0:0:
108,194,12911,2,0,P|98:139|84:85,1,111.999996582031,8|0,0:3|1:2,0:2:0:0:
295,239,13200,6,0,P|285:273|279:309,1,71.9999978027344,2|2,1:2|0:2,0:2:0:0:
279,309,13681,5,10,0:2:0:0:
208,341,13777,2,0,B|147:331|159:378|95:368,1,120.000004577637,10|0,0:2|0:2,0:2:0:0:
29,257,14065,2,2,P|65:270|101:282,1,71.9999978027344,10|0,0:2|0:2,0:2:0:0:
185,250,14354,6,0,P|219:208|199:159,1,107.999996704102,2|2,1:3|0:2,0:2:0:0:
38,45,14931,1,0,1:2:0:0:
40,39,15219,1,2,0:2:0:0:
5,142,15508,2,0,P|51:127|127:111,1,107.999996704102,2|2,1:3|0:2,0:2:0:0:
318,0,16084,2,0,P|302:53|289:122,1,107.999996704102,2|2,1:3|0:2,0:2:0:0:
240,302,16661,6,0,P|222:243|203:195,1,107.999996704102,2|2,1:3|0:2,0:2:0:0:
487,146,17238,1,0,1:2:0:0:
487,146,17527,2,0,P|450:137|408:127,1,71.9999978027344,2|0,0:2|0:2,0:2:0:0:
328,145,17815,2,0,P|287:176|295:227,1,107.999996704102,2|2,1:3|0:2,0:2:0:0:
145,350,18392,2,0,P|198:359|250:373,1,107.999996704102,2|2,1:3|0:2,0:2:0:0:
20,238,18969,6,0,P|74:223|124:207,1,107.999996704102,2|2,1:3|0:2,0:2:0:0:
251,46,19546,1,0,1:2:0:0:
250,36,19834,1,2,0:2:0:0:
130,0,20123,2,0,P|144:52|154:105,1,107.999996704102,2|2,1:3|0:2,0:2:0:0:
411,84,20700,2,0,P|397:137|386:192,1,107.999996704102,2|2,1:3|0:2,0:2:0:0:
210,349,21277,6,0,P|201:296|187:240,1,107.999996704102,2|2,1:3|0:2,0:2:0:0:
3,40,21854,2,0,P|38:32|73:25,1,71.9999978027344,0|0,1:2|0:2,0:2:0:0:
160,33,22142,2,0,P|174:65|159:96,1,71.9999978027344,2|0,0:2|0:2,0:2:0:0:
132,181,22431,2,0,P|81:170|72:117,1,107.999996704102,2|2,1:3|0:2,0:2:0:0:
255,75,22911,1,8,0:1:0:0:
248,88,23008,1,2,1:3:0:0:
349,316,23296,2,0,L|419:299,1,71.9999978027344,8|8,0:1|0:1,0:2:0:0:
393,187,23584,5,2,1:3:0:0:
393,187,23873,2,0,L|319:204,1,71.9999978027344,2|0,0:2|0:2,0:2:0:0:
275,278,24161,1,2,1:2:0:0:
163,201,24354,1,2,0:2:0:0:
159,208,24450,2,0,P|150:158|139:121,1,71.9999978027344,2|2,0:2|0:2,0:2:0:0:
205,59,24738,2,0,B|266:63|249:96|304:94,1,107.999996704102,2|2,1:3|0:2,0:2:0:0:
403,56,25219,1,2,0:2:0:0:
401,48,25315,1,2,1:3:0:0:
411,157,25508,1,2,0:2:0:0:
413,164,25604,2,0,L|505:151,1,71.9999978027344,2|0,0:2|0:2,0:2:0:0:
512,280,25892,5,2,1:3:0:0:
512,280,26181,2,0,L|422:293,1,71.9999978027344,2|0,0:2|0:2,0:2:0:0:
362,239,26469,1,2,1:2:0:0:
298,362,26661,1,2,0:2:0:0:
292,369,26758,2,0,P|281:325|275:298,1,71.9999978027344,2|2,0:2|0:2,0:2:0:0:
203,246,27046,2,0,B|171:234|150:247|150:247|139:278|100:286,1,107.999996704102,2|2,1:3|0:2,0:2:0:0:
22,223,27527,1,2,0:2:0:0:
24,214,27623,1,2,1:3:0:0:
98,142,27815,1,2,0:2:0:0:
100,134,27911,2,0,L|30:120,1,71.9999978027344,2|0,0:2|0:2,0:2:0:0:
61,3,28200,5,2,1:3:0:0:
61,3,28488,2,0,L|131:17,1,71.9999978027344,2|2,0:2|0:2,0:2:0:0:
216,86,28777,2,0,P|252:74|306:64,1,71.9999978027344,2|0,1:2|0:2,0:2:0:0:
386,0,29065,2,0,P|410:24|407:59,1,71.9999978027344,2|0,0:2|0:2,0:2:0:0:
435,149,29354,2,0,P|385:166|349:124,1,107.999996704102,2|2,1:3|0:2,0:2:0:0:
508,244,29931,2,0,P|495:301|488:366,1,107.999996704102,2|2,1:3|0:2,0:2:0:0:
233,156,30508,6,0,B|179:157|201:200|143:208,1,107.999996704102,2|2,1:3|0:2,0:2:0:0:
55,171,30988,1,0,3:0:0:0:
53,163,31084,1,2,1:2:0:0:
9,299,31373,1,2,0:2:0:0:
147,358,31661,1,2,1:2:0:0:
208,310,31950,1,2,0:2:0:0:
143,87,32238,6,0,P|137:104|132:125,1,35.9999989013672,8|0,0:2|0:2,0:2:0:0:
347,233,32815,6,0,P|312:222|253:211,2,96,2|0|8,1:2|0:2|0:2,0:2:0:0:
470,192,33584,1,2,0:2:0:0:
465,187,33681,2,0,P|453:223|446:261,1,64,2|0,3:2|0:2,0:2:0:0:
506,325,33969,2,0,B|457:323|467:358|422:366,1,96,0|0,3:2|0:2,0:2:0:0:
299,311,34450,2,0,P|305:291|310:270,1,32,2|8,3:2|0:2,0:2:0:0:
314,274,34834,6,0,B|277:254|243:279|243:279|228:332|182:325,1,160,2|0,3:2|0:2,0:2:0:0:
79,349,35411,2,0,P|71:318|61:288,1,64,2|0,0:2|0:2,0:2:0:0:
140,224,35700,1,10,0:2:0:0:
140,224,35988,2,0,L|160:157,1,64,2|0,3:2|0:2,0:2:0:0:
65,129,36277,1,2,0:2:0:0:
65,129,36565,2,0,L|57:63,1,64,2|0,3:2|0:2,0:2:0:0:
138,4,36854,1,10,0:2:0:0:
228,97,37046,1,0,3:2:0:0:
231,105,37142,2,0,P|267:97|295:91,1,64,2|0,1:2|0:2,0:2:0:0:
380,59,37431,6,0,P|369:102|357:164,2,96,2|0|8,1:2|0:2|0:2,0:2:0:0:
508,91,38296,2,0,L|495:162,1,64,2|0,3:2|0:2,0:2:0:0:
512,242,38584,2,0,P|466:249|438:214,1,96,2|0,3:2|0:2,0:2:0:0:
308,290,39065,2,0,P|323:292|339:296,1,32,2|8,3:2|0:2,0:2:0:0:
347,301,39450,6,0,P|263:315|180:344,1,160,2|0,3:2|3:2,0:2:0:0:
118,284,40027,1,10,0:2:0:0:
212,191,40219,1,2,3:2:0:0:
218,195,40315,2,0,P|209:158|203:119,1,64,10|0,0:2|0:2,0:2:0:0:
120,78,40604,2,0,B|74:85|90:119|47:136,1,96,2|0,3:2|0:2,0:2:0:0:
218,23,41181,2,0,P|248:30|290:33,1,64,2|0,1:2|0:2,0:2:0:0:
368,0,41469,2,0,P|385:25|378:55,1,64,10|0,0:2|3:2,0:2:0:0:
308,121,41758,2,0,P|321:148|331:196,1,64,2|0,3:2|0:2,0:2:0:0:
424,271,42046,6,0,P|470:274|501:223,1,107.999996704102,2|0,1:2|0:2,0:2:0:0:
353,378,42623,2,0,P|324:363|286:349,1,71.9999978027344,10|0,0:2|0:2,0:2:0:0:
248,276,42911,2,0,P|219:291|178:300,1,71.9999978027344,2|0,3:2|0:2,0:2:0:0:
97,270,43200,2,0,B|69:219|112:215|79:166,1,107.999996704102,2|2,3:2|3:2,0:2:0:0:
11,38,43681,2,0,P|6:53|-4:81,1,35.9999989013672,2|8,3:2|0:2,0:2:0:0:
3,81,44065,6,0,P|52:96|93:64,1,107.999996704102,2|0,3:2|1:2,0:2:0:0:
209,158,44546,1,2,0:2:0:0:
200,162,44642,1,8,0:2:0:0:
271,75,44834,1,2,3:2:0:0:
262,79,44931,2,0,P|293:85|346:102,1,71.9999978027344,10|0,0:2|0:2,0:2:0:0:
383,167,45219,2,0,P|418:156|454:147,1,71.9999978027344,2|0,1:2|0:2,0:2:0:0:
511,218,45508,2,0,P|500:260|493:330,1,107.999996704102,2|2,0:2|1:2,0:2:0:0:
276,374,46084,2,0,P|254:348|264:313,1,71.9999978027344,10|0,0:2|3:2,0:2:0:0:
319,249,46373,2,0,P|348:261|389:271,1,71.9999978027344,2|0,0:2|1:2,0:2:0:0:
284,150,46661,6,0,B|229:156|251:194|196:207,1,107.999996704102,2|0,1:2|0:2,0:2:0:0:
95,105,47142,1,2,0:2:0:0:
103,101,47238,2,0,P|92:136|82:174,1,71.9999978027344,8|0,0:2|0:2,0:2:0:0:
0,212,47527,2,0,P|13:246|23:282,1,71.9999978027344,2|0,0:2|0:2,0:2:0:0:
10,366,47815,2,0,P|54:375|94:328,1,107.999996704102,2|0,1:2|0:2,0:2:0:0:
230,286,48296,2,0,P|214:281|192:274,1,35.9999989013672,2|8,3:2|0:2,0:2:0:0:
195,275,48681,1,2,3:2:0:0:
337,350,48873,5,0,1:2:0:0:
378,286,48969,1,0,1:2:0:0:
378,286,49258,6,0,B|349:227|394:226|370:177,1,111.999996582031,2|0,1:2|0:2,0:2:0:0:
291,98,49546,1,8,1:2:0:0:
242,99,49642,1,8,0:2:0:0:
208,128,49738,1,8,0:2:0:0:
188,175,49834,1,10,0:2:0:0:
146,199,49931,1,8,0:3:0:0:
104,185,50027,1,8,0:3:0:0:
87,141,50123,5,8,0:2:0:0:
278,173,50315,1,8,0:3:0:0:
290,250,50411,1,0,1:2:0:0:
42,357,50700,2,0,B|21:338|21:338|36:313,1,55.9999982910157,8|0,0:2|0:2,0:2:0:0:
123,323,51277,6,0,B|173:343|205:293|180:284|209:235|260:250,1,174.000005310059,6|0,1:2|0:2,0:2:0:0:
479,341,51758,1,0,3:2:0:0:
485,346,51854,2,0,P|441:379|391:355,1,116.000003540039,8|0,0:2|3:2,0:2:0:0:
347,285,52142,2,0,P|358:256|368:228,1,58.0000017700196,2|0,0:2|0:2,0:2:0:0:
459,132,52334,5,0,1:2:0:0:
441,208,52431,2,0,P|385:182|334:165,1,116.000003540039,2|0,1:2|0:2,0:2:0:0:
325,38,52719,2,0,P|271:60|215:76,1,116.000003540039,2|0,3:2|0:2,0:2:0:0:
183,171,53008,2,0,P|152:157|110:147,1,58.0000017700196,10|0,0:2|0:2,0:2:0:0:
42,156,53200,5,0,3:2:0:0:
37,163,53296,2,0,B|15:119|51:85|51:85|102:79|105:26,2,174.000005310059,2|0|0,1:2|0:2|1:2,0:2:0:0:
42,341,54065,1,2,0:2:0:0:
39,349,54161,2,0,P|3:307|26:257,1,116.000003540039,8|0,0:2|3:2,0:2:0:0:
113,210,54450,2,0,P|141:220|185:229,1,58.0000017700196,2|0,0:2|0:2,0:2:0:0:
213,332,54642,5,0,1:2:0:0:
282,300,54738,2,0,P|293:238|317:177,1,116.000003540039,2|0,1:2|0:2,0:2:0:0:
194,138,55027,2,0,P|188:109|179:82,1,58.0000017700196,2|0,0:2|0:2,0:2:0:0:
235,0,55219,1,0,3:2:0:0:
236,7,55315,2,0,P|293:8|315:63,1,116.000003540039,10|0,0:2|0:2,0:2:0:0:
384,218,55604,6,0,P|352:173|382:128,1,116.000003540039,2|0,1:2|0:2,0:2:0:0:
489,162,55892,1,0,1:2:0:0:
489,162,56181,2,0,P|496:215|510:283,1,116.000003540039,2|0,3:2|0:2,0:2:0:0:
410,355,56469,2,0,P|355:332|294:319,1,116.000003540039,10|0,0:2|0:2,0:2:0:0:
240,235,56758,2,0,P|213:243|171:253,1,58.0000017700196,2|0,0:2|0:2,0:2:0:0:
114,323,56950,5,0,1:2:0:0:
36,307,57046,2,0,P|1:263|27:214,1,116.000003540039,2|0,1:2|0:2,0:2:0:0:
45,87,57334,2,0,P|99:96|116:152,1,116.000003540039,2|0,3:2|0:2,0:2:0:0:
258,23,57623,2,0,P|278:74|244:118,1,116.000003540039,10|0,0:2|3:2,0:2:0:0:
186,65,57911,6,0,P|265:94|353:144,2,174.000005310059,2|0|2,1:2|0:2|1:2,0:2:0:0:
31,200,58777,2,0,P|12:251|53:288,1,116.000003540039,10|0,0:2|0:2,0:2:0:0:
144,340,59065,2,0,P|177:326|218:315,1,58.0000017700196,10|0,0:2|0:2,0:2:0:0:
273,240,59258,5,0,1:2:0:0:
311,308,59354,2,0,P|356:340|407:317,1,116.000003540039,2|0,1:2|0:2,0:2:0:0:
512,166,59642,2,0,B|446:167|479:214|414:219,1,116.000003540039,2|0,1:2|3:2,0:2:0:0:
321,173,59931,1,10,0:2:0:0:
419,37,60123,1,10,0:2:0:0:
343,65,60219,2,0,P|288:41|228:15,1,116.000003540039,2|2,1:2|0:2,0:2:0:0:
120,187,60508,6,0,P|160:115|239:139,1,174.000005310059,6|0,1:2|0:2,0:2:0:0:
239,317,60988,1,0,3:2:0:0:
240,310,61084,2,0,P|189:332|146:298,1,116.000003540039,10|0,0:2|3:2,0:2:0:0:
60,355,61373,2,0,P|25:312|61:260,1,116.000003540039,2|0,3:2|0:2,0:2:0:0:
193,215,61661,6,0,P|250:231|305:246,1,116.000003540039,2|2,1:2|0:2,0:2:0:0:
406,212,61950,2,0,P|415:179|423:152,1,58.0000017700196,2|0,3:2|0:2,0:2:0:0:
401,51,62142,1,0,1:2:0:0:
331,89,62238,2,0,P|275:94|251:42,1,116.000003540039,10|0,0:2|0:2,0:2:0:0:
147,6,62527,6,0,P|68:24|62:106,1,174.000005310059,2|0,1:2|0:2,0:2:0:0:
175,237,63008,1,0,3:2:0:0:
175,243,63104,2,0,P|221:210|208:156,1,116.000003540039,2|0,1:2|0:2,0:2:0:0:
111,178,63392,2,0,P|56:193|1:212,1,116.000003540039,10|0,0:2|3:2,0:2:0:0:
0,313,63681,2,0,P|27:320|54:331,1,58.0000017700196,2|0,0:2|0:2,0:2:0:0:
142,384,63873,5,0,1:2:0:0:
192,326,63969,2,0,P|254:313|281:365,1,116.000003540039,2|0,1:2|0:2,0:2:0:0:
400,384,64258,2,0,P|437:343|406:294,1,116.000003540039,2|0,1:2|3:2,0:2:0:0:
388,172,64546,2,0,P|332:178|322:241,1,116.000003540039,10|0,0:2|0:2,0:2:0:0:
511,218,64834,6,0,P|500:161|490:99,1,116.000003540039,2|0,1:2|0:2,0:2:0:0:
415,31,65123,1,0,1:2:0:0:
415,31,65411,2,0,P|379:74|324:60,1,116.000003540039,2|0,3:2|0:2,0:2:0:0:
241,160,65700,2,0,P|193:132|205:77,1,116.000003540039,10|0,0:2|3:2,0:2:0:0:
200,0,65988,2,0,P|227:7|266:15,1,58.0000017700196,2|0,0:2|0:2,0:2:0:0:
390,101,66181,5,0,1:2:0:0:
338,162,66277,2,0,P|344:218|361:282,1,116.000003540039,2|0,1:2|0:2,0:2:0:0:
252,355,66565,2,0,P|199:338|198:284,1,116.000003540039,2|0,3:2|3:2,0:2:0:0:
154,176,66854,2,0,P|188:185|209:192,1,58.0000017700196,10|0,0:2|0:2,0:2:0:0:
190,99,67046,5,0,3:2:0:0:
189,92,67142,2,0,B|141:82|116:133|143:141|120:196|64:185,1,174.000005310059,2|0,1:2|0:2,0:2:0:0:
289,11,67719,2,0,B|347:18|320:70|380:72,1,116.000003540039,2|0,1:2|0:2,0:2:0:0:
470,78,68008,2,0,B|495:60|520:60|520:60|493:38|465:74,1,116.000003540039,10|0,0:2|3:2,0:2:0:0:
418,163,68296,2,0,P|422:193|429:235,1,58.0000017700196,2|0,0:2|0:2,0:2:0:0:
469,338,68488,5,0,1:2:0:0:
493,265,68584,2,0,P|447:266|375:288,1,116.000003540039,2|0,1:2|0:2,0:2:0:0:
170,350,68873,2,0,B|213:359|213:359|251:336|234:288,1,116.000003540039,2|0,1:2|0:2,0:2:0:0:
268,106,69161,2,0,B|228:126|228:126|213:167|257:194,1,116.000003540039,10|0,0:2|0:2,0:2:0:0:
357,203,69450,2,0,P|396:194|431:185,1,75.9999979705811,2|0,3:3|0:2,0:2:0:0:
236,296,69738,6,0,B|180:305|159:259|181:249|148:201|98:219,1,174.000005310059,6|0,1:2|0:2,0:2:0:0:
32,80,70219,1,0,3:2:0:0:
26,83,70315,2,0,P|57:38|110:51,1,116.000003540039,10|0,0:2|0:2,0:2:0:0:
198,63,70604,2,0,P|186:90|177:133,1,58.0000017700196,2|0,3:2|0:2,0:2:0:0:
241,219,70796,5,0,1:2:0:0:
299,171,70892,2,0,B|335:133|386:158|386:158|400:206|438:211,1,174.000005310059,2|0,1:2|0:2,0:2:0:0:
321,383,71469,2,0,P|275:357|280:298,1,116.000003540039,10|0,0:2|0:2,0:2:0:0:
356,314,71758,6,0,P|268:327|172:353,2,174.000005310059,2|0|2,1:2|0:2|1:2,0:2:0:0:
484,173,72527,1,0,3:2:0:0:
491,175,72623,2,0,P|460:128|403:134,1,116.000003540039,8|0,0:2|3:2,0:2:0:0:
336,73,72911,2,0,P|327:101|319:140,1,58.0000017700196,2|0,0:2|0:2,0:2:0:0:
251,200,73104,5,0,1:2:0:0:
160,173,73200,2,0,B|99:173|120:224|63:227,1,116.000003540039,2|0,1:2|0:2,0:2:0:0:
256,282,73488,2,0,B|266:308|261:335|261:335|289:304|262:281,1,116.000003540039,2|0,1:2|0:2,0:2:0:0:
243,112,73777,2,0,B|232:85|237:58|237:58|209:89|236:112,1,116.000003540039,10|0,0:2|0:2,0:2:0:0:
481,216,74065,6,0,P|431:153|344:167,2,174.000005310059,2|0|0,1:2|1:2|1:2,0:2:0:0:
321,380,74834,1,2,3:2:0:0:
315,384,74931,2,0,P|277:343|306:296,1,116.000003540039,10|0,0:2|3:2,0:2:0:0:
368,254,75219,2,0,P|395:263|421:275,1,58.0000017700196,2|0,3:2|0:2,0:2:0:0:
346,165,75411,1,2,1:2:0:0:
275,218,75508,2,0,P|215:220|192:166,1,116.000003540039,2|0,1:2|0:2,0:2:0:0:
97,119,75796,2,0,P|124:70|189:78,1,116.000003540039,2|0,0:2|0:2,0:2:0:0:
191,175,76084,5,10,0:2:0:0:
191,175,76373,1,2,0:2:0:0:
44,326,76661,6,0,P|32:269|20:225,2,90.0000034332277,6|0|8,1:2|0:2|0:2,0:2:0:0:
122,373,77431,1,2,0:2:0:0:
131,370,77527,1,0,0:2:0:0:
257,312,77815,2,0,B|295:318|295:318|299:325|299:325|348:333,1,90.0000034332277,2|0,3:2|0:2,0:2:0:0:
511,219,78392,2,0,B|473:225|473:225|469:232|469:232|420:240,1,90.0000034332277,10|2,0:2|0:2,0:2:0:0:
353,219,78825,1,2,0:2:0:0:
391,149,78969,6,0,B|385:104|385:104|381:98|381:98|375:59,2,90.0000034332277,2|0|8,3:2|0:2|0:2,0:2:0:0:
264,166,79834,2,0,P|259:136|252:107,1,60.0000022888184,2|2,0:2|0:2,0:2:0:0:
181,67,80123,2,0,B|138:71|145:93|99:101,1,90.0000034332277,2|0,3:2|0:2,0:2:0:0:
22,223,80700,2,0,B|65:227|58:249|103:257,1,90.0000034332277,10|0,0:2|0:2,0:2:0:0:
323,365,81277,5,2,3:2:0:0:
300,371,81421,1,2,0:2:0:0:
282,360,81565,2,0,P|262:361|246:367,1,33.0000010070801,2|2,0:0|0:0,0:0:0:0:
175,378,81854,1,2,0:2:0:0:
162,363,81998,1,2,0:2:0:0:
172,346,82142,2,0,P|178:325|178:307,1,33.0000010070801,2|0,0:2|0:2,0:2:0:0:
243,264,82431,6,0,L|234:212,1,33.0000010070801,2|2,3:2|0:2,0:2:0:0:
206,160,82719,1,2,0:0:0:0:
188,152,82863,1,2,0:2:0:0:
166,151,83152,1,2,0:2:0:0:
95,173,83296,2,0,P|80:167|48:160,1,33.0000010070801,2|0,0:2|0:2,0:2:0:0:
245,84,83584,6,0,P|278:91|302:99,1,33.0000010070801,2|2,3:2|0:2,0:2:0:0:
353,83,83873,1,2,0:0:0:0:
373,90,84017,1,2,0:2:0:0:
386,105,84354,2,0,P|376:133|366:172,1,66.0000020141602,2|2,0:2|0:2,0:2:0:0:
410,234,84738,2,0,P|431:241|453:251,1,44.0000013427735,2|2,3:2|0:2,0:2:0:0:
344,341,85219,5,8,0:2:0:0:
286,294,85315,2,0,B|223:298|254:335|181:340,1,108.000000411987,8|0,0:2|0:2,0:2:0:0:
114,223,85604,2,2,P|145:236|174:247,1,60.0000022888184,10|0,0:2|0:2,0:2:0:0:
55,377,85892,6,0,P|46:345|36:314,1,60,2|0,1:2|0:2,0:2:0:0:
