osu file format v14

[General]
AudioFilename: audio.mp3
AudioLeadIn: 0
PreviewTime: 50988
Countdown: 0
SampleSet: Soft
StackLeniency: 0.7
Mode: 0
LetterboxInBreaks: 0
WidescreenStoryboard: 1

[Editor]
Bookmarks: 5108,32800,51262,76079
DistanceSpacing: 1.2
BeatDivisor: 6
GridSize: 32
TimelineZoom: 1.6

[Metadata]
Title:Sora to Utsuro (TV Size)
TitleUnicode:空と虚 (TV Size)
Artist:Sasanomaly
ArtistUnicode:ササノマリイ
Creator:AirinCat
Version:Easy
Source:ヴァニタスの手記
Tags:The Case Study of vanitas no carte karte Shuki les memoires de anime opening japanese pop jpop utaite nekobolo ねこぼーろ
BeatmapID:3118727
BeatmapSetID:1509783

[Difficulty]
HPDrainRate:2
CircleSize:3
OverallDifficulty:3
ApproachRate:4
SliderMultiplier:1.1
SliderTickRate:1

[Events]
//Background and Video events
0,0,"edittt.jpg",0,0
Video,76,"cuteboi.mp4"
//Break Periods
//Storyboard Layer 0 (Background)
//Storyboard Layer 1 (Fail)
//Storyboard Layer 2 (Pass)
//Storyboard Layer 3 (Foreground)
//Storyboard Layer 4 (Overlay)
//Storyboard Sound Samples

[TimingPoints]
508,576.923076923077,4,2,1,50,1,0
5123,-76.9230769230769,4,2,1,60,0,0
13200,-76.9230769230769,4,2,1,60,0,0
13777,-76.9230769230769,4,2,1,70,0,0
14065,-76.9230769230769,4,2,1,70,0,0
14354,-76.9230769230769,4,2,1,55,0,0
32238,-76.9230769230769,4,2,1,70,0,0
32815,-76.9230769230769,4,2,2,60,0,0
42046,-76.9230769230769,4,2,2,60,0,0
48681,-76.9230769230769,4,2,1,60,0,0
48969,-76.9230769230769,4,2,1,60,0,0
51277,-76.9230769230769,4,2,1,70,0,1
69450,-76.9230769230769,4,2,1,70,0,1
69738,-76.9230769230769,4,2,1,70,0,1
76084,-76.9230769230769,4,2,1,60,0,0
76661,-76.9230769230769,4,2,2,50,0,0
81277,-76.9230769230769,4,2,2,40,0,0
85219,-76.9230769230769,4,2,1,60,0,0
85315,-76.9230769230769,4,2,1,60,0,0
85604,-76.9230769230769,4,2,1,60,0,0
85892,-76.9230769230769,4,2,1,60,0,0
86181,-76.9230769230769,4,2,1,5,0,0

[Colours]
Combo1 : 217,117,219
Combo2 : 121,162,198
Combo3 : 105,71,224
Combo4 : 173,113,223

[HitObjects]
13,309,5123,6,0,P|64:263|129:283,1,142.99999345398,6|8,1:2|0:2,0:0:0:0:
201,330,5988,1,2,0:2:0:0:
272,281,6277,2,0,P|275:240|282:191,2,71.4999967269899,0|2|10,1:2|0:2|0:2,0:0:0:0:
331,343,7142,1,2,1:2:0:0:
488,274,7719,1,0,1:2:0:0:
435,205,8008,2,0,L|448:134,1,71.4999967269899,8|2,0:2|0:2,0:0:0:0:
469,51,8584,1,2,1:2:0:0:
299,24,9161,2,0,P|293:58|283:110,1,71.4999967269899,10|2,0:2|1:2,0:0:0:0:
214,141,9738,6,0,B|140:156|155:94|82:103,1,142.99999345398,2|8,1:2|0:2,0:0:0:0:
12,157,10604,1,2,0:2:0:0:
67,222,10892,2,0,B|69:298|24:279|37:357,1,142.99999345398,2|10,1:2|0:2,0:0:0:0:
123,352,11758,2,0,P|191:357|275:374,1,142.99999345398,2|2,1:2|1:2,0:0:0:0:
331,317,12623,1,10,0:2:0:0:
233,176,13200,2,0,L|246:116,1,47.6666644846599,2|2,1:2|0:2,0:0:0:0:
317,42,13777,2,0,L|398:60,1,71.4999967269899,10|10,0:2|0:2,0:0:0:0:
455,109,14354,5,2,1:3:0:0:
492,276,14931,1,0,1:2:0:0:
331,337,15508,2,0,P|296:328|247:318,1,71.4999967269899,2|2,1:3|0:2,0:0:0:0:
194,267,16084,2,0,P|157:277|110:286,1,71.4999967269899,2|2,1:3|0:2,0:0:0:0:
41,307,16661,2,0,P|2:249|29:186,1,142.99999345398,2|0,1:3|1:2,0:0:0:0:
57,105,17527,1,2,0:2:0:0:
138,77,17815,2,0,P|176:92|215:105,1,71.4999967269899,2|2,1:3|0:2,0:0:0:0:
250,175,18392,2,0,P|239:210|227:250,1,71.4999967269899,2|2,1:3|0:2,0:0:0:0:
159,294,18969,5,2,1:3:0:0:
306,381,19546,1,0,1:2:0:0:
453,294,20123,2,0,L|436:217,1,71.4999967269899,2|2,1:3|0:2,0:0:0:0:
476,147,20700,2,0,L|486:75,1,71.4999967269899,2|2,1:3|0:2,0:0:0:0:
421,19,21277,2,0,B|334:21|365:65|289:67,1,142.99999345398,2|0,1:3|1:2,0:0:0:0:
220,18,22142,1,2,0:2:0:0:
148,65,22431,2,0,P|151:99|159:144,1,71.4999967269899,2|2,1:3|0:2,0:0:0:0:
85,183,23008,2,0,P|76:214|68:263,1,71.4999967269899,2|8,1:3|0:1,0:0:0:0:
4,308,23584,5,2,1:3:0:0:
175,307,24161,2,0,L|250:333,1,71.4999967269899,2|2,1:2|0:2,0:0:0:0:
315,284,24738,2,0,B|388:283|360:343|430:356,2,142.99999345398,2|2|2,1:3|1:3|1:3,0:0:0:0:
206,150,26469,2,0,P|215:116|222:72,1,71.4999967269899,2|2,1:2|0:2,0:0:0:0:
160,19,27046,2,0,B|123:1|86:18|86:18|64:58|38:62,2,142.99999345398,2|2|2,1:3|1:3|1:3,0:0:0:0:
300,117,28777,1,2,1:2:0:0:
372,71,29065,1,2,0:2:0:0:
428,135,29354,2,0,P|418:170|413:219,1,71.4999967269899,2|2,1:3|0:2,0:0:0:0:
476,264,29931,2,0,P|469:295|462:343,1,71.4999967269899,2|2,1:3|0:2,0:0:0:0:
388,376,30508,6,0,B|316:372|339:314|264:312,1,142.99999345398,2|2,1:3|1:2,0:0:0:0:
104,370,31661,1,2,1:2:0:0:
10,226,32238,1,8,0:2:0:0:
167,158,32815,6,0,P|240:171|323:184,1,142.99999345398,2|8,1:2|0:2,0:0:0:0:
359,250,33681,1,2,3:2:0:0:
440,222,33969,2,0,P|472:174|460:117,1,119.16666121165,0|2,3:2|3:2,0:0:0:0:
392,25,34834,2,0,P|326:37|232:47,1,142.99999345398,2|2,3:2|0:2,0:0:0:0:
185,101,35700,2,0,P|190:132|196:178,1,71.4999967269899,10|2,0:2|3:2,0:0:0:0:
264,222,36277,1,2,0:2:0:0:
150,350,36854,6,0,L|81:329,1,71.4999967269899,10|2,0:2|1:2,0:0:0:0:
8,283,37431,2,0,B|-2:213|63:219|43:150,1,142.99999345398,2|8,1:2|0:2,0:0:0:0:
18,68,38296,1,2,3:2:0:0:
93,27,38584,2,0,P|147:41|218:56,1,119.16666121165,2|2,3:2|3:2,0:0:0:0:
323,64,39450,2,0,P|348:127|308:182,1,142.99999345398,2|10,3:2|0:2,0:0:0:0:
232,222,40315,2,0,P|241:253|247:293,1,71.4999967269899,10|2,0:2|3:2,0:0:0:0:
413,332,41181,5,2,1:2:0:0:
468,266,41469,2,0,P|460:228|458:179,1,71.4999967269899,10|2,0:2|3:2,0:0:0:0:
488,114,42046,1,2,1:2:0:0:
342,22,42623,2,0,P|306:33|260:41,1,71.4999967269899,10|2,0:2|3:2,0:0:0:0:
214,102,43200,2,0,P|156:96|130:32,1,119.16666121165,2|2,3:2|3:2,0:0:0:0:
23,93,44065,2,0,B|0:163|55:166|41:230,1,142.99999345398,2|8,3:2|0:2,0:0:0:0:
97,295,44931,2,0,P|89:327|83:365,2,71.4999967269899,10|2|2,0:2|1:2|0:2,0:0:0:0:
163,240,45796,1,2,1:2:0:0:
239,279,46084,2,0,P|276:291|320:302,1,71.4999967269899,10|2,0:2|0:2,0:0:0:0:
362,365,46661,5,2,1:2:0:0:
494,256,47238,2,0,P|485:216|479:172,1,71.4999967269899,8|2,0:2|0:2,0:0:0:0:
413,131,47815,2,0,B|348:121|367:166|304:169,1,119.16666121165,2|2,1:2|3:2,0:0:0:0:
214,97,48681,2,0,P|223:60|230:22,2,71.4999967269899,2|0|2,3:2|1:2|1:2,0:0:0:0:
133,128,49546,2,0,P|63:122|22:185,1,142.99999345398,8|8,1:2|0:2,0:0:0:0:
39,347,50700,1,8,0:2:0:0:
206,308,51277,6,0,B|280:295|272:352|341:336,1,142.99999345398,6|8,1:2|0:2,0:0:0:0:
419,301,52142,1,2,0:2:0:0:
385,221,52431,2,0,P|393:182|402:137,1,71.4999967269899,2|2,1:2|3:2,0:0:0:0:
458,87,53008,1,10,0:2:0:0:
394,29,53296,2,0,P|339:41|244:62,1,142.99999345398,2|0,1:2|1:2,0:0:0:0:
87,17,54450,1,2,0:2:0:0:
35,85,54738,2,0,L|52:166,1,71.4999967269899,2|2,1:2|0:2,0:0:0:0:
23,236,55315,1,10,0:2:0:0:
96,280,55604,6,0,B|174:289|132:345|206:360,1,142.99999345398,2|2,1:2|3:2,0:0:0:0:
289,342,56469,2,0,P|294:305|307:256,1,71.4999967269899,10|2,0:2|0:2,0:0:0:0:
377,230,57046,2,0,P|412:239|452:247,2,71.4999967269899,2|2|10,1:2|3:2|0:2,0:0:0:0:
324,162,57911,2,0,P|298:98|341:44,1,142.99999345398,2|2,1:2|1:2,0:0:0:0:
421,13,58777,1,10,0:2:0:0:
507,161,59354,2,0,P|497:196|487:247,1,71.4999967269899,2|2,1:2|1:2,0:0:0:0:
416,275,59931,2,0,P|381:265|331:256,1,71.4999967269899,10|2,0:2|1:2,0:0:0:0:
279,204,60508,6,0,P|212:219|198:285,1,142.99999345398,6|10,1:2|0:2,0:0:0:0:
160,362,61373,1,2,3:2:0:0:
77,340,61661,2,0,P|42:346|2:360,2,71.4999967269899,2|2|10,1:2|3:2|0:2,0:0:0:0:
115,262,62527,1,2,1:2:0:0:
12,124,63104,2,0,P|20:85|26:51,1,71.4999967269899,2|10,1:2|0:2,0:0:0:0:
105,23,63681,1,2,0:2:0:0:
171,76,63969,2,0,P|162:114|156:161,2,71.4999967269899,2|2|10,1:2|1:2|0:2,0:0:0:0:
249,41,64834,6,0,B|316:30|307:90|380:84,1,142.99999345398,2|2,1:2|3:2,0:0:0:0:
496,211,65988,1,2,0:2:0:0:
437,274,66277,2,0,P|440:307|447:350,2,71.4999967269899,2|2|10,1:2|3:2|0:2,0:0:0:0:
366,224,67142,1,2,1:2:0:0:
227,325,67719,2,0,P|192:329|145:337,1,71.4999967269899,2|10,1:2|0:2,0:0:0:0:
75,365,68296,1,2,0:2:0:0:
24,295,68584,2,0,P|33:257|39:224,1,71.4999967269899,2|2,1:2|1:2,0:0:0:0:
100,164,69161,2,0,L|89:89,1,71.4999967269899,10|2,0:2|3:3,0:0:0:0:
153,35,69738,6,0,P|220:46|306:59,1,142.99999345398,6|10,1:2|0:2,0:0:0:0:
369,15,70604,1,2,3:2:0:0:
414,87,70892,2,0,B|425:162|378:145|384:224,1,142.99999345398,2|10,1:2|0:2,0:0:0:0:
407,306,71758,2,0,P|350:346|272:313,1,142.99999345398,2|2,1:2|1:2,0:0:0:0:
175,194,72911,1,2,0:2:0:0:
91,212,73200,2,0,P|86:248|75:296,1,71.4999967269899,2|2,1:2|1:2,0:0:0:0:
122,356,73777,1,10,0:2:0:0:
200,320,74065,6,0,B|274:318|252:366|331:366,1,142.99999345398,2|0,1:2|1:2,0:0:0:0:
416,357,74931,2,0,P|422:317|433:284,1,71.4999967269899,10|2,0:2|3:2,0:0:0:0:
379,218,75508,2,0,P|375:178|368:140,1,71.4999967269899,2|2,1:2|0:2,0:0:0:0:
425,82,76084,1,10,0:2:0:0:
260,32,76661,6,0,P|188:43|107:56,1,142.99999345398,6|8,1:2|0:2,0:0:0:0:
17,193,77815,2,0,B|88:207|45:260|117:285,1,142.99999345398,2|10,3:2|0:2,0:0:0:0:
267,368,78969,2,0,P|309:309|287:240,1,142.99999345398,2|8,3:2|0:2,0:0:0:0:
364,89,80123,2,0,B|433:83|420:141|491:142,1,142.99999345398,2|10,3:2|0:2,0:0:0:0:
470,313,81277,5,2,3:2:0:0:
132,374,82431,5,2,3:2:0:0:
470,313,83584,5,2,3:2:0:0:
132,374,84738,5,2,3:2:0:0:
14,249,85315,2,0,P|25:215|37:169,1,71.4999967269899,8|10,0:2|0:2,0:0:0:0:
59,98,85892,1,2,1:2:0:0:
