osu file format v14

[General]
AudioFilename: audio.mp3
AudioLeadIn: 0
PreviewTime: 164589
Countdown: 0
SampleSet: Normal
StackLeniency: 0.3
Mode: 0
LetterboxInBreaks: 0
WidescreenStoryboard: 0

[Editor]
Bookmarks: 86181,102272
DistanceSpacing: 1
BeatDivisor: 4
GridSize: 8
TimelineZoom: 2

[Metadata]
Title:NegaPosi*Continues
TitleUnicode:NegaPosi*Continues
Artist:Sasakure.UK
ArtistUnicode:Sasakure.UK
Creator:Dr_Marc
Version:Be-be-be-beat continues!
Source:Project Diva F
Tags:Game Version Hatsune Miku R3 Music Box Vocaloid posinega
BeatmapID:1786025
BeatmapSetID:854705

[Difficulty]
HPDrainRate:6
CircleSize:4
OverallDifficulty:9
ApproachRate:9.8
SliderMultiplier:1.8
SliderTickRate:1

[Events]
//Background and Video events
0,0,"Negaposi_continues_f_loading_screen.png",0,0
Video,-1581,"PV.avi"
//Break Periods
//Storyboard Layer 0 (Background)
//Storyboard Layer 1 (Fail)
//Storyboard Layer 2 (Pass)
//Storyboard Layer 3 (Foreground)
//Storyboard Sound Samples

[TimingPoints]
2182,272.727272727273,4,2,0,50,1,0
6545,-100,4,1,1,50,0,0
7636,-90.9090909090909,4,1,1,50,0,0
8727,-83.3333333333333,4,1,1,50,0,0
10909,-76.9230769230769,4,1,2,25,0,0
12000,-83.3333333333333,4,1,3,25,0,0
20727,-71.9424460431655,4,1,3,39,0,0
28636,-67.1140939597315,4,1,3,39,0,0
28909,-62.8930817610063,4,1,3,39,0,0
29182,-59.1715976331361,4,1,3,39,0,0
29454,-111.111111111111,4,2,1,39,0,0
33818,-200,4,1,3,5,0,0
34091,-71.9424460431655,4,1,3,39,0,0
35727,-144.927536231884,4,1,3,39,0,0
36000,-71.9424460431655,4,1,3,39,0,0
37636,-71.9424460431655,4,3,1,39,0,0
38182,-66.6666666666667,4,1,4,51,0,1
53454,-76.9230769230769,4,1,4,51,0,1
57545,272.727272727273,4,1,3,39,1,0
57545,-71.9424460431655,4,1,3,39,0,0
63817,-68.9655172413793,4,1,3,39,0,0
64908,-111.111111111111,4,1,3,39,0,0
65454,-93.4579439252336,4,1,3,39,0,0
65726,-80.6451612903226,4,1,3,39,0,0
65999,-71.9424460431655,4,1,3,39,0,0
66272,-111.111111111111,4,2,1,39,0,0
71726,-90.9090909090909,4,1,5,39,0,0
71999,-71.9424460431655,4,1,5,39,0,0
72817,-71.9424460431655,4,1,3,39,0,0
80726,-67.1140939597315,4,1,3,39,0,0
80999,-62.8930817610063,4,1,3,39,0,0
81272,-59.1715976331361,4,1,3,39,0,0
81545,-111.111111111111,4,2,1,39,0,0
85908,-200,4,1,3,5,0,0
86181,-71.9424460431655,4,1,3,39,0,0
87817,-111.111111111111,4,1,3,39,0,0
88090,-71.9424460431655,4,1,3,39,0,0
89726,-71.9424460431655,4,3,1,39,0,0
90272,-66.6666666666667,4,1,4,51,0,1
105272,-76.9230769230769,4,1,4,51,0,1
109635,272.727272727273,4,2,1,39,1,0
109635,-90.9090909090909,4,2,1,39,0,0
111544,-200,4,2,1,39,0,0
111816,-90.9090909090909,4,2,1,39,0,0
115907,-200,4,2,1,39,0,0
116180,-60.6060606060606,4,2,1,39,0,0
117953,-71.4285714285714,4,3,1,25,0,0
120271,272.727272727273,4,2,1,39,1,0
120271,-90.9090909090909,4,2,1,39,0,0
122998,-125,4,2,1,39,0,0
123543,-200,4,2,1,5,0,0
123680,-66.6666666666667,4,2,1,39,0,0
123952,-62.5,4,2,1,39,0,0
124225,-58.8235294117647,4,2,1,39,0,0
124634,-76.9230769230769,4,2,1,39,0,0
127907,-76.9230769230769,4,3,2,39,0,0
128998,-71.9424460431655,4,2,1,39,0,0
132271,-84.0336134453781,4,2,1,39,0,0
133361,-66.6666666666667,4,2,1,39,0,0
136634,-66.6666666666667,4,2,1,47,0,0
138816,-58.8235294117647,4,2,2,51,0,1
139089,-76.9230769230769,4,2,2,25,0,0
146998,-76.9230769230769,4,2,2,18,0,0
147543,-58.8235294117647,4,2,2,25,0,0
147816,-76.9230769230769,4,2,2,25,0,0
154089,-71.9424460431655,4,1,6,39,0,0
156271,-66.6666666666667,4,1,4,51,0,1
171271,-66.6666666666667,4,1,4,58,0,1
175634,-60.6060606060606,4,1,4,62,0,1
177271,-55.5555555555556,4,1,4,66,0,1
178907,-51.2820512820513,4,1,4,68,0,1
180543,-76.9230769230769,4,1,3,35,0,0

[Colours]
Combo1 : 255,0,128
Combo2 : 255,0,0
Combo3 : 18,124,255
Combo4 : 0,255,0

[HitObjects]
255,119,6545,6,0,P|296:150|309:187,1,90
321,274,6817,2,0,P|352:315|389:328,1,90
161,236,7090,6,0,P|120:205|107:168,1,90
95,81,7363,2,0,P|64:40|27:27,1,90
338,122,7636,6,0,P|324:171|290:209,1,99.0000030212403
193,210,7908,2,0,P|206:259|240:297,1,99.0000030212403
2,245,8181,6,0,P|15:195|49:157,1,99.0000030212403
147,157,8454,2,0,P|133:107|99:69,1,99.0000030212403
298,64,8726,5,0,0:0:0:0:
298,64,8818,5,0,0:0:0:0:
298,64,8909,6,0,L|307:149,3,71.9999978027344
193,210,9272,5,0,0:0:0:0:
193,210,9363,5,0,0:0:0:0:
193,210,9454,6,0,L|202:295,3,71.9999978027344
283,340,9817,5,0,0:0:0:0:
283,340,9909,5,0,0:0:0:0:
283,340,10000,5,0,0:0:0:0:
303,301,10091,5,0,0:0:0:0:
332,268,10182,5,0,0:0:0:0:
368,244,10272,5,0,0:0:0:0:
468,209,10363,5,0,0:0:0:0:
431,168,10454,5,0,0:0:0:0:
385,137,10545,5,0,0:0:0:0:
334,120,10635,5,0,0:0:0:0:
278,116,10727,5,0,0:0:0:0:
225,126,10817,5,0,0:0:0:0:
357,337,12000,6,0,P|293:333|234:316,1,107.999996704102
113,267,12273,1,0,0:0:0:0:
208,173,12409,1,0,0:0:0:0:
208,173,12477,1,0,0:0:0:0:
208,173,12545,2,0,B|275:177|332:197,1,107.999996704102
482,226,12818,1,0,0:0:0:0:
405,120,12954,2,0,B|288:83|312:201|194:169,1,215.999993408203
103,145,13363,5,0,0:0:0:0:
246,68,13500,1,0,0:0:0:0:
87,73,13636,5,0,0:0:0:0:
29,163,13772,1,0,0:0:0:0:
119,221,13909,1,0,0:0:0:0:
177,131,14045,2,0,L|71:212,1,107.999996704102
42,251,14318,6,0,P|83:287|139:313,1,107.999996704102
234,343,14591,1,0,0:0:0:0:
309,124,14727,5,0,0:0:0:0:
309,124,14795,1,0,0:0:0:0:
309,124,14863,1,0,0:0:0:0:
339,316,15000,1,0,0:0:0:0:
234,343,15136,2,0,L|132:274,1,107.999996704102
10,190,15409,1,0,0:0:0:0:
126,114,15545,6,0,B|230:42|342:87,1,215.999993408203
334,85,15886,1,0,0:0:0:0:
334,85,15954,2,0,P|360:152|366:210,1,107.999996704102
339,344,16227,2,0,P|313:277|307:219,1,107.999996704102
284,146,16500,5,0,0:0:0:0:
217,75,16636,1,0,0:0:0:0:
209,300,16772,1,0,0:0:0:0:
209,300,16841,1,0,0:0:0:0:
209,300,16909,2,0,L|161:177,1,107.999996704102
119,115,17182,5,0,0:0:0:0:
52,44,17318,2,0,L|4:167,1,107.999996704102
74,338,17591,1,0,0:0:0:0:
113,204,17727,5,0,0:0:0:0:
257,318,17863,1,0,0:0:0:0:
146,130,18000,1,0,0:0:0:0:
297,246,18136,1,0,0:0:0:0:
333,171,18272,2,0,P|397:177|460:164,1,107.999996704102
505,48,18545,6,0,P|441:42|378:55,1,107.999996704102
311,92,18818,1,0,0:0:0:0:
233,33,18954,1,0,0:0:0:0:
196,192,19091,1,0,0:0:0:0:
196,192,19159,1,0,0:0:0:0:
196,192,19227,1,0,0:0:0:0:
74,29,19363,6,0,B|27:84|99:159|46:257,1,215.999993408203
21,342,19772,1,0,0:0:0:0:
127,320,19909,1,0,0:0:0:0:
174,223,20045,1,0,0:0:0:0:
337,319,20182,1,0,0:0:0:0:
337,319,20250,1,0,0:0:0:0:
337,319,20318,1,0,0:0:0:0:
379,220,20454,5,0,0:0:0:0:
426,122,20591,1,0,0:0:0:0:
475,16,20727,6,0,B|414:43|414:43|334:45,1,125.100003817749
167,45,21000,1,0,0:0:0:0:
297,200,21136,2,0,L|206:92,1,125.100003817749
26,47,21409,1,0,0:0:0:0:
135,182,21545,1,0,0:0:0:0:
246,318,21682,2,0,L|158:211,1,125.100003817749
68,106,21954,5,0,0:0:0:0:
295,213,22091,1,0,0:0:0:0:
63,201,22227,5,0,0:0:0:0:
299,117,22363,2,0,P|356:102|422:117,1,125.100003817749
234,38,22636,1,0,0:0:0:0:
376,203,22772,2,0,P|432:187|498:202,1,125.100003817749
299,117,23045,5,0,0:0:0:0:
201,196,23182,1,0,0:0:0:0:
101,270,23318,1,0,0:0:0:0:
3,347,23454,2,0,L|113:265,1,125.100003817749
299,117,23727,5,0,0:0:0:0:
438,283,23863,5,0,0:0:0:0:
320,239,24000,2,0,L|199:196,1,125.100003817749
135,177,24272,5,0,0:0:0:0:
292,311,24409,5,0,0:0:0:0:
155,359,24545,1,0,0:0:0:0:
188,235,24682,1,0,0:0:0:0:
36,297,24818,5,0,0:0:0:0:
256,205,24954,1,0,0:0:0:0:
259,68,25091,6,0,P|192:62|130:84,1,125.100003817749
13,148,25363,1,0,0:0:0:0:
170,174,25500,2,0,B|280:171|285:270|399:267,1,250.200007635498
511,163,25909,1,0,0:0:0:0:
354,186,26045,6,0,B|246:212|267:308|156:335,1,250.200007635498
30,228,26454,1,0,0:0:0:0:
128,150,26591,1,0,0:0:0:0:
161,334,26727,5,0,0:0:0:0:
305,215,26863,1,0,0:0:0:0:
128,150,27000,2,0,P|70:107|26:60,1,125.100003817749
252,124,27272,5,0,0:0:0:0:
109,240,27409,1,0,0:0:0:0:
223,70,27545,5,0,0:0:0:0:
137,293,27682,2,0,P|95:345|35:375,1,125.100003817749
41,185,27954,1,0,0:0:0:0:
280,330,28091,2,0,P|342:353|409:349,1,125.100003817749
472,271,28363,6,0,L|342:210,1,125.100003817749
183,100,28636,6,0,L|311:161,1,134.099992735978
512,127,28909,6,0,L|373:60,1,143.100000218353
50,113,29182,6,0,L|193:181,1,152.100002843056
213,319,29454,6,0,B|176:310|176:310|133:293|93:325|93:325|62:317|36:278|44:229|91:211,1,242.999992584229
105,173,30000,1,0,0:0:0:0:
172,161,30136,1,0,0:0:0:0:
227,199,30272,2,0,P|260:234|296:254,1,80.9999975280763
351,275,30545,6,0,P|404:225|398:127,1,161.999995056153
332,32,31091,1,0,0:0:0:0:
111,243,31363,1,0,0:0:0:0:
281,176,31636,6,0,B|215:132|215:132|151:131|116:91,1,161.999995056153
59,138,32045,2,0,B|107:192|193:200|193:200|214:217,1,161.999995056153
190,277,32454,2,0,P|148:272|103:278,1,80.9999975280763
120,345,32727,1,0,2:0:0:0:
188,345,32863,1,0,2:0:0:0:
256,345,33000,1,0,2:0:0:0:
324,344,33136,6,0,P|399:289|419:216,1,161.999995056153
414,104,33545,2,0,P|339:159|319:232,1,161.999995056153
266,113,34091,6,0,B|282:180|282:180|326:231,1,125.100003817749
399,317,34363,1,0,0:0:0:0:
204,214,34500,2,0,B|220:281|220:281|264:332,1,125.100003817749
44,212,34772,6,0,P|60:145|104:94,1,125.100003817749
208,16,35045,1,0,0:0:0:0:
125,215,35182,6,0,P|119:284|134:350,1,125.100003817749
204,214,35454,2,0,P|210:145|195:79,1,125.100003817749
80,20,35727,6,0,L|7:5,1,62.1000000947571
272,55,36000,6,0,P|325:74|354:142,1,125.100003817749
358,257,36272,2,0,P|377:310|445:339,1,125.100003817749
240,343,36545,6,0,P|187:324|158:256,1,125.100003817749
154,141,36817,2,0,P|135:88|67:59,1,125.100003817749
277,57,37091,5,0,0:0:0:0:
177,208,37227,1,0,0:0:0:0:
421,87,37363,5,0,0:0:0:0:
154,141,37499,1,0,0:0:0:0:
284,187,37636,5,0,0:0:0:0:
299,193,37727,5,0,0:0:0:0:
314,199,37818,5,0,0:0:0:0:
329,205,37909,5,0,0:0:0:0:
344,211,38000,5,0,0:0:0:0:
359,217,38091,5,0,0:0:0:0:
416,272,38182,6,0,P|346:281|274:274,1,135.000005149842
189,217,38454,2,0,P|119:208|47:215,1,135.000005149842
180,19,38727,2,0,B|232:119|346:75|380:206,1,270.000010299683
289,368,39136,2,0,P|266:289|285:231,1,135.000005149842
332,115,39409,5,0,0:0:0:0:
222,193,39545,1,0,0:0:0:0:
357,181,39682,1,0,0:0:0:0:
178,100,39818,2,0,P|101:71|43:68,1,135.000005149842
97,229,40091,5,0,0:0:0:0:
309,33,40227,1,0,0:0:0:0:
264,198,40363,6,0,P|236:270|191:316,1,135.000005149842
30,342,40636,2,0,P|58:270|103:224,1,135.000005149842
453,157,40909,2,0,B|356:81|284:155|168:55,1,270.000010299683
51,1,41318,2,0,P|77:65|143:118,1,135.000005149842
315,179,41591,5,0,0:0:0:0:
113,183,41727,1,0,0:0:0:0:
294,94,41863,1,0,0:0:0:0:
164,250,42000,5,0,0:0:0:0:
441,319,42136,1,0,0:0:0:0:
253,217,42272,5,0,0:0:0:0:
361,249,42409,1,0,0:0:0:0:
469,205,42545,6,0,P|494:134|492:55,1,135.000005149842
311,8,42818,2,0,P|286:79|288:158,1,135.000005149842
341,354,43091,2,0,B|266:270|176:291|108:187,1,270.000010299683
32,33,43500,2,0,P|97:59|144:108,1,135.000005149842
236,251,43772,5,0,0:0:0:0:
207,77,43909,1,0,0:0:0:0:
122,230,44045,1,0,0:0:0:0:
318,117,44182,2,0,P|393:90|476:92,1,135.000005149842
279,40,44454,5,0,0:0:0:0:
352,200,44591,1,0,0:0:0:0:
118,84,44727,5,0,0:0:0:0:
119,158,44863,1,0,0:0:0:0:
119,158,45000,1,0,0:0:0:0:
118,320,45136,6,0,B|194:321|194:321|239:261,1,135.000005149842
304,160,45409,1,0,0:0:0:0:
307,331,45545,5,0,0:0:0:0:
307,331,45682,1,0,0:0:0:0:
305,243,45818,1,0,0:0:0:0:
106,241,45954,2,0,B|105:169|105:169|161:120,1,135.000005149842
261,47,46227,1,0,0:0:0:0:
395,46,46363,2,0,L|472:45,3,67.5000025749208
398,137,46636,2,0,L|475:136,3,67.5000025749208
402,232,46909,6,0,P|360:288|291:312,1,135.000005149842
165,301,47182,1,0,0:0:0:0:
287,244,47318,1,0,0:0:0:0:
112,193,47454,2,0,P|34:153|14:103,1,135.000005149842
201,152,47727,1,0,0:0:0:0:
36,5,47863,2,0,B|113:76|216:20|300:103,1,270.000010299683
430,234,48272,5,0,0:0:0:0:
363,41,48409,1,0,0:0:0:0:
346,204,48545,5,0,0:0:0:0:
317,106,48682,1,0,0:0:0:0:
218,58,48818,2,0,P|131:49|45:61,1,135.000005149842
22,179,49091,6,0,P|109:188|195:176,1,135.000005149842
451,111,49363,2,0,P|364:102|278:114,1,135.000005149842
139,366,49636,2,0,B|299:294|116:224|284:149,1,270.000010299683
512,157,50045,6,0,P|493:211|441:273,1,135.000005149842
471,68,50318,1,0,0:0:0:0:
311,231,50454,1,0,0:0:0:0:
396,44,50591,1,0,0:0:0:0:
325,144,50727,2,0,P|257:175|183:192,1,135.000005149842
40,139,51000,2,0,P|108:108|182:91,1,135.000005149842
216,321,51273,6,0,P|195:241|201:171,1,135.000005149842
295,53,51546,5,0,0:0:0:0:
319,222,51682,1,0,0:0:0:0:
417,84,51818,2,0,P|414:173|392:231,1,135.000005149842
320,362,52091,1,0,0:0:0:0:
66,264,52227,6,0,B|143:293|202:161|322:224,1,270.000010299683
212,92,52636,1,0,0:0:0:0:
236,314,52773,1,0,0:0:0:0:
414,183,52909,2,0,P|335:194|263:182,1,135.000005149842
230,136,53182,5,0,0:0:0:0:
230,136,53318,1,0,0:0:0:0:
349,247,53455,5,0,0:0:0:0:
387,172,53591,1,0,0:0:0:0:
387,172,53727,1,0,0:0:0:0:
314,321,53864,5,0,0:0:0:0:
224,276,54000,1,0,0:0:0:0:
134,231,54136,1,0,0:0:0:0:
263,87,54273,5,0,0:0:0:0:
209,195,54409,1,0,0:0:0:0:
119,295,54546,1,0,0:0:0:0:
68,57,54682,5,0,0:0:0:0:
198,122,54818,1,0,0:0:0:0:
283,226,54955,1,0,0:0:0:0:
423,73,55091,5,0,0:0:0:0:
267,151,55227,1,0,0:0:0:0:
246,307,55364,1,0,0:0:0:0:
438,289,55500,5,0,0:0:0:0:
329,71,55636,1,0,0:0:0:0:
157,250,55773,1,0,0:0:0:0:
481,170,55909,5,0,0:0:0:0:
374,196,56045,1,0,0:0:0:0:
268,223,56181,1,0,0:0:0:0:
162,250,56318,2,0,P|101:266|43:251,1,116.999994644165
252,122,56591,2,0,P|191:138|133:123,1,116.999994644165
365,0,56863,2,0,L|238:24,1,116.999994644165
111,54,57136,5,0,0:0:0:0:
269,281,57272,2,0,P|194:260|124:186,1,175.499991966248
202,129,57545,6,0,P|262:159|305:203,1,125.100003817749
370,304,57817,1,0,0:0:0:0:
370,304,57954,1,0,0:0:0:0:
393,175,58090,1,0,0:0:0:0:
393,175,58227,1,0,0:0:0:0:
271,231,58363,5,0,0:0:0:0:
57,73,58499,2,0,L|166:157,1,125.100003817749
213,188,58772,1,0,0:0:0:0:
183,299,58908,5,0,0:0:0:0:
183,299,59045,1,0,0:0:0:0:
61,147,59181,1,0,0:0:0:0:
52,227,59317,1,0,0:0:0:0:
235,148,59454,5,0,0:0:0:0:
96,293,59590,2,0,L|194:191,1,125.100003817749
283,90,59863,1,0,0:0:0:0:
326,217,59999,5,0,0:0:0:0:
326,217,60135,1,0,0:0:0:0:
464,221,60272,1,0,0:0:0:0:
464,221,60408,1,0,0:0:0:0:
395,325,60545,5,0,0:0:0:0:
392,51,60681,2,0,L|394:185,1,125.100003817749
395,250,60954,1,0,0:0:0:0:
235,148,61090,5,0,0:0:0:0:
235,148,61226,1,0,0:0:0:0:
192,329,61363,1,0,0:0:0:0:
301,289,61499,1,0,0:0:0:0:
97,260,61635,5,0,0:0:0:0:
386,187,61772,2,0,L|249:222,1,125.100003817749
24,280,62045,1,0,0:0:0:0:
59,147,62181,5,0,0:0:0:0:
59,147,62317,1,0,0:0:0:0:
176,101,62454,1,0,0:0:0:0:
176,101,62590,1,0,0:0:0:0:
79,22,62726,5,0,0:0:0:0:
339,53,62863,2,0,L|211:37,1,125.100003817749
146,30,63135,1,0,0:0:0:0:
237,250,63272,5,0,0:0:0:0:
237,250,63408,1,0,0:0:0:0:
393,170,63545,1,0,0:0:0:0:
395,282,63681,1,0,0:0:0:0:
270,116,63817,5,0,0:0:0:0:
283,166,63885,1,0,0:0:0:0:
297,216,63954,1,0,0:0:0:0:
312,265,64022,1,0,0:0:0:0:
328,314,64090,1,0,0:0:0:0:
139,142,64226,1,0,0:0:0:0:
139,142,64295,1,0,0:0:0:0:
139,142,64363,1,0,0:0:0:0:
431,88,64499,6,0,P|366:63|296:53,1,130.500003982544
175,47,64772,1,0,0:0:0:0:
237,134,64908,6,0,B|240:291|128:187|130:356,1,242.999992584229
291,335,65454,6,0,P|351:336|401:322,1,96.2999970611573
467,201,65726,6,0,P|407:200|343:227,1,111.59999557251
182,332,65999,6,0,P|240:360|297:326,1,125.100003817749
325,278,66272,6,0,P|233:258|178:196,1,161.999995056153
91,69,66817,1,0,0:0:0:0:
168,42,66954,2,0,P|208:33|253:42,2,80.9999975280763
66,143,67363,6,0,P|97:215|168:268,1,161.999995056153
288,322,67908,2,0,P|257:250|186:197,1,161.999995056153
172,70,68454,6,0,P|196:111|232:139,2,80.9999975280763
149,4,68863,1,0,0:0:0:0:
298,143,68999,2,0,P|322:184|358:212,2,80.9999975280763
275,77,69408,1,0,0:0:0:0:
439,135,69545,6,0,P|444:87|432:43,2,80.9999975280763
413,212,69954,1,0,0:0:0:0:
229,210,70090,2,0,P|224:162|236:118,2,80.9999975280763
254,287,70499,1,0,0:0:0:0:
152,160,70635,6,0,P|125:250|146:322,1,161.999995056153
87,98,71181,1,0,0:0:0:0:
42,165,71317,2,0,P|19:197|15:240,2,80.9999975280763
257,56,71726,6,0,P|327:61|390:80,1,99.0000030212403
468,204,71999,6,0,P|398:199|324:178,1,125.100003817749
184,52,72272,5,0,0:0:0:0:
261,234,72408,1,0,0:0:0:0:
25,188,72545,5,0,0:0:0:0:
279,219,72681,1,0,0:0:0:0:
206,66,72817,5,0,0:0:0:0:
209,204,72954,2,0,L|312:279,1,125.100003817749
442,223,73226,1,0,0:0:0:0:
341,298,73363,1,0,0:0:0:0:
453,269,73499,1,0,0:0:0:0:
329,251,73636,1,0,0:0:0:0:
436,311,73772,2,0,L|333:213,1,125.100003817749,2|0,0:0|0:0,0:0:0:0:
254,139,74044,5,0,0:0:0:0:
139,308,74181,1,0,0:0:0:0:
203,220,74317,5,0,0:0:0:0:
82,221,74454,2,0,P|139:206|205:221,1,125.100003817749
304,50,74726,1,0,0:0:0:0:
183,51,74862,2,0,P|239:35|305:50,1,125.100003817749
207,291,75135,5,0,0:0:0:0:
286,192,75272,1,0,0:0:0:0:
364,94,75408,2,0,L|278:201,1,125.100003817749
31,342,75681,5,0,0:0:0:0:
110,242,75818,1,0,0:0:0:0:
188,144,75954,2,0,L|102:251,1,125.100003817749
263,45,76226,5,0,0:0:0:0:
358,260,76363,1,0,0:0:0:0:
389,221,76431,1,0,0:0:0:0:
396,171,76499,1,0,0:0:0:0:
377,124,76567,1,0,0:0:0:0:
337,93,76635,1,0,0:0:0:0:
142,21,76772,5,0,0:0:0:0:
308,211,76908,1,0,0:0:0:0:
31,71,77045,2,0,P|21:131|31:196,1,125.100003817749
85,350,77318,6,0,B|160:270|234:336|312:253,1,250.200007635498
417,181,77727,1,0,0:0:0:0:
294,159,77863,1,0,0:0:0:0:
48,115,77999,1,0,0:0:0:0:
170,136,78135,2,0,L|303:160,1,125.100003817749
61,35,78408,5,0,0:0:0:0:
83,269,78545,5,0,0:0:0:0:
170,136,78682,1,0,0:0:0:0:
166,278,78817,5,0,0:0:0:0:
270,118,78954,1,0,0:0:0:0:
246,289,79090,5,0,0:0:0:0:
370,96,79227,1,0,0:0:0:0:
330,303,79362,5,0,0:0:0:0:
197,209,79499,1,0,0:0:0:0:
341,135,79635,1,0,0:0:0:0:
46,283,79772,2,0,P|87:212|141:177,1,125.100003817749
337,60,80045,1,0,0:0:0:0:
28,65,80181,2,0,P|111:64|165:97,1,125.100003817749
472,271,80453,6,0,L|342:210,1,125.100003817749
212,97,80726,6,0,L|341:157,1,134.099992735978
477,346,80999,6,0,L|322:273,1,143.100000218353
72,105,81272,6,0,L|226:177,1,152.100002843056
255,289,81545,6,0,B|197:245|118:264|118:264|53:293|26:232,1,242.999992584229
7,166,82090,1,0,0:0:0:0:
86,158,82226,1,0,0:0:0:0:
157,191,82363,1,0,0:0:0:0:
212,249,82499,6,0,B|238:291|296:275|296:275|302:234|324:221|324:221|383:232|395:170,1,242.999992584229
451,34,83181,1,0,0:0:0:0:
140,83,83454,1,0,0:0:0:0:
395,87,83726,2,0,P|316:110|229:167,1,161.999995056153
196,244,84135,2,0,P|275:221|362:164,1,161.999995056153
339,38,84545,2,0,P|295:52|261:73,1,80.9999975280763
179,154,84817,5,0,0:0:0:0:
266,239,84954,1,0,0:0:0:0:
352,154,85090,1,0,0:0:0:0:
265,69,85226,2,0,P|261:131|203:220,1,161.999995056153
61,353,85635,2,0,P|65:291|123:202,1,161.999995056153
266,113,86181,6,0,B|282:180|282:180|326:231,1,125.100003817749
399,317,86453,1,0,0:0:0:0:
204,214,86590,2,0,B|220:281|220:281|264:332,1,125.100003817749
44,212,86862,6,0,P|60:145|104:94,1,125.100003817749
208,16,87135,1,0,0:0:0:0:
125,215,87272,6,0,P|119:284|134:350,1,125.100003817749
204,214,87544,2,0,P|210:145|195:79,1,125.100003817749
129,49,87817,6,0,L|38:27,1,80.9999975280763
272,55,88090,6,0,P|325:74|354:142,1,125.100003817749
358,257,88362,2,0,P|377:310|445:339,1,125.100003817749
240,343,88635,6,0,P|187:324|158:256,1,125.100003817749
154,141,88908,2,0,P|135:88|67:59,1,125.100003817749
277,57,89181,5,0,0:0:0:0:
198,185,89317,1,0,0:0:0:0:
411,92,89453,5,0,0:0:0:0:
267,122,89589,1,0,0:0:0:0:
376,163,89726,5,0,0:0:0:0:
391,169,89817,5,0,0:0:0:0:
406,175,89908,5,0,0:0:0:0:
421,181,89999,5,0,0:0:0:0:
436,187,90090,5,0,0:0:0:0:
451,193,90181,5,0,0:0:0:0:
401,245,90272,6,0,P|331:254|259:247,1,135.000005149842
193,305,90544,2,0,P|123:314|51:307,1,135.000005149842
7,124,90817,2,0,B|83:207|181:135|248:252,1,270.000010299683
289,368,91226,2,0,P|266:289|285:231,1,135.000005149842
332,115,91499,5,0,0:0:0:0:
222,193,91635,1,0,0:0:0:0:
357,181,91772,1,0,0:0:0:0:
178,100,91908,2,0,P|101:71|43:68,1,135.000005149842
97,229,92181,5,0,0:0:0:0:
309,33,92317,1,0,0:0:0:0:
264,198,92453,6,0,P|236:270|191:316,1,135.000005149842
5,314,92726,1,0,0:0:0:0:
181,234,92863,1,0,0:0:0:0:
339,355,92999,2,0,B|324:232|220:234|209:81,1,270.000010299683
51,1,93408,2,0,P|77:65|143:118,1,135.000005149842
315,179,93681,5,0,0:0:0:0:
113,183,93817,1,0,0:0:0:0:
294,94,93953,1,0,0:0:0:0:
164,250,94090,5,0,0:0:0:0:
441,319,94226,1,0,0:0:0:0:
253,217,94362,5,0,0:0:0:0:
361,249,94499,1,0,0:0:0:0:
469,205,94635,6,0,P|494:134|492:55,1,135.000005149842
311,8,94908,2,0,P|286:79|288:158,1,135.000005149842
341,354,95181,2,0,B|266:270|176:291|108:187,1,270.000010299683
32,33,95590,2,0,P|97:59|144:108,1,135.000005149842
236,251,95862,5,0,0:0:0:0:
207,77,95999,1,0,0:0:0:0:
122,230,96135,1,0,0:0:0:0:
318,117,96272,2,0,P|393:90|476:92,1,135.000005149842
279,40,96544,5,0,0:0:0:0:
352,200,96681,1,0,0:0:0:0:
119,158,96817,5,0,0:0:0:0:
118,84,96953,1,0,0:0:0:0:
118,84,97090,1,0,0:0:0:0:
118,320,97226,6,0,B|194:321|194:321|239:261,1,135.000005149842
304,160,97499,1,0,0:0:0:0:
305,243,97635,5,0,0:0:0:0:
305,243,97772,1,0,0:0:0:0:
307,331,97908,1,0,0:0:0:0:
106,241,98044,2,0,B|105:169|105:169|161:120,1,135.000005149842
261,47,98317,1,0,0:0:0:0:
395,46,98453,2,0,L|472:45,3,67.5000025749208
398,137,98726,2,0,L|475:136,3,67.5000025749208
402,232,98999,6,0,P|360:288|291:312,1,135.000005149842
165,301,99272,1,0,0:0:0:0:
287,244,99408,1,0,0:0:0:0:
112,193,99544,2,0,P|34:153|14:103,1,135.000005149842
201,152,99817,1,0,0:0:0:0:
36,5,99953,2,0,B|113:76|216:20|300:103,1,270.000010299683
430,234,100362,5,0,0:0:0:0:
363,41,100499,1,0,0:0:0:0:
346,204,100635,5,0,0:0:0:0:
317,106,100772,1,0,0:0:0:0:
218,58,100908,2,0,P|131:49|45:61,1,135.000005149842
22,179,101181,6,0,P|109:188|195:176,1,135.000005149842
451,111,101453,2,0,P|364:102|278:114,1,135.000005149842
139,366,101726,2,0,B|299:294|116:224|284:149,1,270.000010299683
512,157,102135,6,0,P|493:211|441:273,1,135.000005149842
293,345,102408,5,0,0:0:0:0:
374,139,102545,5,0,0:0:0:0:
221,345,102681,1,0,0:0:0:0:
394,207,102818,5,0,0:0:0:0:
150,347,102954,1,0,0:0:0:0:
364,345,103090,5,0,0:0:0:0:
165,145,103226,1,0,0:0:0:0:
256,83,103364,6,0,P|307:153|319:218,1,135.000005149842
217,331,103635,1,0,0:0:0:0:
193,162,103773,1,0,0:0:0:0:
95,300,103908,2,0,P|98:211|120:153,1,135.000005149842
192,22,104182,1,0,0:0:0:0:
446,120,104317,6,0,B|369:91|310:223|190:160,1,270.000010299683
300,292,104726,1,0,0:0:0:0:
276,70,104863,1,0,0:0:0:0:
98,201,104999,2,0,P|147:259|209:261,1,135.000005149842
241,183,105272,5,0,0:0:0:0:
241,183,105408,1,0,0:0:0:0:
163,137,105545,5,0,0:0:0:0:
125,212,105681,1,0,0:0:0:0:
125,212,105817,1,0,0:0:0:0:
198,63,105954,5,0,0:0:0:0:
292,112,106090,1,0,0:0:0:0:
388,161,106226,1,0,0:0:0:0:
258,296,106363,5,0,0:0:0:0:
317,182,106499,1,0,0:0:0:0:
420,92,106635,1,0,0:0:0:0:
458,325,106772,5,0,0:0:0:0:
315,253,106908,1,0,0:0:0:0:
225,129,107045,1,0,0:0:0:0:
76,298,107181,5,0,0:0:0:0:
236,217,107317,1,0,0:0:0:0:
263,40,107454,1,0,0:0:0:0:
77,90,107590,5,0,0:0:0:0:
202,340,107726,1,0,0:0:0:0:
399,134,107863,1,0,0:0:0:0:
22,225,107999,5,0,0:0:0:0:
125,98,108135,1,0,0:0:0:0:
270,174,108272,1,0,0:0:0:0:
363,38,108409,2,0,P|419:20|488:18,1,116.999994644165
270,174,108681,2,0,P|325:156|395:154,1,116.999994644165
169,316,108954,2,0,L|295:291,1,116.999994644165
399,273,109227,5,0,0:0:0:0:
259,88,109363,2,0,P|184:108|114:182,1,175.499991966248
108,244,109635,6,0,P|163:229|199:193,2,99.0000030212403
276,293,110044,2,0,P|331:278|367:242,2,99.0000030212403
404,140,110453,2,0,P|349:155|313:191,2,99.0000030212403
236,91,110862,2,0,P|181:106|145:142,2,99.0000030212403
64,36,111271,5,0,0:0:0:0:
64,62,111362,5,0,0:0:0:0:
64,88,111453,5,0,0:0:0:0:
64,105,111544,6,0,L|64:171,1,45
64,312,111816,2,0,P|92:262|92:211,2,99.0000030212403
211,319,112225,2,0,P|239:269|239:218,2,99.0000030212403
355,320,112635,5,0,0:0:0:0:
268,91,112816,5,0,0:0:0:0:
25,271,112998,5,0,0:0:0:0:
387,191,113180,6,0,P|458:165|488:64,1,148.50000453186
490,103,113453,1,0,0:0:0:0:
300,109,113589,2,0,P|229:135|199:236,1,148.50000453186
196,196,113862,1,0,0:0:0:0:
199,358,113998,6,0,P|215:299|243:260,2,99.0000030212403
101,232,114407,2,0,P|117:173|145:134,2,99.0000030212403
263,49,114816,2,0,P|247:108|219:147,2,99.0000030212403
361,175,115225,2,0,P|345:234|317:273,2,99.0000030212403
467,296,115635,5,0,0:0:0:0:
466,269,115725,5,0,0:0:0:0:
465,242,115816,5,0,0:0:0:0:
464,215,115907,6,0,L|463:155,1,45
185,202,116180,6,0,B|138:258|138:258|119:340,2,148.500001416206
262,134,116589,2,0,P|278:102|177:144,1,297.000002832413
294,268,116998,6,0,B|225:292|225:292|167:354,2,148.500001416206
394,247,117407,2,0,P|456:200|482:128,1,148.500001416206
397,21,117680,2,0,P|335:68|309:140,1,148.500001416206
273,245,117953,6,0,P|254:191|203:127,1,125.999996154785
122,45,118225,1,0,0:0:0:0:
82,114,118362,1,0,0:0:0:0:
68,192,118498,1,0,0:0:0:0:
81,270,118635,1,0,0:0:0:0:
121,339,118771,5,0,0:0:0:0:
81,270,118907,1,0,0:0:0:0:
239,245,119044,6,0,P|258:191|309:127,1,125.999996154785
390,45,119316,1,0,0:0:0:0:
430,114,119453,1,0,0:0:0:0:
444,192,119589,1,0,0:0:0:0:
431,270,119726,1,0,0:0:0:0:
391,339,119862,5,0,0:0:0:0:
431,270,119998,1,0,0:0:0:0:
444,192,120135,1,0,0:0:0:0:
251,264,120271,6,0,P|192:291|143:295,1,99.0000030212403,12|0,0:0|0:0,0:0:0:0:
59,284,120543,1,0,0:0:0:0:
59,284,120680,2,0,P|118:257|167:253,1,99.0000030212403
361,271,120952,2,0,P|302:298|253:302,1,99.0000030212403
14,128,121225,6,0,P|94:172|243:184,1,198.000006042481
446,191,121634,2,0,P|381:184|336:163,1,99.0000030212403
177,51,121906,2,0,P|241:57|286:78,1,99.0000030212403
465,227,122180,1,0,0:0:0:0:
303,137,122316,1,0,0:0:0:0:
479,263,122452,6,0,P|414:256|369:235,1,99.0000030212403
181,338,122725,1,0,0:0:0:0:
297,284,122861,1,0,0:0:0:0:
144,335,122998,6,0,B|87:267|144:221|139:201|139:201|143:180|103:116|147:63,1,288
303,213,123680,6,0,B|336:273|336:273|345:348,1,135.000005149842,12|0,0:0|0:0,0:0:0:0:
211,164,123952,6,0,B|181:93|181:93|169:27,1,144,12|0,0:0|0:0,0:0:0:0:
380,232,124225,6,0,B|417:295|417:295|444:375,1,153.000002918243,12|0,0:0|0:0,0:0:0:0:
425,168,124498,1,0,0:0:0:0:
184,261,124634,6,0,P|129:286|67:291,1,116.999994644165
19,125,124907,1,0,0:0:0:0:
19,125,125043,2,0,P|74:100|136:95,1,116.999994644165
457,179,125316,2,0,P|402:204|340:209,1,116.999994644165
212,73,125589,6,0,P|229:155|312:289,1,233.999989288331
385,359,125998,2,0,P|410:304|415:242,1,116.999994644165
393,30,126271,2,0,P|368:85|363:147,1,116.999994644165
341,345,126543,1,0,0:0:0:0:
355,187,126680,1,0,0:0:0:0:
305,330,126816,6,0,P|280:275|275:213,1,116.999994644165
213,74,127089,1,0,0:0:0:0:
256,191,127225,1,0,0:0:0:0:
180,96,127361,6,0,P|155:151|150:213,1,116.999994644165
122,346,127634,2,0,P|147:291|152:229,1,116.999994644165
331,273,127907,5,0,0:0:0:0:
201,232,128043,1,0,0:0:0:0:
383,227,128180,5,0,0:0:0:0:
219,219,128316,1,0,0:0:0:0:
418,112,128452,5,0,0:0:0:0:
242,202,128588,1,0,0:0:0:0:
346,9,128725,5,0,0:0:0:0:
292,32,128793,1,0,0:0:0:0:
245,68,128861,1,0,0:0:0:0:
209,114,128930,1,0,0:0:0:0:
187,169,128998,6,0,P|168:243|179:314,1,125.100003817749
334,358,129271,1,0,0:0:0:0:
356,288,129407,2,0,B|363:215|338:157|338:157|370:113|320:86|361:37,1,250.200007635498
273,201,129816,1,0,0:0:0:0:
234,82,129952,1,0,0:0:0:0:
85,299,130089,6,0,P|159:318|231:308,1,125.100003817749
402,259,130362,1,0,0:0:0:0:
340,219,130498,2,0,B|271:193|208:202|208:202|174:160|135:201|98:149,1,250.200007635498
323,147,130907,1,0,0:0:0:0:
176,43,131043,1,0,0:0:0:0:
449,131,131180,6,0,P|486:197|496:267,1,125.100003817749
248,352,131453,1,0,0:0:0:0:
159,212,131589,2,0,B|128:145|77:107|77:107|83:53|26:55|37:-7,1,250.200007635498
235,226,131998,1,0,0:0:0:0:
176,43,132134,1,0,0:0:0:0:
284,120,132271,6,0,B|349:153|340:246|433:291,1,214.199995751038
293,248,132611,5,0,0:0:0:0:
293,248,132680,2,0,B|365:244|404:329|507:321,1,214.199995751038
127,332,133021,5,0,0:0:0:0:
127,332,133089,2,0,B|168:289|231:289,1,107.099997875519
494,251,133361,6,0,B|474:184|474:184|425:127,1,135.000005149842
297,35,133634,1,0,0:0:0:0:
283,50,133702,1,0,0:0:0:0:
274,68,133771,1,0,0:0:0:0:
272,88,133839,1,0,0:0:0:0:
277,108,133907,2,0,L|313:183,3,67.5000025749208
190,85,134180,2,0,L|226:160,3,67.5000025749208
111,64,134452,6,0,B|119:133|119:133|157:198,1,135.000005149842
268,310,134725,1,0,0:0:0:0:
283,298,134793,1,0,0:0:0:0:
296,282,134862,1,0,0:0:0:0:
301,262,134930,1,0,0:0:0:0:
299,242,134998,2,0,P|277:211|276:161,3,67.5000025749208
370,146,135271,2,0,P|348:108|347:65,3,67.5000025749208
468,28,135543,5,0,0:0:0:0:
467,224,135680,1,0,0:0:0:0:
439,217,135748,1,0,0:0:0:0:
418,199,135816,1,0,0:0:0:0:
408,172,135884,1,0,0:0:0:0:
405,143,135952,1,0,0:0:0:0:
394,115,136021,1,0,0:0:0:0:
370,96,136089,5,0,0:0:0:0:
338,240,136225,1,0,0:0:0:0:
295,21,136361,5,0,0:0:0:0:
263,165,136497,1,0,0:0:0:0:
50,104,136634,5,0,0:0:0:0:
226,230,136771,1,0,0:0:0:0:
168,99,136907,5,0,0:0:0:0:
257,296,137044,1,0,0:0:0:0:
299,90,137180,1,0,0:0:0:0:
302,116,137248,1,0,0:0:0:0:
305,147,137316,1,0,0:0:0:0:
309,184,137384,1,0,0:0:0:0:
314,228,137452,5,0,0:0:0:0:
275,196,137521,1,0,0:0:0:0:
229,159,137589,1,0,0:0:0:0:
174,115,137657,1,0,0:0:0:0:
41,86,138816,6,0,B|64:148|64:148|110:167|137:198,1,153.000002918243
217,280,139089,5,0,0:0:0:0:
216,203,139361,1,0,0:0:0:0:
413,37,139634,1,0,0:0:0:0:
413,37,139771,1,0,0:0:0:0:
197,267,140043,5,0,0:0:0:0:
290,360,140180,1,0,0:0:0:0:
378,266,140316,1,0,0:0:0:0:
290,174,140452,1,0,0:0:0:0:
197,267,140589,1,0,0:0:0:0:
290,360,140725,1,0,0:0:0:0:
378,266,140861,1,0,0:0:0:0:
204,78,140998,5,0,0:0:0:0:
150,129,141271,1,0,0:0:0:0:
96,182,141543,1,0,0:0:0:0:
283,325,141816,1,0,0:0:0:0:
283,325,141952,1,0,0:0:0:0:
282,166,142089,1,0,0:0:0:0:
385,262,142225,5,0,0:0:0:0:
189,264,142361,1,0,0:0:0:0:
384,252,142498,1,0,0:0:0:0:
189,254,142634,1,0,0:0:0:0:
385,262,142770,1,0,0:0:0:0:
189,264,142907,1,0,0:0:0:0:
385,262,143043,1,0,0:0:0:0:
189,264,143180,5,0,0:0:0:0:
132,205,143452,1,0,0:0:0:0:
79,146,143725,1,0,0:0:0:0:
321,142,143998,1,0,0:0:0:0:
321,142,144134,1,0,0:0:0:0:
116,288,144407,5,0,0:0:0:0:
239,200,144543,1,0,0:0:0:0:
255,351,144680,1,0,0:0:0:0:
116,288,144816,1,0,0:0:0:0:
239,200,144952,1,0,0:0:0:0:
255,351,145089,1,0,0:0:0:0:
116,288,145225,1,0,0:0:0:0:
98,136,145361,5,0,0:0:0:0:
98,136,145498,1,0,0:0:0:0:
203,39,145634,1,0,0:0:0:0:
203,39,145771,1,0,0:0:0:0:
414,248,146043,5,0,0:0:0:0:
414,248,146180,1,0,0:0:0:0:
309,345,146316,1,0,0:0:0:0:
309,345,146453,1,0,0:0:0:0:
280,216,146589,1,0,0:0:0:0:
438,118,146861,5,0,0:0:0:0:
426,112,146998,2,0,L|360:130,3,58.4999973220826
355,83,147271,2,0,L|289:101,3,58.4999973220826
223,94,147543,6,0,B|159:111|159:111|136:155|103:179,1,153.000002918243
15,255,147816,2,0,L|145:217,1,116.999994644165
120,327,148089,2,0,L|222:219,1,116.999994644165
171,107,148361,1,0,0:0:0:0:
171,107,148498,1,0,0:0:0:0:
253,187,148634,1,0,0:0:0:0:
379,128,148771,5,0,0:0:0:0:
318,258,148907,1,0,0:0:0:0:
360,121,149043,1,0,0:0:0:0:
335,263,149179,1,0,0:0:0:0:
379,128,149316,1,0,0:0:0:0:
318,258,149452,1,0,0:0:0:0:
360,121,149588,1,0,0:0:0:0:
108,248,149725,6,0,L|224:207,1,116.999994644165
99,167,149998,2,0,L|221:188,1,116.999994644165
132,92,150271,2,0,L|226:175,1,116.999994644165
285,97,150543,1,0,0:0:0:0:
285,97,150680,1,0,0:0:0:0:
256,194,150816,1,0,0:0:0:0:
82,132,150952,5,0,0:0:0:0:
142,288,151089,1,0,0:0:0:0:
46,156,151225,1,0,0:0:0:0:
176,262,151362,1,0,0:0:0:0:
82,132,151498,1,0,0:0:0:0:
142,288,151635,1,0,0:0:0:0:
46,156,151771,1,0,0:0:0:0:
324,347,151907,6,0,L|266:242,1,116.999994644165
460,267,152180,2,0,L|345:233,1,116.999994644165
509,94,152452,2,0,L|397:150,1,116.999994644165
221,48,152725,1,0,0:0:0:0:
221,48,152861,1,0,0:0:0:0:
257,194,152998,1,0,0:0:0:0:
132,227,153134,5,0,0:0:0:0:
264,294,153271,1,0,0:0:0:0:
139,215,153407,1,0,0:0:0:0:
257,304,153544,1,0,0:0:0:0:
132,227,153680,1,0,0:0:0:0:
264,294,153817,1,0,0:0:0:0:
139,215,153953,1,0,0:0:0:0:
333,300,154089,6,0,P|269:267|222:229,1,125.100003817749
100,97,154361,1,0,0:0:0:0:
497,297,154498,2,0,P|433:264|386:226,1,125.100003817749
261,94,154771,1,0,0:0:0:0:
120,205,154907,6,0,P|188:183|248:176,1,125.100003817749
477,139,155180,1,0,0:0:0:0:
215,315,155316,2,0,P|283:293|343:286,1,125.100003817749
228,103,155589,1,0,0:0:0:0:
339,210,155725,5,0,0:0:0:0:
116,142,155861,1,0,0:0:0:0:
243,116,155998,5,0,0:0:0:0:
119,313,156134,1,0,0:0:0:0:
346,88,156271,6,0,P|412:45|475:30,1,135.000005149842
269,256,156543,2,0,P|335:213|398:198,1,135.000005149842
158,162,156816,1,0,0:0:0:0:
326,308,156952,1,0,0:0:0:0:
119,224,157089,1,0,0:0:0:0:
350,227,157225,6,0,P|284:205|214:202,1,135.000005149842
348,28,157498,1,0,0:0:0:0:
434,235,157634,1,0,0:0:0:0:
454,103,157771,1,0,0:0:0:0:
219,62,157907,5,0,0:0:0:0:
325,310,158043,1,0,0:0:0:0:
332,144,158180,5,0,0:0:0:0:
170,359,158316,1,0,0:0:0:0:
34,142,158452,2,0,P|69:218|108:262,1,135.000005149842
119,18,158725,2,0,P|154:94|193:138,1,135.000005149842
383,305,158998,2,0,B|368:201|463:135|428:30,1,270.000010299683
308,302,159407,5,0,0:0:0:0:
240,47,159543,2,0,P|220:117|208:192,1,135.000005149842
173,356,159816,5,0,0:0:0:0:
105,101,159952,1,0,0:0:0:0:
66,218,160089,5,0,0:0:0:0:
182,284,160225,1,0,0:0:0:0:
315,283,160361,1,0,0:0:0:0:
429,215,160498,1,0,0:0:0:0:
323,106,160634,6,0,P|279:171|263:232,1,135.000005149842
212,15,160907,2,0,P|168:80|152:141,1,135.000005149842
47,40,161180,1,0,0:0:0:0:
145,267,161316,1,0,0:0:0:0:
244,131,161452,5,0,0:0:0:0:
96,329,161589,2,0,P|159:345|233:326,1,135.000005149842
340,259,161861,1,0,0:0:0:0:
162,197,161998,5,0,0:0:0:0:
419,205,162134,1,0,0:0:0:0:
140,35,162271,6,0,B|155:87|226:74|242:122,1,135.000005149842
440,342,162543,2,0,B|425:290|354:303|338:255,1,135.000005149842
26,53,162816,6,0,B|116:91|85:217|199:257,1,270.000010299683
481,215,163225,2,0,B|390:251|323:140|214:193,1,270.000010299683
30,266,163634,1,0,0:0:0:0:
155,213,163771,1,0,0:0:0:0:
134,346,163907,1,0,0:0:0:0:
71,185,164043,5,0,0:0:0:0:
250,250,164180,1,0,0:0:0:0:
26,87,164316,2,0,P|104:108|171:102,1,135.000005149842
323,78,164589,5,0,0:0:0:0:
374,121,164657,1,0,0:0:0:0:
379,187,164725,5,0,0:0:0:0:
312,171,164793,1,0,0:0:0:0:
245,155,164861,1,0,0:0:0:0:
179,142,164930,1,0,0:0:0:0:
114,130,164998,6,0,B|87:114|59:117|59:117|12:91|8:49,1,135.000005149842
14,273,165271,1,0,0:0:0:0:
179,142,165407,1,0,0:0:0:0:
210,337,165543,6,0,P|267:356|343:324,1,135.000005149842
438,236,165816,1,0,0:0:0:0:
139,208,165952,2,0,P|196:227|272:195,1,135.000005149842
42,78,166225,1,0,0:0:0:0:
217,76,166361,1,0,0:0:0:0:
48,3,166498,1,0,0:0:0:0:
145,232,166634,5,0,0:0:0:0:
227,2,166771,1,0,0:0:0:0:
403,168,166907,2,0,P|326:192|263:184,1,135.000005149842
35,159,167180,6,0,P|94:214|154:233,1,135.000005149842
182,345,167452,1,0,0:0:0:0:
154,143,167589,1,0,0:0:0:0:
110,356,167725,2,0,P|79:284|81:212,1,135.000005149842
100,31,167998,1,0,0:0:0:0:
231,256,168134,5,0,0:0:0:0:
14,103,168271,2,0,P|54:164|113:199,1,135.000005149842
368,253,168543,1,0,0:0:0:0:
199,74,168680,2,0,B|271:172|366:94|449:196,1,270.000010299683
455,357,169089,2,0,P|383:345|326:305,1,135.000005149842
150,130,169361,6,0,L|150:293,1,135.000005149842
332,311,169634,2,0,L|332:148,1,135.000005149842
74,35,169907,2,0,L|74:198,1,135.000005149842
408,249,170180,1,0,0:0:0:0:
99,344,170316,6,0,B|187:229|265:319|345:198,1,270.000010299683
419,117,170725,1,0,0:0:0:0:
237,169,170861,1,0,0:0:0:0:
386,341,170998,6,0,B|361:285|311:289|296:232,1,135.000005149842
108,29,171271,2,0,B|132:84|182:80|197:137,1,135.000005149842
358,79,171544,5,0,0:0:0:0:
410,222,171680,1,0,0:0:0:0:
410,222,171816,1,0,0:0:0:0:
264,87,171953,5,0,0:0:0:0:
138,210,172089,1,0,0:0:0:0:
306,256,172225,1,0,0:0:0:0:
202,75,172362,5,0,0:0:0:0:
164,273,172498,1,0,0:0:0:0:
352,206,172635,1,0,0:0:0:0:
137,108,172771,5,0,0:0:0:0:
227,309,172907,1,0,0:0:0:0:
354,131,173044,1,0,0:0:0:0:
96,181,173180,5,0,0:0:0:0:
313,310,173316,1,0,0:0:0:0:
315,59,173453,1,0,0:0:0:0:
104,279,173589,5,0,0:0:0:0:
401,256,173725,1,0,0:0:0:0:
233,11,173862,1,0,0:0:0:0:
198,351,173998,5,0,0:0:0:0:
305,228,174135,1,0,0:0:0:0:
404,103,174271,1,0,0:0:0:0:
253,85,174407,2,0,P|188:86|122:112,1,135.000005149842
305,228,174680,2,0,P|238:230|174:255,1,135.000005149842
381,371,174953,2,0,L|233:351,1,135.000005149842
73,322,175225,5,0,0:0:0:0:
451,146,175362,2,0,P|466:231|402:339,1,202.500007724762
324,378,175635,5,0,0:0:0:0:
216,253,175771,1,0,0:0:0:0:
108,130,175907,1,0,0:0:0:0:
0,7,176044,2,0,P|63:52|140:61,1,148.500001416206
269,201,176316,2,0,P|346:202|410:170,1,148.500001416206
120,339,176589,2,0,L|65:187,1,148.500001416206
101,26,176862,5,0,0:0:0:0:
243,361,176998,2,0,P|343:313|458:310,1,222.75000212431
512,365,177271,5,0,0:0:0:0:
342,251,177407,1,0,0:0:0:0:
172,137,177544,1,0,0:0:0:0:
2,23,177680,2,0,P|13:99|79:157,1,161.999995056153
245,30,177952,2,0,P|256:106|327:167,1,161.999995056153
342,358,178225,2,0,L|173:359,1,161.999995056153
57,347,178498,5,0,0:0:0:0:
374,36,178635,2,0,P|379:148|305:284,1,242.999992584229
259,358,178907,5,0,0:0:0:0:
90,195,179044,1,0,0:0:0:0:
253,26,179180,1,0,0:0:0:0:
422,189,179316,2,0,L|292:326,1,175.500000669479
141,146,179589,2,0,L|-1:-10,1,175.500000669479
348,369,179862,2,0,L|489:221,1,175.500000669479
433,43,180135,5,0,0:0:0:0:
72,351,180271,2,0,P|145:230|255:192,1,263.250001004219
256,192,180544,12,8,184907,0:0:0:0:
