osu file format v14

[General]
AudioFilename: audio.mp3
AudioLeadIn: 0
PreviewTime: 29646
Countdown: 0
SampleSet: Drum
StackLeniency: 0.7
Mode: 0
LetterboxInBreaks: 0
WidescreenStoryboard: 1

[Editor]
DistanceSpacing: 1.5
BeatDivisor: 4
GridSize: 4
TimelineZoom: 1.4

[Metadata]
Title:Indigo Star
TitleUnicode:Indigo Star
Artist:Sasaki Shiori
ArtistUnicode:佐々木詩織
Creator:No Dap
Version:Mayu's Hard
Source:Making*Lovers
Tags:メイキング・ラバーズ Visual novel ending japanese anime video game momoka moeka shioi shikibe mayu Shizuku- Kazato Asa pop jpop New-USERNAME [KING]InSsa wwoosshh
BeatmapID:3205538
BeatmapSetID:1569293

[Difficulty]
HPDrainRate:5
CircleSize:3.7
OverallDifficulty:6
ApproachRate:7.5
SliderMultiplier:1.3
SliderTickRate:1

[Events]
//Background and Video events
0,0,"bg.jpg",0,0
//Break Periods
2,69882,74151
2,186353,196578
//Storyboard Layer 0 (Background)
//Storyboard Layer 1 (Fail)
//Storyboard Layer 2 (Pass)
//Storyboard Layer 3 (Foreground)
//Storyboard Layer 4 (Overlay)
//Storyboard Sound Samples

[TimingPoints]
2624,441.176470588235,4,2,1,70,1,0
15969,-100,4,2,1,50,0,0
16741,-100,4,3,1,50,0,0
27109,-83.3333333333333,4,3,1,70,0,0
27219,-83.3333333333333,4,3,1,50,0,0
29756,-83.3333333333333,4,3,1,70,0,0
30197,-83.3333333333333,4,3,1,60,0,0
30859,-83.3333333333333,4,3,1,90,0,1
30969,-83.3333333333333,4,3,1,70,0,1
37697,-83.3333333333333,4,3,1,90,0,1
37807,-83.3333333333333,4,3,1,70,0,1
39462,-83.3333333333333,4,3,1,90,0,1
39572,-83.3333333333333,4,3,1,70,0,1
41226,-83.3333333333333,4,3,1,90,0,1
41337,-83.3333333333333,4,3,1,70,0,1
44976,-83.3333333333333,4,3,1,90,0,1
45087,-83.3333333333333,4,3,1,70,0,1
51815,-83.3333333333333,4,3,1,90,0,1
51925,-83.3333333333333,4,3,1,70,0,1
53579,-83.3333333333333,4,3,1,90,0,1
53690,-83.3333333333333,4,3,1,70,0,1
55344,-83.3333333333333,4,3,1,90,0,1
55454,-83.3333333333333,4,3,1,70,0,1
57109,-83.3333333333333,4,3,1,90,0,1
57219,-83.3333333333333,4,3,1,70,0,1
59094,-83.3333333333333,4,3,1,90,0,1
59204,-83.3333333333333,4,3,1,70,0,1
66153,-83.3333333333333,4,3,1,90,0,1
66263,-83.3333333333333,4,3,1,70,0,1
67918,-83.3333333333333,4,3,1,90,0,1
68028,-83.3333333333333,4,3,1,70,0,1
68800,-83.3333333333333,4,3,1,90,0,1
69682,-100,4,3,1,60,0,0
76300,-100,4,3,1,60,0,0
76741,-100,4,3,1,70,0,0
94829,-100,4,3,1,40,0,0
95050,-100,4,3,1,50,0,0
95271,-100,4,3,1,60,0,0
95491,-100,4,3,1,70,0,0
95712,-100,4,3,1,80,0,0
95932,-100,4,3,1,90,0,0
96153,-100,4,3,1,80,0,0
96815,-100,4,3,1,80,0,0
96925,-100,4,3,1,5,0,0
97256,-100,4,3,1,60,0,0
114682,-100,4,3,1,50,0,0
115013,-100,4,3,1,5,0,0
115123,-100,4,3,1,50,0,0
115454,-100,4,3,1,5,0,0
115565,-83.3333333333333,4,3,1,90,0,1
115675,-83.3333333333333,4,3,1,70,0,1
122403,-83.3333333333333,4,3,1,90,0,1
122513,-83.3333333333333,4,3,1,70,0,1
124168,-83.3333333333333,4,3,1,90,0,1
124278,-83.3333333333333,4,3,1,70,0,1
125932,-83.3333333333333,4,3,1,90,0,1
126043,-83.3333333333333,4,3,1,70,0,1
129682,-83.3333333333333,4,3,1,90,0,1
129793,-83.3333333333333,4,3,1,70,0,1
136521,-83.3333333333333,4,3,1,90,0,1
136631,-83.3333333333333,4,3,1,70,0,1
138285,-83.3333333333333,4,3,1,90,0,1
138396,-83.3333333333333,4,3,1,70,0,1
140050,-83.3333333333333,4,3,1,90,0,1
140160,-83.3333333333333,4,3,1,70,0,1
142035,-83.3333333333333,4,3,1,90,0,1
142146,-83.3333333333333,4,3,1,70,0,1
142918,-83.3333333333333,4,3,1,90,0,1
143028,-83.3333333333333,4,3,1,70,0,1
143359,-83.3333333333333,4,3,1,90,0,1
143469,-83.3333333333333,4,3,1,70,0,1
143800,-83.3333333333333,4,3,1,90,0,1
143910,-83.3333333333333,4,3,1,70,0,1
150859,-83.3333333333333,4,3,1,90,0,1
150969,-83.3333333333333,4,3,1,70,0,1
152623,-83.3333333333333,4,3,1,90,0,1
152734,-83.3333333333333,4,3,1,70,0,1
153506,-83.3333333333333,4,3,1,90,0,1
154278,-83.3333333333333,4,3,1,70,0,1
154388,-100,4,3,1,50,0,0
168506,-90.9090909090909,4,3,1,60,0,0
197403,-100,4,3,1,50,0,0
199388,-100,4,3,1,50,0,0
199719,-100,4,3,1,5,0,0
199829,-100,4,3,1,60,0,0
200271,-83.3333333333333,4,3,1,90,0,1
200381,-83.3333333333333,4,3,1,70,0,1
207109,-83.3333333333333,4,3,1,90,0,1
207219,-83.3333333333333,4,3,1,70,0,1
208873,-83.3333333333333,4,3,1,90,0,1
208984,-83.3333333333333,4,3,1,70,0,1
210638,-83.3333333333333,4,3,1,90,0,1
210748,-83.3333333333333,4,3,1,70,0,1
212623,-83.3333333333333,4,3,1,90,0,1
212734,-83.3333333333333,4,3,1,70,0,1
213506,-83.3333333333333,4,3,1,90,0,1
213616,-83.3333333333333,4,3,1,70,0,1
214388,-83.3333333333333,4,3,1,90,0,1
214498,-83.3333333333333,4,3,1,70,0,1
221226,-83.3333333333333,4,3,1,90,0,1
221337,-83.3333333333333,4,3,1,70,0,1
222991,-83.3333333333333,4,3,1,90,0,1
223101,-83.3333333333333,4,3,1,70,0,1
224756,-83.3333333333333,4,3,1,90,0,1
224866,-83.3333333333333,4,3,1,70,0,1
226521,-83.3333333333333,4,3,1,90,0,1
226631,-83.3333333333333,4,3,1,70,0,1
227403,-83.3333333333333,4,3,1,90,0,1
227513,-83.3333333333333,4,3,1,70,0,1
228506,-83.3333333333333,4,3,1,90,0,1
228616,-83.3333333333333,4,3,1,70,0,1
235565,-83.3333333333333,4,3,1,90,0,1
235675,-83.3333333333333,4,3,1,70,0,1
237329,-83.3333333333333,4,3,1,90,0,1
237440,-83.3333333333333,4,3,1,70,0,1
238212,-83.3333333333333,4,3,1,90,0,1
239094,-125,4,2,1,50,0,0

[Colours]
Combo1 : 255,128,64
Combo2 : 0,191,244
Combo3 : 128,255,128
Combo4 : 223,223,0

[HitObjects]
459,90,2623,6,0,P|408:55|329:70,1,130
342,61,3285,1,2,0:0:0:0:
280,12,3506,6,0,L|302:150,1,130,2|0,0:0|0:0,0:0:0:0:
266,217,4168,1,2,0:0:0:0:
331,271,4388,2,0,P|394:232|468:249,1,130,0|2,0:0|0:0,0:0:0:0:
471,329,5050,2,0,L|391:315,1,65,2|0,0:0|0:0,0:0:0:0:
336,360,5491,1,2,0:0:0:0:
240,244,5932,1,0,0:0:0:0:
175,293,6153,6,0,P|113:309|46:262,1,130,2|2,0:0|0:0,0:0:0:0:
108,158,6815,2,0,L|124:227,1,65,2|0,0:0|0:0,0:0:0:0:
13,168,7256,2,0,L|28:105,1,65,2|0,0:0|0:0,0:0:0:0:
120,40,7697,5,2,0:0:0:0:
120,40,7918,2,0,P|185:44|245:0,1,130,2|2,0:0|0:0,0:0:0:0:
312,72,8579,1,2,0:0:0:0:
372,231,9021,2,0,P|433:202|495:209,1,130,2|0,0:0|0:0,0:0:0:0:
493,208,9572,1,0,0:0:0:0:
493,208,9682,6,0,L|509:128,1,65,2|0,0:0|0:0,0:0:0:0:
424,80,10123,2,0,L|408:160,1,65,0|2,0:0|0:0,0:0:0:0:
372,231,10565,2,0,P|317:214|232:200,1,130,2|2,0:0|0:0,0:0:0:0:
184,151,11226,1,2,0:0:0:0:
158,241,11447,2,0,P|106:288|32:282,1,130,0|2,0:0|0:0,0:0:0:0:
48,289,12109,1,2,0:0:0:0:
16,178,12550,2,0,L|30:108,1,65,2|0,0:0|0:0,0:0:0:0:
0,32,12991,1,2,0:0:0:0:
0,32,13212,6,0,P|66:30|124:-1,1,130,2|2,0:0|0:0,0:0:0:0:
200,61,13873,2,0,L|181:130,1,65,2|0,0:0|0:0,0:0:0:0:
118,193,14315,2,0,L|137:262,1,65,2|0,0:0|0:0,0:0:0:0:
230,223,14756,1,2,0:0:0:0:
230,223,14976,2,0,P|300:237|365:264,2,130,2|2|2,2:0|2:0|2:0,0:0:0:0:
180,322,16079,5,8,2:0:0:0:
102,353,16300,1,8,2:0:0:0:
36,300,16521,1,8,2:0:0:0:
36,300,16741,6,0,L|62:155,1,130,4|8,0:2|0:2,0:0:0:0:
1,104,17403,1,4,0:0:0:0:
39,22,17623,2,0,P|87:52|170:33,1,130,0|8,0:0|0:2,0:0:0:0:
263,19,18285,5,4,0:0:0:0:
263,19,18396,1,4,0:0:0:0:
263,19,18506,2,0,L|230:169,1,130,4|8,0:0|0:2,0:0:0:0:
139,201,19168,2,0,P|148:233|156:278,1,65,4|0,0:0|0:0,0:0:0:0:
255,340,19609,1,4,0:0:0:0:
255,340,19829,2,0,P|248:308|239:276,1,65,8|4,0:2|0:0,0:0:0:0:
321,210,20271,6,0,P|376:241|450:226,1,130,4|8,0:0|0:2,0:0:0:0:
505,130,20932,2,0,L|435:144,1,65,4|0,0:0|0:0,0:0:0:0:
335,12,21373,2,0,L|405:26,1,65,4|8,0:0|0:2,0:0:0:0:
346,104,21815,5,4,0:0:0:0:
346,104,22035,2,0,P|297:149|217:141,1,130,0|10,0:0|0:2,0:0:0:0:
160,92,22697,2,0,L|176:19,1,65,2|4,0:0|0:0,0:0:0:0:
56,123,23138,5,6,0:0:0:0:
71,206,23359,1,10,0:2:0:0:
22,276,23579,2,0,P|114:246|159:258,1,130,2|4,0:0|0:0,0:0:0:0:
206,320,24241,2,0,L|216:388,1,65,8|4,0:2|0:0,0:0:0:0:
300,337,24682,1,4,0:0:0:0:
300,337,24903,2,0,L|290:272,1,65,4|8,0:0|0:2,0:0:0:0:
216,211,25344,5,2,0:2:0:0:
216,211,25454,1,0,0:0:0:0:
216,211,25565,2,0,P|224:180|227:138,1,65,0|4,0:0|0:0,0:0:0:0:
135,47,26006,2,0,L|22:70,1,97.5,8|4,0:2|0:0,0:0:0:0:
39,66,26447,1,8,0:2:0:0:
77,146,26668,2,0,L|140:133,1,65,4|8,0:0|0:2,0:0:0:0:
252,4,27109,6,0,P|305:48|394:30,1,155.999995239258,4|4,0:2|0:0,0:0:0:0:
459,93,27771,1,8,0:2:0:0:
416,176,27991,1,4,0:0:0:0:
416,176,28101,1,4,0:0:0:0:
416,176,28212,1,8,0:2:0:0:
324,148,28432,1,4,0:0:0:0:
268,216,28653,1,8,0:2:0:0:
184,176,28873,6,0,P|216:107|197:21,1,155.999995239258,4|8,0:2|0:2,0:0:0:0:
128,0,29535,1,8,0:2:0:0:
44,24,29756,2,0,L|4:14,2,38.9999988098145,2|2|2,2:0|2:0|2:0,2:0:0:0:
0,104,30197,1,8,0:2:0:0:
24,188,30418,1,8,0:0:0:0:
32,216,30528,1,8,0:0:0:0:
32,240,30638,1,4,0:0:0:0:
24,268,30748,1,4,0:0:0:0:
12,288,30859,6,0,P|47:294|105:310,1,77.999997619629,4|2,0:2|0:0,0:0:0:0:
146,369,31300,2,0,P|206:338|272:354,1,116.999996429443,8|0,0:2|0:0,0:0:0:0:
263,349,31741,1,4,0:0:0:0:
195,288,31962,2,0,L|211:198,1,77.999997619629,6|8,0:0|0:2,0:0:0:0:
118,131,32403,6,0,L|250:106,1,116.999996429443,6|0,0:0|0:0,0:0:0:0:
246,119,32844,2,0,P|254:74|263:24,1,77.999997619629,6|8,0:0|0:2,0:0:0:0:
362,0,33285,2,0,P|355:38|348:76,1,77.999997619629,6|0,0:0|0:0,0:0:0:0:
406,164,33726,1,6,0:0:0:0:
500,128,33947,1,8,0:2:0:0:
406,164,34168,1,2,0:0:0:0:
459,251,34388,6,0,P|388:203|304:223,1,155.999995239258,4|8,0:0|0:2,0:0:0:0:
246,268,35050,1,6,0:0:0:0:
165,171,35271,2,0,L|183:55,1,116.999996429443
186,46,35712,1,8,0:2:0:0:
268,116,35932,6,0,L|348:102,1,77.999997619629,2|4,0:0|0:0,0:0:0:0:
401,39,36373,1,2,0:0:0:0:
512,130,36594,2,0,P|456:182|363:166,1,155.999995239258,8|4,0:2|0:0,0:0:0:0:
299,214,37256,2,0,L|288:261,2,38.9999988098145,6|0|8,0:0|0:0|0:2,0:0:0:0:
353,325,37697,2,0,P|391:312|447:298,1,77.999997619629,2|4,0:2|0:2,0:0:0:0:
290,251,38138,5,6,0:0:0:0:
216,314,38359,1,8,0:2:0:0:
124,292,38579,1,2,0:0:0:0:
195,224,38800,2,0,P|202:185|212:133,1,77.999997619629,4|6,0:0|0:0,0:0:0:0:
86,29,39241,5,8,0:2:0:0:
13,78,39462,2,0,P|73:118|158:88,1,155.999995239258,6|6,0:2|0:0,0:0:0:0:
258,5,40123,2,0,P|265:55|278:119,1,77.999997619629,8|2,0:2|0:0,0:0:0:0:
364,147,40565,5,4,0:0:0:0:
428,86,40785,1,6,0:0:0:0:
509,115,41006,1,8,0:2:0:0:
464,246,41226,6,0,P|456:207|445:170,1,77.999997619629,2|6,0:2|0:2,0:0:0:0:
364,147,41668,1,2,0:0:0:0:
288,204,41888,2,0,P|243:195|200:192,1,77.999997619629,8|2,0:2|0:0,0:0:0:0:
211,192,42219,1,0,0:0:0:0:
211,192,42329,2,0,P|206:130|158:96,1,116.999996429443,4|8,0:0|0:2,0:0:0:0:
153,97,42771,2,0,L|77:114,1,77.999997619629,8|6,0:2|0:0,0:0:0:0:
18,200,43212,5,4,0:0:0:0:
56,288,43432,1,10,0:2:0:0:
56,288,43543,1,8,0:2:0:0:
56,288,43653,2,0,P|50:311|45:330,2,38.9999988098145,8|4|6,0:2|0:0|0:0,0:0:0:0:
136,248,44094,1,8,0:2:0:0:
207,337,44315,5,8,0:2:0:0:
207,337,44425,1,8,0:2:0:0:
207,337,44535,2,0,P|230:331|249:326,3,38.9999988098145,8|8|4|4,0:0|0:0|0:0|0:0,0:0:0:0:
255,324,44976,6,0,P|294:332|348:349,1,77.999997619629,4|2,0:2|0:0,0:0:0:0:
420,309,45418,2,0,P|454:239|445:197,1,116.999996429443,8|0,0:2|0:0,0:0:0:0:
441,194,45859,2,0,L|361:213,1,77.999997619629,4|6,0:0|0:0,0:0:0:0:
311,116,46300,5,8,0:2:0:0:
247,169,46521,2,0,P|173:187|99:122,1,155.999995239258,6|6,0:0|0:0,0:0:0:0:
171,25,47182,1,8,0:2:0:0:
171,25,47403,2,0,P|179:71|190:128,1,77.999997619629,6|0,0:0|0:0,0:0:0:0:
110,145,47844,2,0,P|118:191|129:248,1,77.999997619629,6|8,0:0|0:2,0:0:0:0:
96,312,48285,1,2,0:0:0:0:
29,259,48506,6,0,P|110:276|198:295,1,155.999995239258,4|8,0:0|0:2,0:0:0:0:
239,361,49168,1,6,0:0:0:0:
328,336,49388,2,0,P|369:268|350:187,1,155.999995239258,4|8,0:0|0:2,0:0:0:0:
434,126,50050,1,6,0:0:0:0:
434,126,50160,1,4,0:0:0:0:
434,126,50271,2,0,P|475:133|509:144,1,77.999997619629,4|6,0:0|0:0,0:0:0:0:
471,26,50712,2,0,P|416:77|324:60,1,155.999995239258,8|4,0:2|0:0,0:0:0:0:
257,31,51373,1,6,0:0:0:0:
200,100,51594,1,8,0:2:0:0:
285,141,51815,6,0,P|278:182|270:230,1,77.999997619629,2|4,0:2|0:2,0:0:0:0:
361,303,52256,1,6,0:0:0:0:
464,266,52476,1,8,0:2:0:0:
444,373,52697,1,2,0:0:0:0:
361,303,52918,2,0,P|309:315|264:333,1,77.999997619629,4|6,0:0|0:0,0:0:0:0:
224,270,53359,1,8,0:2:0:0:
162,361,53579,6,0,P|88:375|23:313,1,155.999995239258,6|6,0:2|0:0,0:0:0:0:
58,254,54241,2,0,P|49:213|38:175,1,77.999997619629,8|2,0:2|0:0,0:0:0:0:
142,142,54682,1,4,0:0:0:0:
223,167,54903,1,6,0:0:0:0:
304,192,55123,1,8,0:2:0:0:
395,144,55344,6,0,P|433:89|414:4,1,155.999995239258,6|6,0:2|0:0,0:0:0:0:
327,12,56006,2,0,L|308:96,1,77.999997619629,8|2,0:2|0:0,0:0:0:0:
304,192,56447,1,4,0:0:0:0:
395,144,56668,2,0,P|437:133|485:125,1,77.999997619629,6|8,0:0|0:2,0:0:0:0:
512,212,57109,6,0,P|446:228|382:246,1,116.999996429443,6|0,0:2|0:0,0:0:0:0:
393,252,57550,2,0,P|382:292|373:337,1,77.999997619629,6|8,0:0|0:2,0:0:0:0:
284,251,57991,2,0,P|254:182|270:89,1,155.999995239258,10|6,0:0|0:0,0:0:0:0:
263,103,58543,1,4,0:0:0:0:
263,103,58653,1,8,0:2:0:0:
204,35,58873,5,10,0:0:0:0:
204,35,58984,1,8,0:0:0:0:
204,35,59094,2,0,P|163:45|116:61,1,77.999997619629,4|0,0:2|0:0,0:0:0:0:
40,8,59535,2,0,P|28:48|18:97,1,77.999997619629,8|6,0:2|0:0,0:0:0:0:
48,192,59976,2,0,P|111:147|191:158,1,155.999995239258,0|8,0:0|0:2,0:0:0:0:
252,220,60638,1,6,0:0:0:0:
336,173,60859,6,0,L|364:52,1,116.999996429443,4|0,0:0|0:0,0:0:0:0:
365,46,61300,2,0,L|455:27,1,77.999997619629,8|6,0:2|0:0,0:0:0:0:
512,113,61741,2,0,P|471:126|433:133,1,77.999997619629,0|6,0:0|0:0,0:0:0:0:
336,173,62182,2,0,P|331:211|323:249,1,77.999997619629,8|2,0:2|0:0,0:0:0:0:
405,352,62623,6,0,P|333:310|256:328,1,155.999995239258,4|8,0:0|0:2,0:0:0:0:
181,384,63285,1,6,0:0:0:0:
96,302,63506,2,0,P|143:287|192:274,1,77.999997619629,0|6,0:0|0:0,0:0:0:0:
247,218,63947,2,0,P|257:169|270:120,1,77.999997619629,8|2,0:2|0:0,0:0:0:0:
264,142,64278,1,0,0:0:0:0:
264,142,64388,6,0,P|308:133|354:123,1,77.999997619629,4|2,0:0|0:0,0:0:0:0:
364,30,64829,2,0,P|320:39|274:49,1,77.999997619629,8|6,0:2|0:0,0:0:0:0:
185,0,65271,2,0,P|133:51|41:38,1,155.999995239258,4|8,0:0|0:2,0:0:0:0:
110,145,65932,1,2,0:0:0:0:
30,212,66153,6,0,P|19:166|5:122,1,77.999997619629,4|2,0:2|0:0,0:0:0:0:
110,145,66594,2,0,P|184:134|250:189,1,155.999995239258,8|0,0:2|0:0,0:0:0:0:
336,144,67256,1,6,0:0:0:0:
398,222,67476,2,0,P|440:212|483:202,1,77.999997619629,8|6,0:2|0:0,0:0:0:0:
447,316,67918,6,0,P|364:321|303:255,1,155.999995239258,4|8,0:2|0:2,0:0:0:0:
263,201,68579,1,6,0:0:0:0:
205,323,68800,2,0,P|153:336|94:353,1,77.999997619629,12|12,0:2|0:2,0:0:0:0:
5,251,69241,1,12,0:2:0:0:
137,194,69462,1,12,0:2:0:0:
87,270,69682,5,2,2:0:0:0:
268,335,74976,6,0,P|319:296|397:316,1,130,0|4,0:0|0:0,0:0:0:0:
380,304,75638,1,4,0:0:0:0:
481,213,76079,2,0,L|466:281,2,65,0|8|0,0:0|0:2|0:0,0:0:0:0:
510,123,76741,6,0,P|451:157|375:134,1,130,6|2,2:0|2:0,2:0:0:0:
343,46,77403,1,2,2:0:0:0:
343,46,77623,2,0,L|275:61,1,65,2|2,2:0|2:0,0:0:0:0:
234,137,78065,2,0,L|219:205,1,65,2|2,2:0|2:0,0:0:0:0:
219,200,78396,1,0,2:0:0:0:
219,200,78506,6,0,B|183:190|145:214|177:224|128:251|92:240,1,130,2|2,2:0|2:0,2:0:0:0:
41,179,79168,1,2,2:0:0:0:
41,179,79388,2,0,L|60:62,1,97.5,2|0,2:0|2:0,0:0:0:0:
58,74,79829,2,0,L|129:60,1,65,8|4,0:2|0:0,0:0:0:0:
210,17,80271,6,0,P|221:52|240:98,1,65,8|4,0:2|0:0,0:0:0:0:
231,78,80601,1,4,0:0:0:0:
231,78,80712,1,4,0:0:0:0:
169,158,80932,2,0,P|136:210|167:292,1,130,8|4,0:2|0:0,0:0:0:0:
221,323,81594,1,8,0:2:0:0:
133,371,81815,2,0,P|100:363|50:351,1,65,8|4,0:2|0:0,0:0:0:0:
149,273,82256,5,4,0:0:0:0:
221,323,82476,1,8,0:2:0:0:
308,290,82697,1,4,0:0:0:0:
308,290,82807,1,0,0:0:0:0:
308,290,82918,2,0,P|346:297|384:311,1,65,8|8,0:2|0:2,0:0:0:0:
447,348,83359,2,0,L|458:392,2,32.5,8|8|8,0:2|0:2|0:0,0:0:0:0:
489,266,83800,5,8,0:0:0:0:
494,250,83910,1,4,0:0:0:0:
494,235,84021,1,4,0:0:0:0:
485,218,84131,1,4,0:0:0:0:
473,211,84241,2,0,P|442:218|402:228,1,65,4|0,0:2|0:0,0:0:0:0:
345,167,84682,1,8,0:2:0:0:
264,200,84903,2,0,L|249:276,1,65,0|4,0:0|0:0,0:0:0:0:
296,336,85344,6,0,P|240:305|159:331,1,130,12|4,0:2|0:0,0:0:0:0:
110,254,86006,1,12,0:2:0:0:
28,307,86226,2,0,L|17:373,1,65,4|8,0:0|0:2,0:0:0:0:
110,254,86668,2,0,P|136:181|119:119,1,130,4|0,0:0|0:0,0:0:0:0:
148,52,87329,5,4,0:0:0:0:
244,28,87550,1,4,0:0:0:0:
342,7,87771,1,8,0:2:0:0:
476,188,88212,5,4,0:0:0:0:
476,188,88432,2,0,P|432:176|400:171,1,65,4|8,0:0|0:2,0:0:0:0:
338,117,88873,2,0,B|364:150|364:150|377:196|343:243,1,130,4|4,0:0|0:0,0:0:0:0:
411,299,89535,2,0,P|448:287|485:277,1,65,8|4,0:2|0:0,0:0:0:0:
340,368,89976,1,4,0:0:0:0:
340,368,90087,1,4,0:3:0:0:
340,368,90197,2,0,P|275:352|256:348,1,65,4|8,0:0|0:2,0:0:0:0:
208,280,90638,5,8,0:2:0:0:
208,280,90748,1,8,0:2:0:0:
208,280,90859,2,0,P|245:225|229:150,1,130,4|4,0:0|0:0,0:0:0:0:
285,98,91521,1,0,0:0:0:0:
256,23,91741,1,8,0:2:0:0:
182,0,91962,2,0,P|115:17|28:31,1,130,0|4,0:0|0:0,0:0:0:0:
0,117,92623,6,0,P|55:151|127:139,1,130,4|0,0:0|0:0,0:0:0:0:
177,212,93285,1,4,0:0:0:0:
177,212,93396,1,4,0:0:0:0:
177,212,93506,2,0,P|169:250|156:305,1,65,8|4,0:2|0:0,0:0:0:0:
229,379,93947,2,0,P|237:341|250:286,1,65,0|4,0:0|0:0,0:0:0:0:
298,226,94388,6,0,L|451:198,1,130,4|8,0:0|0:2,0:0:0:0:
500,162,95050,1,4,0:0:0:0:
512,74,95271,1,8,0:2:0:0:
447,22,95491,1,4,0:0:0:0:
366,60,95712,1,8,0:2:0:0:
359,144,95932,1,4,0:0:0:0:
425,202,96153,6,0,P|415:246|409:282,1,65,8|8,0:2|0:2,0:0:0:0:
411,265,96484,1,8,0:2:0:0:
411,265,96594,1,8,0:2:0:0:
391,369,96815,1,8,0:2:0:0:
244,239,97256,5,8,0:0:0:0:
200,328,97476,2,0,P|155:338|115:353,1,65,8|4,0:0|0:0,0:0:0:0:
137,343,97807,1,4,0:0:0:0:
137,343,97918,2,0,P|77:360|18:302,1,130,4|8,0:2|0:2,0:0:0:0:
1,243,98579,1,4,0:0:0:0:
1,243,98690,1,0,0:0:0:0:
1,243,98800,2,0,L|17:161,1,65,0|4,0:0|0:0,0:0:0:0:
51,107,99241,1,8,0:2:0:0:
0,40,99462,6,0,P|66:41|140:3,1,130,4|4,0:0|0:0,0:0:0:0:
180,77,100123,1,8,0:2:0:0:
256,31,100344,2,0,P|267:73|265:105,1,65,4|0,0:0|0:0,0:0:0:0:
208,168,100785,1,4,0:0:0:0:
208,168,100896,1,0,0:0:0:0:
208,168,101006,2,0,L|193:236,1,65,8|0,0:2|0:0,0:0:0:0:
256,320,101447,6,0,B|289:319|319:302|319:302|355:310|378:344,1,130,4|8,0:0|0:2,0:0:0:0:
476,320,102109,1,4,0:0:0:0:
476,320,102219,1,0,0:0:0:0:
476,320,102329,2,0,P|467:356|458:397,1,65,0|4,0:0|0:0,0:0:0:0:
390,253,102771,5,8,0:2:0:0:
440,184,102991,2,0,P|455:117|437:36,1,130,4|4,0:0|0:0,0:0:0:0:
371,9,103653,2,0,L|287:26,1,65,8|0,0:2|0:0,0:0:0:0:
264,97,104094,2,0,L|180:114,1,65,4|4,0:0|0:0,0:0:0:0:
200,109,104425,1,0,0:0:0:0:
200,109,104535,1,8,0:2:0:0:
104,50,104756,5,8,0:2:0:0:
104,50,104866,1,8,0:2:0:0:
104,50,104976,2,0,B|93:97|93:97|106:132|106:132|93:183,1,130,4|4,0:2|0:0,0:0:0:0:
23,235,105638,1,4,0:0:0:0:
23,235,105748,1,0,0:0:0:0:
23,235,105859,2,0,P|32:276|37:308,1,65,4|4,0:0|0:0,0:0:0:0:
53,382,106300,1,8,0:2:0:0:
185,322,106521,6,0,P|214:266|205:198,1,130,4|4,0:2|0:0,0:0:0:0:
151,136,107182,2,0,L|164:61,1,65,4|4,0:0|0:0,0:0:0:0:
248,95,107623,1,4,0:0:0:0:
318,31,107844,2,0,L|309:-16,2,32.5,4|4|8,0:0|0:0|0:2,0:0:0:0:
408,72,108285,5,4,0:0:0:0:
408,72,108396,1,4,0:0:0:0:
408,72,108506,2,0,P|390:137|370:215,1,130,4|4,0:2|0:0,0:0:0:0:
437,275,109168,1,4,0:0:0:0:
437,275,109278,1,0,0:0:0:0:
437,275,109388,2,0,P|472:266|511:258,2,65,8|4|8,0:2|0:0|0:2,0:0:0:0:
385,376,110050,6,0,P|348:364|319:357,1,65,4|0,0:2|0:0,0:0:0:0:
240,382,110491,1,4,0:0:0:0:
189,313,110712,1,8,0:2:0:0:
243,245,110932,1,4,0:0:0:0:
243,245,111043,1,0,0:0:0:0:
243,245,111153,2,0,P|254:193|265:125,1,97.5,8|0,0:2|0:0,0:0:0:0:
255,142,111594,2,0,L|333:124,1,65,8|4,0:2|0:0,0:0:0:0:
365,47,112035,6,0,P|311:10|230:33,1,130,12|4,0:2|0:0,0:0:0:0:
178,104,112697,1,4,0:0:0:0:
105,63,112918,1,8,0:2:0:0:
21,98,113138,1,8,0:2:0:0:
0,182,113359,1,8,0:2:0:0:
42,256,113579,1,12,0:2:0:0:
42,256,114682,5,4,0:0:0:0:
122,220,114903,1,0,0:0:0:0:
195,278,115123,2,0,L|211:388,1,97.5,4|0,0:0|0:0,0:0:0:0:
209,374,115565,6,0,P|252:360|292:361,1,77.999997619629,4|0,0:2|0:0,0:0:0:0:
367,384,116006,2,0,L|389:256,1,116.999996429443,8|0,0:2|0:0,0:0:0:0:
391,260,116447,1,4,0:0:0:0:
369,172,116668,1,6,0:0:0:0:
462,199,116888,1,8,0:2:0:0:
300,244,117109,6,0,P|271:194|306:93,1,155.999995239258,6|6,0:0|0:0,0:0:0:0:
206,22,117771,1,8,0:2:0:0:
156,93,117991,2,0,P|118:102|79:114,1,77.999997619629,6|0,0:0|0:0,0:0:0:0:
6,37,118432,2,0,P|44:28|83:16,1,77.999997619629,6|8,0:0|0:2,0:0:0:0:
7,163,118873,5,2,0:0:0:0:
82,202,119094,2,0,P|101:273|117:354,1,155.999995239258,4|8,0:0|0:2,0:0:0:0:
292,294,119756,1,6,0:0:0:0:
245,381,119976,2,0,P|199:308|211:240,1,155.999995239258,4|8,0:0|0:2,0:0:0:0:
161,174,120638,5,6,0:0:0:0:
161,174,120748,1,4,0:0:0:0:
161,174,120859,2,0,L|247:152,1,77.999997619629,0|6,0:0|0:0,0:0:0:0:
321,204,121300,2,0,B|356:226|356:226|421:219|458:163,1,155.999995239258,8|4,0:2|0:0,0:0:0:0:
508,104,121962,2,0,L|491:18,1,77.999997619629,6|8,0:0|0:2,0:0:0:0:
392,77,122403,6,0,P|344:64|307:56,1,77.999997619629,2|4,0:2|0:2,0:0:0:0:
240,0,122844,1,6,0:0:0:0:
181,67,123065,1,8,0:2:0:0:
98,47,123285,1,2,0:0:0:0:
28,108,123506,1,4,0:0:0:0:
71,192,123726,2,0,P|61:237|55:277,1,77.999997619629,6|8,0:0|0:2,0:0:0:0:
0,375,124168,6,0,P|96:354|173:338,1,155.999995239258,6|6,0:2|0:0,0:0:0:0:
258,299,124829,1,8,0:2:0:0:
339,383,125050,1,2,0:0:0:0:
447,336,125271,1,4,0:0:0:0:
375,253,125491,2,0,P|365:209|357:154,1,77.999997619629,6|8,0:0|0:2,0:0:0:0:
421,67,125932,6,0,P|359:123|267:105,1,155.999995239258,6|2,0:2|0:0,0:0:0:0:
240,35,126594,1,8,0:2:0:0:
155,81,126815,1,2,0:0:0:0:
155,81,126925,1,0,0:0:0:0:
155,81,127035,2,0,L|178:222,1,116.999996429443,4|0,0:0|0:0,0:0:0:0:
188,208,127476,2,0,P|179:252|173:292,1,77.999997619629,8|6,0:2|0:0,0:0:0:0:
80,344,127918,6,0,P|71:300|65:260,1,77.999997619629,4|10,0:0|0:2,0:0:0:0:
65,267,128248,1,8,0:2:0:0:
65,267,128359,1,8,0:2:0:0:
0,208,128579,1,10,0:2:0:0:
19,111,128800,1,4,0:0:0:0:
116,76,129021,2,0,L|138:-14,1,77.999997619629,10|8,0:2|0:2,0:0:0:0:
207,139,129462,5,8,0:0:0:0:
207,139,129572,1,4,0:0:0:0:
207,139,129682,2,0,P|263:126|306:115,1,77.999997619629,4|6,0:2|0:0,0:0:0:0:
355,47,130123,2,0,P|402:74|482:59,1,116.999996429443,8|0,0:2|0:0,0:0:0:0:
462,69,130565,1,4,0:0:0:0:
393,126,130785,2,0,P|401:169|410:215,1,77.999997619629,6|8,0:0|0:2,0:0:0:0:
492,258,131226,6,0,B|451:232|409:258|409:258|390:291|349:292,1,155.999995239258,6|6,0:0|0:0,0:0:0:0:
275,229,131888,1,8,0:2:0:0:
178,273,132109,1,6,0:0:0:0:
178,273,132219,1,4,0:0:0:0:
178,273,132329,2,0,P|187:325|194:363,1,77.999997619629,4|6,0:0|0:0,0:0:0:0:
277,367,132771,2,0,P|299:303|283:243,1,116.999996429443,8|0,0:2|0:0,0:0:0:0:
275,229,133212,6,0,L|299:73,1,155.999995239258,4|8,0:0|0:2,0:0:0:0:
258,0,133873,1,6,0:0:0:0:
167,25,134094,2,0,P|177:66|182:114,1,77.999997619629,4|6,0:0|0:0,0:0:0:0:
153,186,134535,1,8,0:2:0:0:
74,151,134756,1,6,0:0:0:0:
74,151,134866,1,4,0:0:0:0:
74,151,134976,2,0,P|34:161|-4:176,1,77.999997619629,4|6,0:0|0:0,0:0:0:0:
0,270,135418,6,0,P|74:274|143:193,1,155.999995239258,8|4,0:2|0:0,0:0:0:0:
220,176,136079,2,0,P|258:185|302:202,1,77.999997619629,6|8,0:0|0:2,0:0:0:0:
384,160,136521,6,0,P|406:120|401:75,1,77.999997619629,2|4,0:2|0:2,0:0:0:0:
368,14,136962,1,6,0:0:0:0:
288,37,137182,1,8,0:2:0:0:
208,60,137403,1,2,0:0:0:0:
82,14,137623,5,4,0:0:0:0:
15,75,137844,2,0,P|24:121|31:162,1,77.999997619629,6|8,0:0|0:2,0:0:0:0:
3,244,138285,6,0,P|73:282|158:265,1,155.999995239258,6|6,0:2|0:0,0:0:0:0:
218,216,138947,1,8,0:2:0:0:
162,137,139168,1,2,0:0:0:0:
162,137,139278,1,0,0:0:0:0:
162,137,139388,2,0,P|151:84|142:44,1,77.999997619629,4|6,0:0|0:0,0:0:0:0:
288,16,139829,5,8,0:2:0:0:
349,88,140050,2,0,P|422:95|486:26,1,155.999995239258,6|2,0:2|0:0,0:0:0:0:
438,142,140712,2,0,P|452:193|474:296,1,155.999995239258,8|4,0:2|0:0,0:0:0:0:
386,369,141373,1,6,0:0:0:0:
352,269,141594,1,8,0:2:0:0:
258,327,141815,6,0,P|212:340|177:354,1,77.999997619629,6|4,0:0|0:2,0:0:0:0:
101,288,142256,2,0,P|91:240|112:196,1,77.999997619629,6|8,0:0|0:2,0:0:0:0:
50,123,142697,2,0,P|130:135|224:150,1,155.999995239258,6|6,0:0|0:0,0:0:0:0:
204,146,143248,1,0,0:0:0:0:
204,146,143359,1,12,0:2:0:0:
274,232,143579,1,10,0:0:0:0:
274,232,143690,1,8,0:0:0:0:
274,232,143800,2,0,P|261:270|252:312,1,77.999997619629,4|0,0:2|0:0,0:0:0:0:
373,384,144241,6,0,P|418:319|403:242,1,155.999995239258,8|4,0:2|0:0,0:0:0:0:
348,180,144903,1,6,0:0:0:0:
427,126,145123,2,0,P|478:134|515:146,1,77.999997619629,8|6,0:2|0:0,0:0:0:0:
427,3,145565,6,0,P|363:54|286:44,1,155.999995239258,0|8,0:0|0:2,0:0:0:0:
213,4,146226,1,2,0:0:0:0:
213,4,146337,1,0,0:0:0:0:
213,4,146447,2,0,L|192:86,1,77.999997619629,4|2,0:0|0:0,0:0:0:0:
262,154,146888,2,0,L|281:229,1,77.999997619629,8|2,0:2|0:0,0:0:0:0:
224,320,147329,6,0,B|170:310|170:310|136:347|63:337,1,155.999995239258,4|8,0:0|0:2,0:0:0:0:
0,268,147991,1,6,0:0:0:0:
0,268,148101,1,4,0:0:0:0:
0,268,148212,2,0,P|9:227|17:176,1,77.999997619629,4|6,0:0|0:0,0:0:0:0:
99,228,148653,2,0,L|223:197,1,116.999996429443,10|0,0:2|0:0,0:0:0:0:
223,213,149094,6,0,P|296:209|354:277,1,155.999995239258,4|8,0:0|0:2,0:0:0:0:
393,350,149756,1,6,0:0:0:0:
489,302,149976,2,0,L|515:165,1,116.999996429443,4|0,0:0|0:0,0:0:0:0:
497,173,150418,2,0,P|492:132|479:78,1,77.999997619629,8|6,0:2|0:0,0:0:0:0:
416,6,150859,6,0,P|357:54|271:36,1,155.999995239258,4|8,0:2|0:2,0:0:0:0:
220,123,151521,1,2,0:0:0:0:
284,215,151741,1,4,0:0:0:0:
222,295,151962,2,0,P|233:334|246:387,1,77.999997619629,6|8,0:0|0:2,0:0:0:0:
328,295,152403,1,6,0:0:0:0:
284,215,152623,6,0,P|215:252|118:231,1,155.999995239258,12|8,0:2|0:2,0:0:0:0:
74,183,153285,1,10,0:2:0:0:
74,183,153396,1,8,0:2:0:0:
74,183,153506,1,12,0:2:0:0:
126,93,153726,1,12,0:2:0:0:
75,5,153947,2,0,P|37:15|-9:27,1,77.999997619629,12|8,0:2|0:2,0:0:0:0:
126,93,154388,6,0,P|182:62|261:77,1,130,4|8,0:2|0:2,0:0:0:0:
335,18,155050,1,0,0:0:0:0:
335,18,155160,1,0,0:0:0:0:
335,18,155271,2,0,L|350:93,1,65,4|2,0:0|0:0,0:0:0:0:
310,157,155712,1,8,0:2:0:0:
365,219,155932,2,0,P|303:206|219:190,1,130,6|0,0:0|0:0,0:0:0:0:
140,180,156594,6,0,P|155:271|165:330,1,130,10|4,0:2|0:0,0:0:0:0:
104,384,157256,1,0,0:0:0:0:
24,384,157476,2,0,P|17:347|11:312,1,65,10|8,0:2|0:2,0:0:0:0:
12,319,157807,1,8,0:2:0:0:
12,319,157918,6,0,P|39:259|23:182,1,130,6|8,0:0|0:2,0:0:0:0:
114,145,158579,1,2,0:0:0:0:
168,227,158800,2,0,P|219:237|291:250,1,97.5,6|6,0:0|0:0,0:0:0:0:
263,245,159241,2,0,P|273:290|280:323,1,65,8|6,0:2|0:0,0:0:0:0:
367,377,159682,6,0,P|427:334|502:345,1,130,2|10,0:0|0:2,0:0:0:0:
428,256,160344,1,0,0:0:0:0:
428,256,160454,1,0,0:0:0:0:
428,256,160565,2,0,L|444:100,1,130,6|8,0:0|0:2,0:0:0:0:
376,64,161226,1,8,0:2:0:0:
376,64,161337,1,8,0:2:0:0:
376,64,161447,6,0,B|317:76|317:76|311:81|311:81|233:100,1,130,6|8,0:0|0:2,0:0:0:0:
164,68,162109,1,4,0:0:0:0:
180,156,162329,2,0,P|173:197|167:242,1,65,2|6,0:0|0:0,0:0:0:0:
223,305,162771,1,10,0:2:0:0:
139,351,162991,1,10,0:2:0:0:
139,351,163212,6,0,P|90:312|35:320,1,97.5,4|0,0:2|0:0,0:0:0:0:
46,320,163653,2,0,P|36:360|25:408,1,65,10|4,0:2|0:0,0:0:0:0:
0,235,164094,2,0,P|55:193|124:207,1,130,6|10,0:0|0:2,0:0:0:0:
203,278,164756,5,4,0:0:0:0:
203,278,164866,1,4,0:0:0:0:
203,278,164976,2,0,B|192:230|192:230|201:198|201:198|188:133,1,130,6|8,0:2|0:2,0:0:0:0:
247,69,165638,2,0,B|283:70|310:86|310:86|328:55|360:42,1,130,6|4,0:0|0:0,0:0:0:0:
415,109,166300,1,10,0:2:0:0:
488,45,166521,2,0,L|481:4,2,32.5,4|4|12,0:0|0:0|0:2,0:0:0:0:
423,117,166962,5,4,0:0:0:0:
423,117,167072,1,4,0:0:0:0:
423,117,167182,2,0,L|434:190,1,65,12|4,0:2|0:0,0:0:0:0:
435,206,167513,1,4,0:0:0:0:
435,206,167623,2,0,P|366:218|313:175,1,130,12|12,0:2|0:2,0:0:0:0:
250,131,168285,5,4,0:0:0:0:
250,131,168396,1,4,0:0:0:0:
250,131,168506,2,0,B|194:142|194:142|174:165|174:165|108:181,1,143.000004364014,4|8,0:2|0:2,0:0:0:0:
23,243,169168,1,4,0:0:0:0:
23,243,169278,1,0,0:0:0:0:
23,243,169388,2,0,P|77:263|94:316,1,107.25000327301,6|6,0:0|0:0,0:0:0:0:
94,306,169829,2,0,L|75:388,1,71.5000021820069,8|6,0:2|0:0,0:0:0:0:
176,344,170271,6,0,B|194:290|166:249|166:249|177:190,1,143.000004364014,6|8,0:0|0:2,0:0:0:0:
96,168,170932,1,0,0:0:0:0:
96,168,171043,1,0,0:0:0:0:
96,168,171153,2,0,L|42:183,2,35.7500010910034,4|0|6,0:0|0:0|0:0,0:0:0:0:
62,76,171594,1,10,0:2:0:0:
127,0,171815,6,0,P|175:32|263:16,1,143.000004364014,2|6,0:0|0:0,0:0:0:0:
321,86,172476,2,0,L|304:161,1,71.5000021820069,10|6,0:2|0:0,0:0:0:0:
197,213,172918,1,6,0:0:0:0:
257,273,173138,1,4,0:0:0:0:
218,350,173359,2,0,L|141:366,1,71.5000021820069,10|4,0:2|0:0,0:0:0:0:
257,273,173800,5,2,0:0:0:0:
340,327,174021,1,4,0:0:0:0:
340,327,174131,1,6,0:0:0:0:
340,327,174241,2,0,B|377:321|410:338|410:338|454:322|461:278,1,143.000004364014,10|4,0:2|0:0,0:0:0:0:
428,213,174903,1,0,0:0:0:0:
476,141,175123,1,8,0:2:0:0:
455,57,175344,1,4,0:0:0:0:
377,0,175565,6,0,P|333:29|268:24,1,107.25000327301,6|6,0:2|0:0,0:0:0:0:
270,24,176006,1,8,0:2:0:0:
228,112,176226,1,2,0:0:0:0:
228,112,176337,1,0,0:0:0:0:
228,112,176447,2,0,L|251:218,1,107.25000327301,6|6,0:0|0:0,0:0:0:0:
246,229,176888,1,8,0:2:0:0:
314,306,177109,5,10,0:2:0:0:
314,306,177219,1,8,0:2:0:0:
314,306,177329,2,0,P|266:315|241:344,1,71.5000021820069,6|4,0:2|0:0,0:0:0:0:
165,384,177771,2,0,L|93:368,1,71.5000021820069,10|4,0:2|0:0,0:0:0:0:
87,368,178101,1,0,0:0:0:0:
78,366,178212,2,0,L|26:380,2,35.7500010910034,6|0|4,0:0|0:0|0:0,0:0:0:0:
128,283,178653,2,0,P|143:230|135:192,1,71.5000021820069,8|8,0:2|0:2,0:0:0:0:
29,158,179094,6,0,B|9:81|9:81|13:45|49:24,1,143.000004364014,4|10,0:2|0:2,0:0:0:0:
112,79,179756,1,4,0:0:0:0:
174,18,179976,2,0,L|254:30,1,71.5000021820069,14|8,0:2|0:0,0:0:0:0:
244,28,180307,1,4,0:0:0:0:
244,28,180418,1,14,0:2:0:0:
333,3,180638,1,8,0:0:0:0:
346,90,180859,6,0,P|334:145|321:213,1,107.25000327301,6|6,0:2|0:0,0:0:0:0:
324,195,181300,1,8,0:2:0:0:
235,182,181521,1,6,0:0:0:0:
176,263,181741,2,0,L|136:272,2,35.7500010910034,14|8|8,0:2|0:0|0:0,0:0:0:0:
235,333,182182,2,0,P|278:340|320:352,1,71.5000021820069,8|6,0:2|0:0,0:0:0:0:
389,381,182623,6,0,P|440:379|486:290,1,143.000004364014,12|8,0:2|0:2,0:0:0:0:
423,246,183285,1,4,0:0:0:0:
466,165,183506,1,8,0:2:0:0:
468,155,183616,1,8,0:2:0:0:
473,147,183726,1,8,0:0:0:0:
479,140,183837,1,8,0:0:0:0:
488,130,183947,2,0,L|480:95,3,35.7500010910034,4|4|0|0,0:0|0:0|0:0|0:0,0:0:0:0:
479,84,184388,5,12,0:2:0:0:
256,192,184498,12,4,186153,2:0:0:0:
344,76,197403,5,4,0:0:0:0:
344,76,197513,1,4,0:0:0:0:
344,76,197623,2,0,B|304:104|304:104|246:92,2,97.5,8|8|4,0:2|0:0|0:0,0:0:0:0:
448,96,198506,6,0,L|470:-15,2,97.5,8|4|0,0:0|0:0|0:0,0:0:0:0:
386,161,199388,1,4,0:0:0:0:
374,248,199609,1,0,0:0:0:0:
420,320,199829,1,8,0:2:0:0:
403,340,199939,1,8,0:2:0:0:
386,350,200049,1,8,0:2:0:0:
358,356,200159,1,8,0:2:0:0:
335,353,200271,6,0,P|291:364|240:377,1,77.999997619629,4|0,0:2|0:0,0:0:0:0:
202,301,200712,2,0,P|146:314|86:274,1,116.999996429443,8|0,0:2|0:0,0:0:0:0:
91,281,201153,1,4,0:0:0:0:
144,149,201373,2,0,P|153:196|156:240,1,77.999997619629,2|8,0:0|0:2,0:0:0:0:
214,290,201815,6,0,B|243:269|281:269|281:269|316:303|380:285,1,155.999995239258,6|6,0:0|0:0,0:0:0:0:
438,239,202476,1,8,0:2:0:0:
509,309,202697,1,6,0:0:0:0:
509,309,202807,1,4,0:0:0:0:
509,309,202918,2,0,P|496:354|489:388,2,77.999997619629,4|6|8,0:0|0:0|0:2,0:0:0:0:
438,239,203579,1,2,0:0:0:0:
502,138,203800,6,0,P|439:187|363:173,1,155.999995239258,4|8,0:0|0:2,0:0:0:0:
262,77,204462,1,6,0:0:0:0:
193,138,204682,2,0,P|202:180|213:229,1,77.999997619629,4|6,0:0|0:0,0:0:0:0:
283,256,205123,1,8,0:2:0:0:
218,338,205344,6,0,B|163:329|163:329|123:343|123:343|46:333,1,155.999995239258,2|2,0:0|0:0,0:0:0:0:
1,273,206006,1,8,0:2:0:0:
32,192,206226,1,2,0:0:0:0:
32,192,206337,1,0,0:0:0:0:
32,192,206447,2,0,P|24:147|13:108,1,77.999997619629,4|6,0:0|0:0,0:0:0:0:
53,40,206888,1,8,0:2:0:0:
138,84,207109,6,0,P|176:77|216:67,1,77.999997619629,2|4,0:2|0:2,0:0:0:0:
272,160,207550,1,6,0:0:0:0:
247,243,207771,1,8,0:2:0:0:
186,179,207991,1,4,0:0:0:0:
332,223,208212,2,0,P|373:213|412:204,1,77.999997619629,4|6,0:0|0:0,0:0:0:0:
472,258,208653,1,8,0:2:0:0:
500,172,208873,6,0,P|528:100|499:5,1,155.999995239258,6|6,0:2|0:0,0:0:0:0:
430,6,209535,1,8,0:2:0:0:
372,82,209756,1,2,0:0:0:0:
372,82,209866,1,0,0:0:0:0:
372,82,209976,2,0,P|321:93|281:101,1,77.999997619629,4|6,0:0|0:0,0:0:0:0:
232,46,210418,1,8,0:2:0:0:
203,149,210638,6,0,B|182:201|203:246|203:246|189:304,1,155.999995239258,6|6,0:2|0:0,0:0:0:0:
232,382,211300,1,8,0:2:0:0:
335,344,211521,1,2,0:0:0:0:
335,344,211631,1,0,0:0:0:0:
335,344,211741,2,0,L|455:318,1,116.999996429443,4|0,0:0|0:0,0:0:0:0:
456,324,212182,2,0,P|473:285|466:240,1,77.999997619629,8|6,0:2|0:0,0:0:0:0:
395,185,212623,5,4,0:2:0:0:
318,234,212844,2,0,L|277:226,2,38.9999988098145,6|0|8,0:0|0:0|0:2,0:0:0:0:
395,185,213285,2,0,P|403:140|413:93,1,77.999997619629,6|12,0:0|0:2,0:0:0:0:
400,0,213726,1,6,0:0:0:0:
318,39,213946,1,8,0:2:0:0:
299,45,214056,1,8,0:2:0:0:
280,48,214167,1,8,0:2:0:0:
261,48,214277,1,8,0:2:0:0:
242,45,214388,6,0,L|225:135,1,77.999997619629,4|2,0:2|0:0,0:0:0:0:
308,186,214829,2,0,P|332:234|323:310,1,116.999996429443,8|0,0:2|0:0,0:0:0:0:
328,295,215271,1,4,0:0:0:0:
264,366,215491,2,0,P|223:358|183:352,1,77.999997619629,6|8,0:0|0:2,0:0:0:0:
97,384,215932,6,0,P|74:327|77:253,1,116.999996429443,6|0,0:0|0:0,0:0:0:0:
77,254,216373,2,0,L|-3:269,1,77.999997619629,6|8,0:0|0:2,0:0:0:0:
136,165,216815,2,0,P|195:209|290:179,1,155.999995239258,6|6,0:0|0:0,0:0:0:0:
334,255,217476,1,8,0:2:0:0:
422,220,217697,1,6,0:0:0:0:
352,164,217918,6,0,P|367:86|380:0,1,155.999995239258,4|8,0:0|0:2,0:0:0:0:
288,60,218579,1,6,0:0:0:0:
212,16,218800,2,0,B|162:29|162:29|117:16|117:16|49:31,1,155.999995239258,4|8,0:0|0:2,0:0:0:0:
25,118,219462,5,6,0:0:0:0:
25,118,219572,1,0,0:0:0:0:
25,118,219682,2,0,L|6:203,1,77.999997619629,0|6,0:0|0:0,0:0:0:0:
51,276,220123,2,0,B|78:238|120:234|120:234|154:259|202:245,1,155.999995239258,8|4,0:2|0:0,0:0:0:0:
255,193,220785,2,0,L|269:103,1,77.999997619629,6|8,0:0|0:2,0:0:0:0:
180,98,221226,2,0,P|173:58|162:14,1,77.999997619629,2|4,0:2|0:2,0:0:0:0:
277,0,221668,5,6,0:0:0:0:
345,60,221888,1,8,0:2:0:0:
432,27,222109,1,2,0:0:0:0:
512,75,222329,2,0,P|501:115|492:160,1,77.999997619629,4|6,0:0|0:0,0:0:0:0:
403,187,222771,1,8,0:2:0:0:
512,260,222991,6,0,P|446:253|381:313,1,155.999995239258,6|6,0:2|0:0,0:0:0:0:
308,371,223653,1,8,0:2:0:0:
236,295,223873,1,2,0:0:0:0:
236,295,223984,1,0,0:0:0:0:
236,295,224094,2,0,L|252:192,1,77.999997619629,4|6,0:0|0:0,0:0:0:0:
219,141,224535,1,8,0:2:0:0:
276,50,224756,6,0,P|213:100|129:88,1,155.999995239258,6|6,0:2|0:0,0:0:0:0:
73,28,225418,2,0,L|44:159,1,116.999996429443,8|0,0:2|0:0,0:0:0:0:
47,142,225859,1,4,0:0:0:0:
0,216,226079,1,2,0:0:0:0:
24,296,226300,1,8,0:2:0:0:
112,364,226521,6,0,L|138:241,1,116.999996429443,6|0,0:2|0:0,0:0:0:0:
136,249,226962,2,0,P|174:242|216:227,1,77.999997619629,6|8,0:0|0:2,0:0:0:0:
237,142,227403,2,0,P|198:135|162:123,1,77.999997619629,6|8,0:2|0:2,0:0:0:0:
131,22,227844,1,6,0:0:0:0:
30,49,228065,1,8,0:2:0:0:
25,62,228175,1,8,0:0:0:0:
21,74,228285,1,8,0:0:0:0:
16,84,228396,1,4,0:0:0:0:
13,95,228506,6,0,B|32:180|-22:153|9:266,1,155.999995239258,4|8,0:2|0:2,0:0:0:0:
56,318,229168,1,2,0:0:0:0:
136,273,229388,2,0,P|181:261|221:252,1,77.999997619629,4|6,0:0|0:0,0:0:0:0:
275,172,229829,2,0,P|230:160|190:151,1,77.999997619629,8|6,0:2|0:0,0:0:0:0:
130,65,230271,6,0,P|194:17|276:33,1,155.999995239258,0|8,0:0|0:2,0:0:0:0:
331,83,230932,1,2,0:0:0:0:
437,6,231153,2,0,P|424:50|418:90,1,77.999997619629,4|6,0:0|0:0,0:0:0:0:
488,204,231594,2,0,P|501:160|507:120,1,77.999997619629,8|2,0:2|0:0,0:0:0:0:
506,128,231925,1,0,0:0:0:0:
506,128,232035,6,0,B|462:113|420:143|452:152|413:181|356:169,1,155.999995239258,4|8,0:0|0:2,0:0:0:0:
285,240,232697,2,0,P|235:175|255:103,1,155.999995239258,6|6,0:0|0:0,0:0:0:0:
188,39,233359,2,0,P|149:54|94:65,1,77.999997619629,8|10,0:2|0:2,0:0:0:0:
31,0,233800,6,0,L|12:168,1,155.999995239258,4|8,0:0|0:2,0:0:0:0:
104,208,234462,1,6,0:0:0:0:
64,284,234682,2,0,L|80:364,1,77.999997619629,8|4,0:2|0:3,0:0:0:0:
184,376,235123,1,8,0:2:0:0:
243,294,235344,5,6,0:0:0:0:
243,294,235454,1,4,0:0:0:0:
243,294,235565,2,0,P|254:258|259:207,1,77.999997619629,4|2,0:2|0:0,0:0:0:0:
168,156,236006,2,0,P|165:101|146:37,1,116.999996429443,8|0,0:2|0:0,0:0:0:0:
148,41,236447,1,4,0:0:0:0:
256,64,236668,2,0,P|295:55|334:47,1,77.999997619629,6|8,0:0|0:2,0:0:0:0:
390,119,237109,1,6,0:0:0:0:
481,79,237329,6,0,P|427:115|428:199,1,155.999995239258,4|8,0:2|0:2,0:0:0:0:
483,295,237991,1,4,0:0:0:0:
410,384,238212,1,12,0:2:0:0:
300,336,238432,1,12,0:2:0:0:
315,227,238653,1,12,0:2:0:0:
428,199,238873,1,12,0:2:0:0:
315,227,239094,6,0,L|196:213,1,104,6|0,2:0|2:0,2:0:0:0:
66,355,239976,2,0,P|121:380|173:369,1,104,2|2,2:0|2:0,2:0:0:0:
162,373,240638,1,0,2:0:0:0:
228,318,240859,6,0,L|206:206,2,104,2|0|2,2:0|2:0|2:0,2:0:0:0:
364,384,242182,2,0,L|376:327,1,52,2|0,2:0|2:0,2:0:0:0:
413,257,242623,6,0,P|487:278|526:265,2,104,2|0|2,2:0|2:0|2:0,2:0:0:0:
259,206,243947,2,0,L|200:217,1,52,2|0,2:2|2:2,2:2:0:0:
133,169,244388,6,0,L|146:108,1,52,2|0,2:0|2:0,2:0:0:0:
82,17,244829,2,0,L|71:67,1,52,0|0,2:0|2:0,2:0:0:0:
143,118,245271,2,0,P|189:91|252:97,1,104,2|2,2:0|2:0,2:0:0:0:
311,50,245932,1,0,2:0:0:0:
348,142,246153,6,0,L|456:163,2,104,2|0|2,2:0|2:0|2:0,2:0:0:0:
270,231,247476,2,0,L|283:293,1,52,2|0,2:0|2:0,2:0:0:0:
217,382,247918,6,0,P|189:332|196:271,1,104,2|0,2:0|2:0,2:0:0:0:
190,286,248579,1,0,2:0:0:0:
102,257,248800,2,0,L|48:269,1,52,2|0,2:0|2:0,2:0:0:0:
12,192,249241,2,0,L|66:180,1,52,2|0,2:0|2:0,2:0:0:0:
135,131,249682,6,0,P|176:160|248:148,1,104,2|0,2:0|2:0,2:0:0:0:
303,115,250344,1,0,2:0:0:0:
358,188,250565,2,0,L|345:246,1,52,2|0,2:0|2:0,2:0:0:0:
263,267,251006,2,0,L|276:325,1,52,2|0,2:0|2:0,2:0:0:0:
336,384,251447,1,2,2:0:0:0:
