osu file format v14

[General]
AudioFilename: audio.mp3
AudioLeadIn: 0
PreviewTime: 29646
Countdown: 0
SampleSet: Drum
StackLeniency: 0.5
Mode: 0
LetterboxInBreaks: 0
WidescreenStoryboard: 0

[Editor]
DistanceSpacing: 1.5
BeatDivisor: 4
GridSize: 4
TimelineZoom: 1.6

[Metadata]
Title:Indigo Star
TitleUnicode:Indigo Star
Artist:Sasaki Shiori
ArtistUnicode:佐々木詩織
Creator:No Dap
Version:Insane
Source:Making*Lovers
Tags:メイキング・ラバーズ Visual novel ending japanese anime video game momoka moeka shioi shikibe mayu Shizuku- Kazato Asa pop jpop New-USERNAME [KING]InSsa wwoosshh
BeatmapID:3204618
BeatmapSetID:1569293

[Difficulty]
HPDrainRate:6
CircleSize:4
OverallDifficulty:8
ApproachRate:8.2
SliderMultiplier:1.4
SliderTickRate:1

[Events]
//Background and Video events
0,0,"bg.jpg",0,0
//Break Periods
2,69882,74668
2,186353,196683
//Storyboard Layer 0 (Background)
//Storyboard Layer 1 (Fail)
//Storyboard Layer 2 (Pass)
//Storyboard Layer 3 (Foreground)
//Storyboard Layer 4 (Overlay)
//Storyboard Sound Samples

[TimingPoints]
2624,441.176470588235,4,2,1,60,1,0
15969,-100,4,2,1,50,0,0
16741,-90.9090909090909,4,3,1,50,0,0
25344,-90.9090909090909,4,3,1,70,0,0
25454,-90.9090909090909,4,3,1,50,0,0
27109,-90.9090909090909,4,3,1,70,0,0
27219,-90.9090909090909,4,3,1,50,0,0
28873,-90.9090909090909,4,3,1,50,0,0
28984,-90.9090909090909,4,3,1,50,0,0
29756,-90.9090909090909,4,3,1,70,0,0
30197,-90.9090909090909,4,3,1,60,0,0
30859,-83.3333333333333,4,3,1,90,0,1
30969,-83.3333333333333,4,3,1,70,0,1
37697,-83.3333333333333,4,3,1,90,0,1
37807,-83.3333333333333,4,3,1,70,0,1
39462,-83.3333333333333,4,3,1,90,0,1
39572,-83.3333333333333,4,3,1,70,0,1
41226,-83.3333333333333,4,3,1,90,0,1
41337,-83.3333333333333,4,3,1,70,0,1
44976,-83.3333333333333,4,3,1,90,0,1
45087,-83.3333333333333,4,3,1,70,0,1
51815,-83.3333333333333,4,3,1,90,0,1
51925,-83.3333333333333,4,3,1,70,0,1
53579,-83.3333333333333,4,3,1,90,0,1
53690,-83.3333333333333,4,3,1,70,0,1
55344,-83.3333333333333,4,3,1,90,0,1
55454,-83.3333333333333,4,3,1,70,0,1
57109,-83.3333333333333,4,3,1,90,0,1
57219,-83.3333333333333,4,3,1,70,0,1
59094,-83.3333333333333,4,3,1,90,0,1
59204,-83.3333333333333,4,3,1,70,0,1
66153,-83.3333333333333,4,3,1,90,0,1
66263,-83.3333333333333,4,3,1,70,0,1
67918,-83.3333333333333,4,3,1,90,0,1
68028,-83.3333333333333,4,3,1,70,0,1
68800,-83.3333333333333,4,3,1,90,0,1
69682,-125,4,3,1,60,0,0
76300,-66.6666666666667,4,3,1,60,0,0
76741,-90.9090909090909,4,3,1,70,0,0
94829,-90.9090909090909,4,3,1,40,0,0
95050,-90.9090909090909,4,3,1,50,0,0
95271,-90.9090909090909,4,3,1,60,0,0
95491,-90.9090909090909,4,3,1,70,0,0
95712,-90.9090909090909,4,3,1,80,0,0
95932,-90.9090909090909,4,3,1,90,0,0
96153,-90.9090909090909,4,3,1,80,0,0
96815,-40,4,3,1,80,0,0
96925,-40,4,3,1,5,0,0
97256,-90.9090909090909,4,3,1,60,0,0
114682,-200,4,3,1,50,0,0
115013,-200,4,3,1,5,0,0
115123,-66.6666666666667,4,3,1,50,0,0
115454,-66.6666666666667,4,3,1,5,0,0
115565,-83.3333333333333,4,3,1,90,0,1
115675,-83.3333333333333,4,3,1,70,0,1
122403,-83.3333333333333,4,3,1,90,0,1
122513,-83.3333333333333,4,3,1,70,0,1
124168,-83.3333333333333,4,3,1,90,0,1
124278,-83.3333333333333,4,3,1,70,0,1
125932,-83.3333333333333,4,3,1,90,0,1
126043,-83.3333333333333,4,3,1,70,0,1
129682,-83.3333333333333,4,3,1,90,0,1
129793,-83.3333333333333,4,3,1,70,0,1
136521,-83.3333333333333,4,3,1,90,0,1
136631,-83.3333333333333,4,3,1,70,0,1
138285,-83.3333333333333,4,3,1,90,0,1
138396,-83.3333333333333,4,3,1,70,0,1
140050,-83.3333333333333,4,3,1,90,0,1
140160,-83.3333333333333,4,3,1,70,0,1
142035,-83.3333333333333,4,3,1,90,0,1
142146,-83.3333333333333,4,3,1,70,0,1
142918,-83.3333333333333,4,3,1,90,0,1
143028,-83.3333333333333,4,3,1,70,0,1
143359,-83.3333333333333,4,3,1,90,0,1
143469,-83.3333333333333,4,3,1,70,0,1
143800,-83.3333333333333,4,3,1,90,0,1
143910,-83.3333333333333,4,3,1,70,0,1
150859,-83.3333333333333,4,3,1,90,0,1
150969,-83.3333333333333,4,3,1,70,0,1
152623,-83.3333333333333,4,3,1,90,0,1
152734,-83.3333333333333,4,3,1,70,0,1
153506,-83.3333333333333,4,3,1,90,0,1
154278,-83.3333333333333,4,3,1,70,0,1
154388,-100,4,3,1,50,0,0
168506,-90.9090909090909,4,3,1,60,0,0
197403,-90.9090909090909,4,3,1,50,0,0
199388,-66.6666666666667,4,3,1,50,0,0
199719,-90.9090909090909,4,3,1,5,0,0
199829,-90.9090909090909,4,3,1,60,0,0
200271,-83.3333333333333,4,3,1,90,0,1
200381,-83.3333333333333,4,3,1,70,0,1
207109,-83.3333333333333,4,3,1,90,0,1
207219,-83.3333333333333,4,3,1,70,0,1
208873,-83.3333333333333,4,3,1,90,0,1
208984,-83.3333333333333,4,3,1,70,0,1
210638,-83.3333333333333,4,3,1,90,0,1
210748,-83.3333333333333,4,3,1,70,0,1
212623,-83.3333333333333,4,3,1,90,0,1
212734,-83.3333333333333,4,3,1,70,0,1
214388,-83.3333333333333,4,3,1,90,0,1
214498,-83.3333333333333,4,3,1,70,0,1
221226,-83.3333333333333,4,3,1,90,0,1
221337,-83.3333333333333,4,3,1,70,0,1
222991,-83.3333333333333,4,3,1,90,0,1
223101,-83.3333333333333,4,3,1,70,0,1
224756,-83.3333333333333,4,3,1,90,0,1
224866,-83.3333333333333,4,3,1,70,0,1
226521,-83.3333333333333,4,3,1,90,0,1
226631,-83.3333333333333,4,3,1,70,0,1
227403,-83.3333333333333,4,3,1,90,0,1
227513,-83.3333333333333,4,3,1,70,0,1
228506,-83.3333333333333,4,3,1,90,0,1
228616,-83.3333333333333,4,3,1,70,0,1
235565,-83.3333333333333,4,3,1,90,0,1
235675,-83.3333333333333,4,3,1,70,0,1
237329,-83.3333333333333,4,3,1,90,0,1
237440,-83.3333333333333,4,3,1,70,0,1
238212,-83.3333333333333,4,3,1,90,0,1
239094,-125,4,2,1,50,0,0

[Colours]
Combo1 : 255,128,64
Combo2 : 0,191,244
Combo3 : 128,255,128
Combo4 : 223,223,0

[HitObjects]
107,184,2623,6,0,L|266:164,1,140
315,103,3285,1,2,0:0:0:0:
376,174,3506,2,0,P|405:119|378:38,1,140,2|0,0:0|0:0,0:0:0:0:
245,166,4168,2,0,L|263:314,1,140,2|0,0:0|0:0,0:0:0:0:
341,316,4829,1,2,0:0:0:0:
175,265,5050,2,0,L|163:349,1,70,2|0,0:0|0:0,0:0:0:0:
77,276,5491,2,0,L|86:206,1,70,2|0,0:0|0:0,0:0:0:0:
133,100,5932,1,2,0:0:0:0:
190,171,6153,6,0,P|254:194|318:169,1,140,2|2,0:0|0:0,0:0:0:0:
454,145,6815,2,0,L|444:214,1,70,2|0,0:0|0:0,0:0:0:0:
374,100,7256,2,0,L|364:30,1,70,2|0,0:0|0:0,0:0:0:0:
340,200,7697,1,2,0:0:0:0:
340,200,7918,2,0,L|326:339,1,140,2|2,0:0|0:0,0:0:0:0:
164,258,8579,2,0,P|195:242|228:232,1,70,2|0,0:0|0:0,0:0:0:0:
115,347,9021,2,0,P|72:294|73:221,1,140,2|0,0:0|0:0,0:0:0:0:
189,120,9682,6,0,P|172:188|163:257,1,140,2|0,0:0|0:0,0:0:0:0:
236,334,10344,1,2,0:0:0:0:
312,270,10565,2,0,P|362:317|431:319,1,140,2|2,0:0|0:0,0:0:0:0:
481,154,11226,2,0,P|416:173|393:237,1,140,2|0,0:0|0:0,0:0:0:0:
480,239,11888,1,2,0:0:0:0:
313,175,12109,2,0,P|322:244|324:319,2,140,2|2|2,0:0|0:0|0:0,0:0:0:0:
275,19,13212,6,0,P|228:68|233:136,1,140,2|2,0:0|0:0,0:0:0:0:
313,176,13873,2,0,L|399:160,1,70,2|0,0:0|0:0,0:0:0:0:
242,310,14315,2,0,L|228:242,1,70,2|0,0:0|0:0,0:0:0:0:
234,138,14756,1,2,0:0:0:0:
138,247,14976,5,2,2:0:0:0:
138,247,15197,1,2,2:0:0:0:
327,351,15418,6,0,L|342:211,1,140,2|2,2:0|2:0,2:0:0:0:
281,99,16006,1,8,2:0:0:0:
281,99,16079,2,0,L|360:89,2,70,8|8|8,2:0|2:0|2:0,2:0:0:0:
106,55,16741,6,0,P|172:111|166:192,1,154.000004699707,4|8,0:2|0:2,0:0:0:0:
83,144,17403,1,4,0:0:0:0:
113,310,17623,2,0,L|121:233,1,77.0000023498536,0|4,0:0|0:0,0:0:0:0:
83,144,18065,1,8,0:2:0:0:
214,255,18285,2,0,P|258:190|241:116,1,154.000004699707,4|4,0:0|0:0,0:0:0:0:
168,172,18947,1,8,0:2:0:0:
328,230,19168,2,0,L|322:313,1,77.0000023498536,4|0,0:0|0:0,0:0:0:0:
470,158,19609,2,0,L|393:164,1,77.0000023498536,4|8,0:0|0:2,0:0:0:0:
401,67,20050,1,4,0:0:0:0:
313,145,20271,6,0,P|272:82|299:12,1,154.000004699707,4|8,0:0|0:2,0:0:0:0:
313,145,20932,2,0,L|214:162,1,77.0000023498536,4|0,0:0|0:0,0:0:0:0:
112,242,21373,2,0,L|95:319,1,77.0000023498536,4|8,0:0|0:2,0:0:0:0:
153,161,21815,2,0,P|137:86|119:9,1,154.000004699707,4|4,0:0|0:0,0:0:0:0:
220,68,22476,1,10,0:2:0:0:
63,134,22697,2,0,L|52:215,1,77.0000023498536,2|4,0:0|0:0,0:0:0:0:
187,267,23138,2,0,L|176:190,1,77.0000023498536,6|10,0:0|0:2,0:0:0:0:
63,298,23579,1,0,0:0:0:0:
228,341,23800,5,6,0:0:0:0:
153,161,24021,1,4,0:0:0:0:
305,168,24241,1,8,0:2:0:0:
157,286,24462,1,4,0:0:0:0:
374,244,24682,1,4,0:0:0:0:
302,349,24903,1,4,0:0:0:0:
216,211,25123,1,8,0:2:0:0:
340,35,25344,6,0,P|326:110|315:187,1,154.000004699707,6|4,0:2|0:0,0:0:0:0:
389,316,26006,1,8,0:2:0:0:
239,102,26226,1,4,0:0:0:0:
239,102,26337,1,4,0:0:0:0:
239,102,26447,1,8,0:2:0:0:
191,317,26668,1,4,0:0:0:0:
370,197,26888,1,8,0:2:0:0:
127,55,27109,6,0,P|64:95|58:169,1,154.000004699707,4|4,0:2|0:0,0:0:0:0:
273,48,27771,1,8,0:2:0:0:
170,166,27991,1,4,0:0:0:0:
170,166,28101,1,4,0:0:0:0:
170,166,28212,1,8,0:2:0:0:
313,146,28432,1,4,0:0:0:0:
224,335,28653,1,8,0:2:0:0:
35,239,28873,6,0,P|92:229|148:204,1,115.50000352478,4|4,0:2|0:0,0:0:0:0:
170,166,29315,1,8,0:2:0:0:
101,345,29535,1,8,0:2:0:0:
270,249,29756,6,0,L|264:213,4,19.2500005874634,2|2|2|2|2,2:0|2:0|2:0|2:0|2:0,2:0:0:0:
382,336,30197,1,8,0:2:0:0:
407,337,30307,1,8,0:2:0:0:
431,329,30417,1,8,0:0:0:0:
452,314,30527,1,8,0:0:0:0:
466,293,30638,1,4,0:0:0:0:
473,268,30748,1,4,0:0:0:0:
471,243,30859,6,0,L|354:222,1,83.9999974365235,4|2,0:2|0:0,0:0:0:0:
296,127,31300,2,0,L|310:44,1,83.9999974365235,8|2,0:2|0:0,0:0:0:0:
207,255,31741,2,0,L|221:337,1,83.9999974365235,4|6,0:0|0:0,0:0:0:0:
350,253,32182,1,8,0:2:0:0:
102,139,32403,6,0,L|63:213,1,83.9999974365235,6|0,0:0|0:0,0:0:0:0:
259,113,32844,2,0,L|213:42,1,83.9999974365235,6|8,0:0|0:2,0:0:0:0:
207,255,33285,2,0,L|290:250,1,83.9999974365235,6|0,0:0|0:0,0:0:0:0:
102,139,33726,2,0,L|18:143,1,83.9999974365235,6|8,0:0|0:2,0:0:0:0:
243,30,34168,1,2,0:0:0:0:
243,30,34388,6,0,P|301:66|292:177,1,167.999994873047,4|8,0:0|0:2,0:0:0:0:
397,52,35050,1,6,0:0:0:0:
223,120,35271,2,0,L|140:108,1,83.9999974365235,0|6,0:0|0:0,0:0:0:0:
308,65,35712,1,8,0:2:0:0:
381,150,35932,6,0,L|393:233,1,83.9999974365235,2|4,0:0|0:0,0:0:0:0:
194,320,36373,1,2,0:0:0:0:
297,207,36594,2,0,L|282:312,1,83.9999974365235,8|2,0:2|0:0,0:0:0:0:
67,202,37035,2,0,L|151:191,1,83.9999974365235,4|6,0:0|0:0,0:0:0:0:
239,127,37476,1,8,0:2:0:0:
333,290,37697,6,0,P|387:230|366:152,1,167.999994873047,6|6,0:2|0:0,0:0:0:0:
190,59,38359,1,8,0:2:0:0:
288,197,38579,1,2,0:0:0:0:
135,138,38800,1,4,0:0:0:0:
326,75,39021,1,6,0:0:0:0:
211,279,39241,1,8,0:2:0:0:
376,174,39462,6,0,P|430:234|421:315,1,167.999994873047,6|6,0:2|0:0,0:0:0:0:
196,363,40123,1,8,0:2:0:0:
341,263,40344,1,2,0:0:0:0:
180,128,40565,1,4,0:0:0:0:
264,296,40785,1,6,0:0:0:0:
312,107,41006,1,8,0:2:0:0:
136,245,41226,1,6,0:2:0:0:
18,133,41447,6,0,L|99:153,1,83.9999974365235,4|2,0:0|0:0,0:0:0:0:
182,28,41888,2,0,L|100:47,1,83.9999974365235,8|2,0:2|0:0,0:0:0:0:
136,245,42329,1,4,0:0:0:0:
197,130,42550,1,10,0:2:0:0:
197,130,42660,1,8,0:2:0:0:
197,130,42771,2,0,L|278:149,1,83.9999974365235,8|6,0:2|0:0,0:0:0:0:
355,344,43212,5,4,0:0:0:0:
431,220,43432,1,10,0:2:0:0:
431,220,43543,1,8,0:2:0:0:
431,220,43653,1,8,0:2:0:0:
267,281,43873,1,6,0:0:0:0:
302,53,44094,1,8,0:2:0:0:
309,83,44204,1,8,0:2:0:0:
316,114,44314,1,8,0:2:0:0:
323,145,44424,1,8,0:2:0:0:
330,175,44535,2,0,L|319:233,3,41.9999987182618,8|8|4|4,0:0|0:0|0:0|0:0,0:0:0:0:
182,325,44976,6,0,L|160:243,1,83.9999974365235,4|2,0:2|0:0,0:0:0:0:
42,157,45418,2,0,P|63:153|128:126,1,83.9999974365235,8|2,0:2|0:0,0:0:0:0:
246,43,45859,1,4,0:0:0:0:
218,179,46079,1,6,0:0:0:0:
137,64,46300,1,8,0:2:0:0:
318,102,46521,6,0,P|332:62|335:20,1,83.9999974365235,6|0,0:0|0:0,0:0:0:0:
218,179,46962,2,0,P|203:218|200:260,1,83.9999974365235,6|8,0:0|0:2,0:0:0:0:
140,99,47403,2,0,P|100:84|58:81,1,83.9999974365235,6|0,0:0|0:0,0:0:0:0:
269,37,47844,2,0,P|310:33|350:19,1,83.9999974365235,6|8,0:0|0:2,0:0:0:0:
237,189,48285,1,2,0:0:0:0:
357,105,48506,6,0,P|420:153|408:232,1,167.999994873047,4|8,0:0|0:2,0:0:0:0:
313,332,49168,1,6,0:0:0:0:
313,332,49278,1,4,0:0:0:0:
313,332,49388,2,0,L|300:223,1,83.9999974365235,4|6,0:0|0:0,0:0:0:0:
406,340,49829,1,8,0:2:0:0:
146,301,50050,6,0,L|238:287,1,83.9999974365235,6|0,0:0|0:0,0:0:0:0:
450,206,50491,2,0,L|366:193,1,83.9999974365235,6|8,0:0|0:2,0:0:0:0:
291,75,50932,1,2,0:0:0:0:
187,207,51153,2,0,L|204:115,1,83.9999974365235,4|6,0:0|0:0,0:0:0:0:
291,75,51594,1,8,0:2:0:0:
129,57,51815,5,6,0:2:0:0:
275,219,52035,1,4,0:0:0:0:
202,124,52256,1,6,0:0:0:0:
99,231,52476,1,8,0:2:0:0:
194,325,52697,1,2,0:0:0:0:
92,130,52917,1,4,0:0:0:0:
270,173,53138,1,6,0:0:0:0:
48,295,53359,1,8,0:2:0:0:
288,341,53579,6,0,L|270:173,1,167.999994873047,6|6,0:2|0:0,0:0:0:0:
179,122,54241,1,8,0:2:0:0:
372,145,54462,1,2,0:0:0:0:
179,122,54682,1,4,0:0:0:0:
237,13,54903,1,6,0:0:0:0:
274,232,55123,1,8,0:2:0:0:
438,77,55344,1,6,0:2:0:0:
372,237,55565,6,0,L|381:321,1,83.9999974365235,4|6,0:0|0:0,0:0:0:0:
150,269,56006,2,0,L|142:186,1,83.9999974365235,8|2,0:2|0:0,0:0:0:0:
255,344,56447,1,4,0:0:0:0:
228,233,56668,1,6,0:0:0:0:
61,323,56888,1,8,0:2:0:0:
228,232,57109,6,0,P|240:192|244:151,1,83.9999974365235,6|4,0:2|0:0,0:0:0:0:
110,41,57550,2,0,P|114:82|126:122,1,83.9999974365235,6|8,0:0|0:2,0:0:0:0:
136,243,57991,2,0,P|95:231|54:224,1,83.9999974365235,10|8,0:0|0:2,0:0:0:0:
204,338,58432,1,6,0:0:0:0:
204,338,58542,1,4,0:0:0:0:
204,338,58652,1,8,0:2:0:0:
331,168,58873,1,10,0:0:0:0:
331,168,58984,1,8,0:0:0:0:
331,168,59094,6,0,P|316:254|307:338,1,167.999994873047,4|8,0:2|0:2,0:0:0:0:
398,290,59756,1,6,0:0:0:0:
241,228,59976,2,0,L|143:240,1,83.9999974365235,0|6,0:0|0:0,0:0:0:0:
398,290,60418,2,0,L|481:300,1,83.9999974365235,8|6,0:2|0:0,0:0:0:0:
328,125,60859,6,0,L|339:239,1,83.9999974365235,4|2,0:0|0:0,0:0:0:0:
260,53,61300,1,8,0:2:0:0:
414,154,61521,1,6,0:0:0:0:
268,264,61741,2,0,L|185:246,1,83.9999974365235,0|6,0:0|0:0,0:0:0:0:
61,326,62182,2,0,L|143:343,1,83.9999974365235,8|2,0:2|0:0,0:0:0:0:
312,342,62623,6,0,P|351:286|298:184,1,167.999994873047,4|8,0:0|0:2,0:0:0:0:
210,149,63285,2,0,L|113:207,1,83.9999974365235,6|0,0:0|0:0,0:0:0:0:
206,267,63726,1,6,0:0:0:0:
54,149,63947,2,0,P|50:190|59:231,1,83.9999974365235,8|2,0:2|0:0,0:0:0:0:
200,349,64388,6,0,P|209:308|205:266,1,83.9999974365235,4|2,0:0|0:0,0:0:0:0:
308,234,64829,1,8,0:2:0:0:
210,147,65050,1,6,0:0:0:0:
333,71,65271,2,0,P|252:77|202:14,1,167.999994873047,4|8,0:0|0:2,0:0:0:0:
333,71,65932,1,2,0:0:0:0:
219,231,66153,6,0,L|210:147,1,83.9999974365235,4|2,0:2|0:0,0:0:0:0:
328,210,66594,1,8,0:2:0:0:
227,334,66815,2,0,L|135:318,1,83.9999974365235,2|0,0:0|0:0,0:0:0:0:
328,210,67256,1,6,0:0:0:0:
160,163,67476,2,0,L|176:251,1,83.9999974365235,8|6,0:2|0:0,0:0:0:0:
328,210,67918,5,4,0:2:0:0:
263,41,68138,2,4,L|233:134,1,83.9999974365235,6|8,0:0|0:2,0:0:0:0:
256,340,68579,1,6,0:0:0:0:
368,115,68800,1,12,0:2:0:0:
115,281,69021,1,12,0:2:0:0:
397,281,69241,1,12,0:2:0:0:
144,115,69462,1,12,0:2:0:0:
256,340,69682,5,2,2:0:0:0:
207,287,75418,6,0,L|209:245,1,42,4|8,0:0|0:0,0:0:0:0:
218,210,75638,2,0,P|246:162|241:106,1,112,4|0,0:0|0:0,0:0:0:0:
164,144,76300,2,0,B|117:141|89:169|89:169|102:205|137:226,1,157.500006008148,8|0,0:2|0:0,0:0:0:0:
218,210,76741,6,0,L|273:198,3,38.5000011749268,6|0|2|0,2:0|2:0|2:0|2:0,2:0:0:0:
329,270,77182,2,0,L|320:307,3,38.5000011749268,2|0|2|0,2:0|2:0|2:0|2:0,2:0:0:0:
215,324,77623,5,2,2:0:0:0:
196,326,77733,1,0,2:0:0:0:
177,329,77844,1,2,2:0:0:0:
158,331,77953,1,0,2:0:0:0:
139,334,78065,2,0,L|144:266,3,38.5000011749268,2|0|2|0,2:0|2:0|2:0|2:0,2:0:0:0:
75,218,78506,6,0,L|20:231,3,38.5000011749268,2|0|2|0,2:0|2:0|2:0|2:0,2:0:0:0:
118,116,78947,2,0,L|155:107,3,38.5000011749268,2|0|2|0,2:0|2:0|2:0|2:0,2:0:0:0:
226,190,79388,1,2,2:0:0:0:
245,188,79498,1,0,2:0:0:0:
264,185,79608,1,2,2:0:0:0:
283,183,79718,1,0,2:0:0:0:
302,180,79829,5,8,0:2:0:0:
388,288,80050,1,4,0:0:0:0:
446,84,80271,5,8,0:2:0:0:
406,192,80491,1,4,0:0:0:0:
406,192,80601,1,4,0:0:0:0:
406,192,80712,1,4,0:0:0:0:
248,107,80932,1,8,0:2:0:0:
299,278,81153,1,4,0:0:0:0:
299,278,81263,1,4,0:0:0:0:
299,278,81373,1,4,0:0:0:0:
379,96,81594,1,8,0:2:0:0:
167,232,81815,1,8,0:2:0:0:
375,329,82035,5,4,0:0:0:0:
298,169,82256,1,4,0:0:0:0:
375,329,82476,1,8,0:2:0:0:
453,222,82697,1,4,0:0:0:0:
298,169,82918,1,8,0:2:0:0:
225,357,83138,1,8,0:2:0:0:
131,205,83359,1,8,0:2:0:0:
131,205,83469,1,8,0:2:0:0:
131,205,83579,1,8,0:0:0:0:
259,89,83800,1,8,0:0:0:0:
259,89,83910,1,4,0:0:0:0:
259,89,84021,1,4,0:0:0:0:
70,51,84241,6,0,L|157:40,1,77.0000023498536,4|0,0:2|0:0,0:0:0:0:
259,89,84682,1,8,0:2:0:0:
209,212,84903,1,0,0:0:0:0:
349,153,85123,1,4,0:0:0:0:
134,114,85344,6,0,P|85:170|94:244,1,154.000004699707,12|4,0:2|0:0,0:0:0:0:
209,212,86006,2,0,L|196:303,1,77.0000023498536,12|4,0:2|0:0,0:0:0:0:
329,316,86447,1,0,0:0:0:0:
424,243,86668,1,4,0:0:0:0:
340,231,86888,1,8,0:2:0:0:
412,326,87109,1,0,0:0:0:0:
257,262,87329,5,4,0:0:0:0:
390,159,87550,1,4,0:0:0:0:
412,326,87771,1,8,0:2:0:0:
412,326,88212,5,4,0:0:0:0:
298,179,88432,1,4,0:0:0:0:
412,326,88653,1,8,0:2:0:0:
257,262,88873,2,0,P|182:279|202:354,1,154.000004699707,4|4,0:0|0:0,0:0:0:0:
321,328,89535,1,8,0:2:0:0:
320,328,89756,2,0,P|342:275|337:218,1,115.50000352478,4|4,0:0|0:0,0:0:0:0:
324,182,90197,2,0,L|336:142,2,38.5000011749268,4|4|8,0:0|0:0|0:2,0:0:0:0:
412,86,90638,1,8,0:2:0:0:
412,86,90748,1,8,0:2:0:0:
412,86,90859,6,0,P|335:112|267:73,1,154.000004699707,4|4,0:0|0:0,0:0:0:0:
168,144,91521,2,0,L|180:54,1,77.0000023498536,0|8,0:0|0:2,0:0:0:0:
86,25,91962,2,0,P|32:76|43:149,1,154.000004699707,0|4,0:0|0:0,0:0:0:0:
105,202,92623,6,0,P|91:278|83:361,1,154.000004699707,4|0,0:0|0:0,0:0:0:0:
204,285,93285,1,4,0:0:0:0:
204,285,93396,1,4,0:0:0:0:
204,285,93506,1,8,0:2:0:0:
336,346,93726,6,0,P|373:282|347:212,1,154.000004699707,4|4,0:0|0:0,0:0:0:0:
277,176,94388,2,0,L|291:85,1,77.0000023498536,4|0,0:0|0:0,0:0:0:0:
329,37,94829,5,8,0:2:0:0:
198,89,95050,1,4,0:0:0:0:
372,115,95271,5,8,0:2:0:0:
178,181,95491,1,4,0:0:0:0:
406,197,95712,5,8,0:2:0:0:
161,268,95932,1,4,0:0:0:0:
440,289,96153,5,8,0:2:0:0:
277,92,96373,1,8,0:2:0:0:
277,92,96484,1,8,0:2:0:0:
277,92,96594,1,8,0:2:0:0:
297,340,96815,6,0,L|309:206,1,87.5,8|0,0:2|0:0,0:0:0:0:
304,252,97256,5,8,0:0:0:0:
214,342,97476,1,8,0:0:0:0:
91,225,97697,1,4,0:0:0:0:
91,225,97807,1,4,0:0:0:0:
91,225,97918,6,0,P|164:240|231:204,1,154.000004699707,4|8,0:2|0:2,0:0:0:0:
251,118,98579,1,4,0:0:0:0:
160,74,98800,2,0,L|148:173,1,77.0000023498536,0|4,0:0|0:0,0:0:0:0:
86,19,99241,1,8,0:2:0:0:
250,117,99462,6,0,P|318:88|326:15,1,154.000004699707,4|4,0:0|0:0,0:0:0:0:
250,117,100123,2,0,L|258:208,1,77.0000023498536,8|4,0:2|0:0,0:0:0:0:
347,255,100565,1,0,0:0:0:0:
259,330,100785,1,4,0:0:0:0:
183,268,101006,2,0,L|109:290,1,77.0000023498536,8|0,0:2|0:0,0:0:0:0:
229,86,101447,6,0,P|248:163|263:238,1,154.000004699707,4|8,0:0|0:2,0:0:0:0:
21,108,102109,1,4,0:0:0:0:
175,20,102329,1,0,0:0:0:0:
132,140,102550,1,4,0:0:0:0:
85,49,102771,1,8,0:2:0:0:
271,155,102991,6,0,P|261:229|202:275,1,154.000004699707,4|4,0:0|0:0,0:0:0:0:
103,251,103653,2,0,L|123:352,1,77.0000023498536,8|0,0:2|0:0,0:0:0:0:
13,232,104094,2,0,L|27:156,1,77.0000023498536,4|4,0:0|0:0,0:0:0:0:
110,35,104535,1,8,0:2:0:0:
128,33,104645,1,8,0:2:0:0:
147,36,104755,1,8,0:2:0:0:
164,46,104865,1,8,0:2:0:0:
177,60,104976,6,0,L|167:136,1,77.0000023498536,4|4,0:2|0:0,0:0:0:0:
296,210,105418,2,0,L|306:134,1,77.0000023498536,4|4,0:0|0:0,0:0:0:0:
177,257,105859,2,0,L|187:333,1,77.0000023498536,4|4,0:0|0:0,0:0:0:0:
101,186,106300,1,8,0:2:0:0:
302,307,106521,6,0,P|349:266|332:167,1,154.000004699707,4|4,0:2|0:0,0:0:0:0:
252,46,107182,2,0,L|263:147,1,77.0000023498536,4|4,0:0|0:0,0:0:0:0:
162,86,107623,1,4,0:0:0:0:
361,90,107844,1,4,0:0:0:0:
361,90,107954,1,4,0:0:0:0:
361,90,108065,1,8,0:2:0:0:
266,216,108285,1,4,0:0:0:0:
266,216,108396,1,4,0:0:0:0:
266,216,108506,6,0,P|199:251|127:207,1,154.000004699707,4|4,0:2|0:0,0:0:0:0:
33,188,109168,2,0,P|29:226|40:262,1,77.0000023498536,4|8,0:0|0:2,0:0:0:0:
131,94,109609,1,4,0:0:0:0:
33,188,109829,1,8,0:2:0:0:
172,340,110050,6,0,P|207:273|188:201,1,154.000004699707,4|4,0:2|0:0,0:0:0:0:
106,263,110712,1,8,0:2:0:0:
261,174,110932,1,4,0:0:0:0:
330,342,111153,1,8,0:2:0:0:
175,335,111373,1,4,0:0:0:0:
341,249,111594,1,8,0:2:0:0:
244,87,111815,1,4,0:0:0:0:
388,171,112035,6,0,P|442:120|419:33,1,154.000004699707,12|4,0:2|0:0,0:0:0:0:
447,286,112697,1,4,0:0:0:0:
250,200,112918,1,8,0:2:0:0:
365,358,113138,1,8,0:2:0:0:
388,171,113359,1,8,0:2:0:0:
186,300,113579,1,12,0:2:0:0:
208,245,114682,6,0,P|211:219|221:194,1,52.5,4|0,0:0|0:0,0:0:0:0:
238,173,115123,2,0,B|293:169|302:133|302:133|278:85|244:84,1,157.500006008148,4|0,0:0|0:0,0:0:0:0:
216,99,115565,6,0,P|296:94|337:25,1,167.999994873047,4|8,0:2|0:2,0:0:0:0:
142,39,116226,1,2,0:0:0:0:
112,213,116447,2,0,L|99:131,1,83.9999974365235,4|6,0:0|0:0,0:0:0:0:
20,177,116888,1,8,0:2:0:0:
196,227,117109,6,0,L|177:309,1,83.9999974365235,6|0,0:0|0:0,0:0:0:0:
323,175,117550,2,0,L|304:92,1,83.9999974365235,6|8,0:0|0:2,0:0:0:0:
134,147,117991,2,0,L|216:128,1,83.9999974365235,6|0,0:0|0:0,0:0:0:0:
363,268,118432,2,0,L|280:286,1,83.9999974365235,6|8,0:0|0:2,0:0:0:0:
84,317,118873,1,2,0:0:0:0:
84,317,119094,6,0,P|114:243|194:244,1,167.999994873047,4|8,0:0|0:2,0:0:0:0:
44,184,119756,1,6,0:0:0:0:
44,184,119866,1,6,0:0:0:0:
44,184,119976,2,0,L|59:87,1,83.9999974365235,4|6,0:0|0:0,0:0:0:0:
22,25,120418,1,8,0:2:0:0:
144,128,120638,6,0,L|233:120,1,83.9999974365235,6|0,0:0|0:0,0:0:0:0:
306,50,121079,1,6,0:0:0:0:
389,205,121300,2,0,L|378:121,1,83.9999974365235,8|2,0:2|0:0,0:0:0:0:
277,246,121741,2,0,L|287:329,1,83.9999974365235,4|6,0:0|0:0,0:0:0:0:
380,288,122182,1,8,0:2:0:0:
178,367,122403,6,0,P|114:323|127:227,1,167.999994873047,6|6,0:2|0:0,0:0:0:0:
251,138,123065,1,8,0:2:0:0:
198,257,123285,1,2,0:0:0:0:
65,170,123506,1,4,0:0:0:0:
198,257,123726,1,6,0:0:0:0:
148,90,123947,1,8,0:2:0:0:
328,195,124168,6,0,P|404:168|425:90,1,167.999994873047,6|6,0:2|0:0,0:0:0:0:
328,195,124829,1,8,0:2:0:0:
253,69,125050,1,2,0:0:0:0:
328,195,125271,1,4,0:0:0:0:
448,122,125491,1,6,0:0:0:0:
370,290,125712,1,8,0:2:0:0:
229,176,125932,1,6,0:2:0:0:
339,53,126153,6,0,L|320:154,1,83.9999974365235,4|2,0:0|0:0,0:0:0:0:
129,175,126594,2,0,L|144:92,1,83.9999974365235,8|2,0:2|0:0,0:0:0:0:
184,257,127035,2,0,P|105:276|40:215,1,167.999994873047,4|8,0:0|0:2,0:0:0:0:
129,175,127697,1,6,0:0:0:0:
214,347,127918,5,4,0:0:0:0:
313,229,128138,1,10,0:2:0:0:
313,229,128248,1,8,0:2:0:0:
313,229,128359,1,8,0:2:0:0:
132,277,128579,1,10,0:2:0:0:
227,188,128800,1,4,0:0:0:0:
305,337,129021,1,10,0:2:0:0:
132,277,129241,1,8,0:2:0:0:
132,277,129351,1,8,0:0:0:0:
132,277,129462,1,8,0:0:0:0:
132,277,129572,1,4,0:0:0:0:
132,277,129682,6,0,L|146:180,1,83.9999974365235,4|6,0:2|0:0,0:0:0:0:
36,80,130123,2,0,L|24:163,1,83.9999974365235,8|2,0:2|0:0,0:0:0:0:
176,103,130565,1,4,0:0:0:0:
115,222,130785,1,6,0:0:0:0:
176,103,131006,1,8,0:2:0:0:
345,169,131226,6,0,L|262:183,1,83.9999974365235,6|0,0:0|0:0,0:0:0:0:
367,308,131668,2,0,L|449:293,1,83.9999974365235,6|8,0:0|0:2,0:0:0:0:
245,271,132109,2,0,L|230:353,1,83.9999974365235,6|0,0:0|0:0,0:0:0:0:
433,205,132550,2,0,L|418:122,1,83.9999974365235,6|8,0:0|0:2,0:0:0:0:
288,183,132991,1,2,0:0:0:0:
375,57,133212,6,0,P|294:69|234:14,1,167.999994873047,4|8,0:0|0:2,0:0:0:0:
91,141,133873,1,6,0:0:0:0:
91,141,133984,1,6,0:0:0:0:
91,141,134094,2,0,L|104:58,1,83.9999974365235,4|6,0:0|0:0,0:0:0:0:
13,210,134535,1,8,0:2:0:0:
188,111,134756,6,0,P|244:131|238:230,1,167.999994873047,6|6,0:0|0:0,0:0:0:0:
154,354,135418,2,0,L|144:270,1,83.9999974365235,8|2,0:2|0:0,0:0:0:0:
188,111,135859,1,4,0:0:0:0:
99,204,136079,1,6,0:0:0:0:
253,305,136300,1,8,0:2:0:0:
84,126,136521,6,0,P|23:179|48:263,1,167.999994873047,6|6,0:2|0:0,0:0:0:0:
204,101,137182,1,8,0:2:0:0:
161,273,137403,1,2,0:0:0:0:
204,101,137623,1,4,0:0:0:0:
82,206,137844,1,6,0:0:0:0:
264,241,138065,1,8,0:2:0:0:
108,356,138285,6,0,P|65:286|81:206,1,167.999994873047,6|6,0:2|0:0,0:0:0:0:
282,325,138947,1,8,0:2:0:0:
186,133,139168,1,2,0:0:0:0:
282,325,139388,1,4,0:0:0:0:
305,170,139609,1,6,0:0:0:0:
145,271,139829,1,8,0:2:0:0:
305,170,140050,1,6,0:2:0:0:
194,49,140271,6,0,L|182:165,1,83.9999974365235,4|2,0:0|0:0,0:0:0:0:
297,253,140712,2,0,L|305:169,1,83.9999974365235,8|2,0:2|0:0,0:0:0:0:
385,224,141153,1,4,0:0:0:0:
223,312,141373,2,0,P|183:296|142:288,1,83.9999974365235,6|8,0:0|0:2,0:0:0:0:
7,229,141815,6,0,P|48:220|87:205,1,83.9999974365235,6|4,0:0|0:2,0:0:0:0:
220,135,142256,2,0,L|227:51,1,83.9999974365235,6|8,0:0|0:2,0:0:0:0:
181,229,142697,1,6,0:0:0:0:
181,229,142807,1,4,0:0:0:0:
181,229,142918,1,12,0:2:0:0:
116,117,143138,1,6,0:0:0:0:
228,52,143359,1,12,0:2:0:0:
296,173,143579,1,10,0:0:0:0:
296,173,143690,1,8,0:0:0:0:
296,173,143800,6,0,P|309:91|329:9,2,167.999994873047,4|8|4,0:2|0:2|0:0,0:0:0:0:
380,236,144903,1,6,0:0:0:0:
227,295,145123,2,0,L|315:312,1,83.9999974365235,8|6,0:2|0:0,0:0:0:0:
149,236,145565,6,0,P|130:273|129:314,1,83.9999974365235,0|6,0:0|0:0,0:0:0:0:
248,212,146006,1,8,0:2:0:0:
155,115,146226,1,2,0:0:0:0:
248,212,146447,2,0,L|348:200,1,83.9999974365235,4|2,0:0|0:0,0:0:0:0:
155,115,146888,2,0,L|71:125,1,83.9999974365235,8|2,0:2|0:0,0:0:0:0:
355,88,147329,6,0,P|302:27|224:44,1,167.999994873047,4|8,0:0|0:2,0:0:0:0:
155,115,147991,2,0,L|170:207,1,83.9999974365235,6|0,0:0|0:0,0:0:0:0:
251,150,148432,1,6,0:0:0:0:
97,251,148653,2,0,L|83:333,1,83.9999974365235,10|0,0:2|0:0,0:0:0:0:
264,232,149094,6,0,L|250:149,1,83.9999974365235,4|2,0:0|0:0,0:0:0:0:
437,268,149535,2,0,L|354:281,1,83.9999974365235,8|6,0:2|0:0,0:0:0:0:
198,351,149976,2,0,P|157:301|187:187,1,167.999994873047,4|8,0:0|0:2,0:0:0:0:
247,268,150638,1,6,0:0:0:0:
308,100,150859,6,0,L|298:183,1,83.9999974365235,4|2,0:2|0:0,0:0:0:0:
380,42,151300,1,8,0:2:0:0:
213,134,151521,2,0,L|105:109,1,83.9999974365235,2|4,0:0|0:0,0:0:0:0:
308,100,151962,1,6,0:0:0:0:
234,253,152182,2,0,L|246:352,1,83.9999974365235,8|6,0:2|0:0,0:0:0:0:
298,183,152623,5,12,0:2:0:0:
151,271,152844,2,0,L|55:241,1,83.9999974365235,6|8,0:0|0:2,0:0:0:0:
166,107,153285,5,10,0:2:0:0:
422,285,153506,1,12,0:2:0:0:
408,120,153726,1,12,0:2:0:0:
151,271,153947,1,12,0:2:0:0:
329,217,154168,1,8,0:2:0:0:
329,217,154278,1,8,0:0:0:0:
329,217,154388,6,0,P|327:128|279:92,2,140,4|8|4,0:2|0:2|0:0,0:0:0:0:
229,174,155491,1,2,0:0:0:0:
274,272,155712,2,0,P|271:306|266:341,1,70,8|6,0:2|0:0,0:0:0:0:
114,346,156153,6,0,P|87:297|114:195,1,140,4|10,0:0|0:2,0:0:0:0:
114,346,156815,2,0,L|44:356,1,70,4|2,0:0|0:0,0:0:0:0:
250,281,157256,2,0,L|181:271,1,70,4|10,0:0|0:2,0:0:0:0:
356,344,157697,1,8,0:2:0:0:
356,344,157807,1,8,0:2:0:0:
356,344,157918,6,0,L|369:212,1,105,6|6,0:0|0:0,0:0:0:0:
405,180,158359,2,0,P|373:169|337:173,1,70,8|2,0:2|0:0,0:0:0:0:
315,28,158800,2,0,P|283:83|293:141,1,105,6|6,0:0|0:0,0:0:0:0:
271,192,159241,2,0,P|234:173|218:137,1,70,8|6,0:2|0:0,0:0:0:0:
56,234,159682,5,2,0:0:0:0:
40,144,159903,1,4,0:0:0:0:
130,128,160123,1,10,0:2:0:0:
145,218,160344,1,0,0:0:0:0:
40,144,160565,2,0,L|49:66,1,70,6|4,0:0|0:0,0:0:0:0:
140,39,161006,1,10,0:2:0:0:
306,122,161226,1,8,0:2:0:0:
306,122,161337,1,8,0:2:0:0:
306,122,161447,6,0,P|216:142|171:109,1,140,6|8,0:0|0:2,0:0:0:0:
366,45,162109,1,4,0:0:0:0:
443,120,162329,1,2,0:0:0:0:
440,137,162439,1,2,0:0:0:0:
437,154,162549,1,6,0:0:0:0:
435,171,162659,1,6,0:0:0:0:
414,203,162771,5,10,0:0:0:0:
416,224,162881,1,10,0:0:0:0:
420,246,162991,1,10,0:2:0:0:
423,268,163101,1,10,0:2:0:0:
447,298,163212,6,0,L|292:277,1,140,4|10,0:2|0:2,0:0:0:0:
218,324,163873,1,4,0:0:0:0:
178,144,164094,2,0,P|130:200|147:265,1,140,6|10,0:0|0:2,0:0:0:0:
178,144,164756,1,4,0:0:0:0:
74,42,164976,6,0,P|137:66|197:34,1,140,6|8,0:2|0:2,0:0:0:0:
317,24,165638,2,0,P|305:92|295:186,1,140,6|4,0:0|0:0,0:0:0:0:
393,212,166300,1,10,0:2:0:0:
306,319,166521,6,0,L|299:269,2,35,4|4|12,0:0|0:0|0:2,0:0:0:0:
161,250,166962,2,0,L|165:215,2,35,4|4|12,0:0|0:0|0:2,0:0:0:0:
299,161,167403,2,0,L|294:126,2,35,4|4|12,0:0|0:0|0:2,0:0:0:0:
166,58,167844,1,8,0:2:0:0:
313,30,168065,1,12,0:2:0:0:
177,68,168285,1,4,0:0:0:0:
177,68,168396,1,4,0:0:0:0:
177,68,168506,6,0,P|111:60|55:148,1,154.000004699707,4|8,0:2|0:2,0:0:0:0:
145,271,169168,1,4,0:0:0:0:
248,222,169388,2,0,L|236:98,1,102.666669799805,6|6,0:0|0:0,0:0:0:0:
252,48,169829,2,0,P|284:60|307:98,1,77.0000023498536,8|6,0:2|0:0,0:0:0:0:
130,156,170271,6,0,B|96:113|96:113|116:16,2,154.000004699707,6|8|4,0:0|0:2|0:0,0:0:0:0:
229,108,171373,1,6,0:0:0:0:
318,259,171594,2,0,L|306:153,1,77.0000023498536,10|2,0:2|0:0,0:0:0:0:
229,108,172035,5,4,0:0:0:0:
192,223,172256,1,6,0:0:0:0:
310,183,172476,1,10,0:2:0:0:
111,148,172697,1,6,0:0:0:0:
242,32,172918,2,0,L|226:124,1,77.0000023498536,6|4,0:0|0:0,0:0:0:0:
124,223,173359,2,0,L|110:147,1,77.0000023498536,10|4,0:2|0:0,0:0:0:0:
250,239,173800,6,0,L|236:314,1,77.0000023498536,2|4,0:0|0:0,0:0:0:0:
249,349,174131,1,6,0:0:0:0:
249,349,174241,2,0,B|301:333|301:333|337:357|401:354,2,154.000004699707,10|4|8,0:2|0:0|0:2,0:0:0:0:
87,304,175344,1,4,0:0:0:0:
166,241,175565,6,0,B|176:192|176:192|157:132,1,102.666669799805,6|6,0:2|0:0,0:0:0:0:
103,97,176006,2,0,L|112:18,1,77.0000023498536,8|2,0:2|0:0,0:0:0:0:
249,25,176447,2,0,B|239:74|239:74|263:138,1,102.666669799805,6|6,0:0|0:0,0:0:0:0:
318,176,176888,2,0,L|309:255,1,77.0000023498536,8|10,0:2|0:2,0:0:0:0:
292,297,177219,1,8,0:2:0:0:
292,297,177329,6,0,L|227:290,3,38.5000011749268,6|0|4|0,0:2|0:0|0:0|0:0,0:0:0:0:
397,246,177771,2,0,L|435:241,3,38.5000011749268,10|0|4|0,0:2|0:0|0:0|0:0,0:0:0:0:
319,162,178212,2,0,L|308:111,3,38.5000011749268,6|0|4|4,0:0|0:0|0:0|0:0,0:0:0:0:
208,197,178653,1,8,0:2:0:0:
190,193,178763,1,8,0:2:0:0:
173,190,178873,1,8,0:2:0:0:
156,186,178983,1,8,0:2:0:0:
138,182,179094,6,0,L|142:143,3,38.5000011749268,4|0|4|0,0:2|0:0|0:0|0:0,0:0:0:0:
248,101,179535,2,0,L|241:44,3,38.5000011749268,10|0|4|0,0:2|0:0|0:0|0:0,0:0:0:0:
346,163,179976,5,14,0:2:0:0:
360,179,180086,1,8,0:0:0:0:
371,198,180196,1,8,0:0:0:0:
379,218,180306,1,4,0:0:0:0:
383,239,180417,1,14,0:2:0:0:
382,261,180527,1,8,0:0:0:0:
378,283,180637,1,8,0:0:0:0:
370,303,180748,1,4,0:0:0:0:
357,320,180859,6,0,B|325:308|325:308|247:324,1,115.50000352478,6|6,0:2|0:0,0:0:0:0:
187,368,181300,2,0,B|173:331|173:331|180:293,1,77.0000023498536,8|6,0:2|0:0,0:0:0:0:
246,139,181741,2,0,B|258:171|258:171|242:249,1,115.50000352478,6|6,0:2|0:0,0:0:0:0:
179,294,182182,2,0,L|81:274,1,77.0000023498536,8|6,0:2|0:0,0:0:0:0:
353,192,182623,5,12,0:2:0:0:
286,341,182844,1,4,0:0:0:0:
286,341,182954,1,4,0:0:0:0:
286,341,183065,1,8,0:2:0:0:
117,173,183285,1,4,0:0:0:0:
151,150,183395,1,4,0:0:0:0:
192,147,183505,1,8,0:2:0:0:
229,165,183615,1,8,0:2:0:0:
253,200,183726,1,8,0:0:0:0:
255,241,183836,1,8,0:0:0:0:
236,278,183946,1,4,0:0:0:0:
202,301,184057,1,4,0:0:0:0:
160,303,184167,1,0,0:0:0:0:
123,284,184277,1,0,0:0:0:0:
101,249,184387,5,12,0:2:0:0:
256,192,184498,12,4,186153,2:0:0:0:
193,163,197403,5,4,0:0:0:0:
193,163,197513,1,4,0:0:0:0:
193,163,197623,2,0,P|183:112|168:51,2,115.50000352478,8|8|4,0:2|0:0|0:0,0:0:0:0:
53,191,198506,2,0,P|40:242|27:312,2,115.50000352478,8|4|0,0:0|0:0|0:0,0:0:0:0:
127,315,199388,2,0,B|171:283|171:283|274:304,1,157.500006008148,4|4,0:0|0:0,0:0:0:0:
336,338,199829,5,8,0:2:0:0:
353,335,199939,1,8,0:2:0:0:
370,333,200049,1,8,0:2:0:0:
388,330,200159,1,8,0:2:0:0:
405,327,200271,6,0,P|439:249|400:177,1,167.999994873047,4|8,0:2|0:2,0:0:0:0:
478,121,200932,1,6,0:0:0:0:
315,207,201153,2,0,L|228:194,1,83.9999974365235,4|2,0:0|0:0,0:0:0:0:
182,114,201594,1,8,0:2:0:0:
247,281,201815,6,0,L|236:364,1,83.9999974365235,6|0,0:0|0:0,0:0:0:0:
37,276,202256,2,0,L|47:192,1,83.9999974365235,6|8,0:0|0:2,0:0:0:0:
242,32,202697,2,0,L|158:42,1,83.9999974365235,6|0,0:0|0:0,0:0:0:0:
47,192,203138,2,0,L|130:181,1,83.9999974365235,6|8,0:0|0:2,0:0:0:0:
234,235,203579,1,2,0:0:0:0:
330,101,203800,6,0,P|401:143|380:223,1,167.999994873047,4|8,0:0|0:2,0:0:0:0:
234,235,204462,1,6,0:0:0:0:
234,235,204572,1,6,0:0:0:0:
234,235,204682,2,0,L|243:318,1,83.9999974365235,4|6,0:0|0:0,0:0:0:0:
303,177,205123,1,8,0:2:0:0:
159,288,205344,6,0,L|76:271,1,83.9999974365235,2|4,0:0|0:0,0:0:0:0:
234,235,205785,1,2,0:0:0:0:
133,107,206006,2,0,L|146:212,1,83.9999974365235,8|2,0:2|0:0,0:0:0:0:
16,120,206447,2,0,L|26:36,1,83.9999974365235,4|6,0:0|0:0,0:0:0:0:
201,217,206888,1,8,0:2:0:0:
238,52,207109,6,0,P|159:61|136:137,1,167.999994873047,6|6,0:2|0:0,0:0:0:0:
251,304,207771,1,8,0:2:0:0:
207,120,207991,1,4,0:0:0:0:
251,304,208212,1,4,0:0:0:0:
326,164,208432,1,6,0:0:0:0:
146,295,208653,1,8,0:2:0:0:
390,357,208873,6,0,P|431:287|400:212,1,167.999994873047,6|6,0:2|0:0,0:0:0:0:
184,134,209535,1,8,0:2:0:0:
336,280,209756,1,2,0:0:0:0:
347,82,209976,1,4,0:0:0:0:
244,272,210197,1,6,0:0:0:0:
377,166,210418,1,8,0:2:0:0:
161,232,210638,1,6,0:2:0:0:
298,347,210859,6,0,L|283:263,1,83.9999974365235,0|6,0:0|0:0,0:0:0:0:
434,169,211300,2,0,L|448:251,1,83.9999974365235,8|2,0:2|0:0,0:0:0:0:
189,157,211741,1,4,0:0:0:0:
286,268,211962,1,6,0:0:0:0:
355,62,212182,1,8,0:2:0:0:
293,178,212403,1,6,0:0:0:0:
213,56,212623,5,4,0:2:0:0:
400,170,212844,1,6,0:0:0:0:
295,351,213065,2,0,L|285:267,1,83.9999974365235,8|6,0:2|0:0,0:0:0:0:
95,79,213506,1,12,0:2:0:0:
157,329,213726,1,6,0:0:0:0:
302,148,213947,1,8,0:2:0:0:
271,156,214057,1,8,0:2:0:0:
241,165,214167,1,8,0:2:0:0:
211,174,214277,1,8,0:2:0:0:
181,183,214388,6,0,L|202:293,1,83.9999974365235,4|2,0:2|0:0,0:0:0:0:
32,114,214829,2,0,L|47:31,1,83.9999974365235,8|2,0:2|0:0,0:0:0:0:
168,71,215271,1,4,0:0:0:0:
106,221,215491,1,6,0:0:0:0:
32,114,215712,1,8,0:2:0:0:
208,166,215932,6,0,L|289:147,1,83.9999974365235,6|0,0:0|0:0,0:0:0:0:
158,302,216373,2,0,L|76:320,1,83.9999974365235,6|8,0:0|0:2,0:0:0:0:
299,245,216815,2,0,L|280:326,1,83.9999974365235,6|0,0:0|0:0,0:0:0:0:
208,166,217256,2,0,L|226:84,1,83.9999974365235,6|8,0:0|0:2,0:0:0:0:
303,37,217697,1,6,0:0:0:0:
129,119,217918,6,0,P|92:190|129:262,1,167.999994873047,4|8,0:0|0:2,0:0:0:0:
244,206,218579,1,6,0:0:0:0:
244,206,218690,1,4,0:0:0:0:
244,206,218800,2,0,L|231:303,1,83.9999974365235,4|6,0:0|0:0,0:0:0:0:
157,348,219241,1,8,0:2:0:0:
329,257,219462,6,0,L|356:336,1,83.9999974365235,6|0,0:0|0:0,0:0:0:0:
157,348,219903,1,6,0:0:0:0:
58,265,220123,2,0,L|69:179,1,83.9999974365235,8|2,0:2|0:0,0:0:0:0:
224,86,220565,2,0,L|213:169,1,83.9999974365235,4|6,0:0|0:0,0:0:0:0:
142,234,221006,1,8,0:2:0:0:
335,108,221226,6,0,P|304:182|370:240,1,167.999994873047,6|6,0:2|0:0,0:0:0:0:
438,153,221888,1,8,0:2:0:0:
376,330,222109,1,2,0:0:0:0:
438,153,222329,1,4,0:0:0:0:
237,188,222550,1,6,0:0:0:0:
376,330,222771,1,8,0:2:0:0:
287,113,222991,6,0,P|207:103|151:162,1,167.999994873047,6|6,0:2|0:0,0:0:0:0:
179,352,223653,1,8,0:2:0:0:
238,187,223873,1,2,0:0:0:0:
179,352,224094,1,4,0:0:0:0:
112,231,224315,1,6,0:0:0:0:
327,308,224535,1,8,0:2:0:0:
231,150,224756,1,6,0:2:0:0:
112,231,224976,6,0,L|231:221,1,83.9999974365235,0|6,0:0|0:0,0:0:0:0:
374,90,225418,2,0,L|290:97,1,83.9999974365235,8|2,0:2|0:0,0:0:0:0:
221,57,225859,1,4,0:0:0:0:
196,224,226079,2,0,L|184:132,1,83.9999974365235,6|8,0:0|0:2,0:0:0:0:
363,235,226521,6,0,L|352:318,1,83.9999974365235,6|0,0:2|0:0,0:0:0:0:
269,112,226962,2,0,L|283:18,1,83.9999974365235,6|8,0:0|0:2,0:0:0:0:
122,218,227403,2,0,L|137:307,1,83.9999974365235,6|8,0:2|0:2,0:0:0:0:
37,135,227844,1,6,0:0:0:0:
241,220,228065,1,8,0:2:0:0:
261,215,228175,1,8,0:0:0:0:
282,211,228285,1,8,0:0:0:0:
302,206,228395,1,4,0:0:0:0:
322,202,228506,6,0,L|337:118,1,83.9999974365235,4|2,0:2|0:0,0:0:0:0:
403,58,228947,1,8,0:2:0:0:
254,128,229168,2,0,L|154:112,1,83.9999974365235,2|4,0:0|0:0,0:0:0:0:
82,47,229609,1,6,0:0:0:0:
40,208,229829,2,0,L|28:124,1,83.9999974365235,8|6,0:2|0:0,0:0:0:0:
199,235,230271,6,0,L|187:319,1,83.9999974365235,0|6,0:0|0:0,0:0:0:0:
261,178,230712,1,8,0:2:0:0:
117,267,230932,1,2,0:0:0:0:
264,353,231153,2,0,L|347:341,1,83.9999974365235,4|6,0:0|0:0,0:0:0:0:
456,260,231594,2,0,L|444:176,1,83.9999974365235,8|2,0:2|0:0,0:0:0:0:
409,34,232035,6,0,P|348:85|391:180,1,167.999994873047,4|8,0:0|0:2,0:0:0:0:
255,40,232697,2,0,L|170:56,1,83.9999974365235,6|0,0:0|0:0,0:0:0:0:
33,41,233138,1,6,0:0:0:0:
161,178,233359,1,8,0:2:0:0:
26,184,233579,1,10,0:2:0:0:
26,184,233690,1,8,0:2:0:0:
26,184,233800,6,0,L|42:266,1,83.9999974365235,4|2,0:0|0:0,0:0:0:0:
205,356,234241,2,0,L|222:273,1,83.9999974365235,8|6,0:2|0:0,0:0:0:0:
161,97,234682,1,8,0:2:0:0:
116,222,234903,1,6,0:0:0:0:
343,274,235123,1,8,0:2:0:0:
300,149,235344,1,6,0:0:0:0:
300,149,235454,1,4,0:0:0:0:
300,149,235565,6,0,L|214:168,1,83.9999974365235,4|2,0:2|0:0,0:0:0:0:
358,76,236006,1,8,0:2:0:0:
287,234,236226,2,0,L|305:331,1,83.9999974365235,2|4,0:0|0:0,0:0:0:0:
217,167,236668,1,6,0:0:0:0:
378,267,236888,2,0,L|466:247,1,83.9999974365235,8|6,0:2|0:0,0:0:0:0:
302,152,237329,5,4,0:2:0:0:
188,327,237550,2,0,L|170:219,1,83.9999974365235,4|8,0:0|0:2,0:0:0:0:
308,279,237991,1,4,0:0:0:0:
187,69,238212,1,12,0:2:0:0:
99,290,238432,1,12,0:2:0:0:
375,181,238653,1,12,0:2:0:0:
187,69,238873,1,12,0:2:0:0:
234,301,239094,6,0,L|244:189,1,112,6|0,2:0|2:0,2:0:0:0:
290,122,239756,1,0,2:0:0:0:
240,59,239976,2,0,L|166:68,1,56,2|0,2:0|2:0,2:0:0:0:
117,150,240418,2,0,L|172:143,1,56,2|0,2:0|2:0,2:0:0:0:
63,81,240859,2,0,P|33:126|34:181,1,112,2|0,2:0|2:0,2:0:0:0:
117,150,241521,1,0,2:0:0:0:
95,238,241741,2,0,L|105:305,1,56,2|0,2:0|2:0,2:0:0:0:
193,331,242182,2,0,L|184:275,1,56,2|0,2:0|2:0,2:0:0:0:
220,203,242623,6,0,P|267:176|330:195,1,112,2|0,2:0|2:0,2:0:0:0:
281,266,243285,1,0,2:0:0:0:
400,229,243506,2,0,P|406:173|411:117,1,112,2|2,2:0|2:0,2:0:0:0:
344,58,244168,1,0,2:0:0:0:
276,149,244388,2,0,L|331:141,1,56,2|0,2:0|2:0,2:0:0:0:
242,226,244829,2,0,L|186:233,1,56,0|0,2:0|2:0,2:0:0:0:
131,75,245271,2,0,P|192:112|198:173,1,112,2|2,2:0|2:0,2:0:0:0:
108,167,245932,1,0,2:0:0:0:
40,109,246153,6,0,L|48:52,1,56,2|0,2:0|2:0,2:0:0:0:
108,167,246594,2,0,L|100:222,1,56,0|0,2:0|2:0,2:0:0:0:
270,125,247035,2,0,P|223:96|170:110,1,112,2|2,2:0|2:0,2:0:0:0:
316,197,247697,1,0,2:0:0:0:
258,307,247918,2,0,L|257:233,1,56,2|0,2:0|2:0,2:0:0:0:
334,294,248359,2,0,L|334:349,1,56,0|0,2:0|2:0,2:0:0:0:
186,344,248800,2,0,P|160:295|181:245,1,112,2|2,2:0|2:0,2:0:0:0:
250,194,249462,1,0,2:0:0:0:
169,104,249682,6,0,L|176:168,1,56,2|0,2:0|2:0,2:0:0:0:
98,124,250123,2,0,L|91:68,1,56,0|0,2:0|2:0,2:0:0:0:
235,34,250565,2,0,L|241:89,1,56,2|0,2:0|2:0,2:0:0:0:
181,215,251006,2,0,L|174:159,1,56,2|0,2:0|2:0,2:0:0:0:
247,277,251447,5,2,2:0:0:0:
