osu file format v14

[General]
AudioFilename: audio.mp3
AudioLeadIn: 0
PreviewTime: 67509
Countdown: 0
SampleSet: Soft
StackLeniency: 0.2
Mode: 0
LetterboxInBreaks: 0
WidescreenStoryboard: 1

[Editor]
DistanceSpacing: 1.9
BeatDivisor: 4
GridSize: 32
TimelineZoom: 1.6

[Metadata]
Title:Harenohi Step (Soleily Remix)
TitleUnicode:ハレノヒステップ (Soleily Remix)
Artist:Sasaki Shiori
ArtistUnicode:佐々木詩織
Creator:Akitoshi
Version:Expert
Source:カノジョ*ステップ
Tags:Corinn -Laura- Kanojo J-pop jpop Japanese dnb Drum n' bass eroge galgame visual novel opening
BeatmapID:4023791
BeatmapSetID:1944121

[Difficulty]
HPDrainRate:5.8
CircleSize:4
OverallDifficulty:8.5
ApproachRate:9.2
SliderMultiplier:1.7
SliderTickRate:1

[Events]
//Background and Video events
0,0,"cache_f4e611c0-c60b-407f-c022-02341bf41c54.png",0,0
//Break Periods
//Storyboard Layer 0 (Background)
//Storyboard Layer 1 (Fail)
//Storyboard Layer 2 (Pass)
//Storyboard Layer 3 (Foreground)
//Storyboard Layer 4 (Overlay)
//Storyboard Sound Samples

[TimingPoints]
362,352.941176470588,4,2,1,50,1,0
362,-200,4,2,1,50,0,0
11656,-166.666666666667,4,2,1,55,0,0
22950,-200,4,2,1,50,0,0
34244,-166.666666666667,4,2,1,50,0,0
45538,-125,4,2,1,60,0,0
54009,-111.111111111111,4,2,1,70,0,0
54273,-111.111111111111,4,2,1,5,0,0
54361,-111.111111111111,4,2,1,70,0,0
54979,-111.111111111111,4,2,1,5,0,0
55067,-111.111111111111,4,2,1,70,0,0
56832,-125,4,2,1,60,0,0
62479,-100,4,2,1,70,0,0
66714,-142.857142857143,4,2,1,60,0,0
67773,-83.3333333333333,4,2,1,60,0,0
68126,-90.9090909090909,4,2,2,80,0,1
70509,-90.9090909090909,4,2,2,5,0,1
70597,-90.9090909090909,4,2,2,80,0,1
73332,-90.9090909090909,4,2,2,5,0,1
73420,-90.9090909090909,4,2,2,80,0,1
76861,-90.9090909090909,4,2,2,5,0,1
76950,-90.9090909090909,4,2,2,80,0,1
78273,-90.9090909090909,4,2,2,5,0,1
78361,-125,4,2,2,80,0,1
78626,-125,4,2,2,5,0,1
78714,-62.5,4,2,2,80,0,1
78979,-62.5,4,2,2,5,0,1
79067,-76.9230769230769,4,2,2,80,0,1
79420,-90.9090909090909,4,2,2,80,0,1
81803,-90.9090909090909,4,2,2,5,0,1
81891,-90.9090909090909,4,2,2,80,0,1
84626,-90.9090909090909,4,2,2,5,0,1
84714,-90.9090909090909,4,2,2,80,0,1
89126,-66.6666666666667,4,2,2,80,0,1
89391,-66.6666666666667,4,2,2,5,0,1
89479,-66.6666666666667,4,2,2,80,0,1
89744,-66.6666666666667,4,2,2,5,0,1
89832,-66.6666666666667,4,2,2,80,0,1
90097,-66.6666666666667,4,2,2,5,0,1
90185,-66.6666666666667,4,2,2,80,0,1
90361,-125,4,2,2,80,0,0
90714,-90.9090909090909,4,2,2,80,0,1
100950,-62.5,4,2,2,80,0,1
101214,-62.5,4,2,2,5,0,1
101303,-90.9090909090909,4,2,2,80,0,1
101567,-90.9090909090909,4,2,2,5,0,1
101656,-76.9230769230769,4,2,2,80,0,1
102009,-90.9090909090909,4,2,2,80,0,1
111714,-66.6666666666667,4,2,2,80,0,1
111979,-66.6666666666667,4,2,2,5,0,1
112067,-66.6666666666667,4,2,2,80,0,1
112332,-66.6666666666667,4,2,2,5,0,1
112420,-66.6666666666667,4,2,2,80,0,1
112685,-66.6666666666667,4,2,2,5,0,1
112773,-66.6666666666667,4,2,2,80,0,1
113303,-125,4,2,1,60,0,0
130244,-111.111111111111,4,2,1,70,0,0
133067,-100,4,2,1,70,0,0
135538,-83.3333333333333,4,2,1,70,0,0
135891,-125,4,2,1,60,0,0
147185,-111.111111111111,4,2,1,65,0,0
152832,-100,4,2,1,70,0,0
156891,-166.666666666667,4,2,1,60,0,0

[Colours]
Combo1 : 0,255,64
Combo2 : 0,255,255
Combo3 : 254,222,1
Combo4 : 255,55,155

[HitObjects]
264,76,362,6,0,B|236:75|208:66|208:66|191:80|175:86,1,85,6|0,3:2|3:0,0:0:0:0:
118,128,891,2,0,L|129:175,1,42.5,2|0,0:0|3:0,0:0:0:0:
184,226,1244,1,2,0:0:0:0:
184,226,1420,2,0,L|195:273,1,42.5,0|0,3:2|0:0,0:0:0:0:
274,267,1773,5,0,3:0:0:0:
274,267,1949,2,0,L|285:220,1,42.5,2|0,0:0|3:0,0:0:0:0:
341,168,2303,1,2,0:0:0:0:
341,168,2479,2,0,L|352:121,1,42.5,0|0,3:0|0:0,0:0:0:0:
414,76,2832,1,0,3:0:0:0:
414,76,3009,1,2,0:0:0:0:
482,118,3185,6,0,P|497:167|483:210,1,85,0|0,3:0|3:0,0:0:0:0:
449,269,3714,2,0,L|458:315,1,42.5,2|0,0:0|3:0,0:0:0:0:
377,323,4067,1,2,0:0:0:0:
377,323,4244,2,0,L|368:277,1,42.5,0|0,3:0|0:0,0:0:0:0:
294,250,4597,5,0,3:0:0:0:
294,250,4773,2,0,P|263:257|235:254,1,42.5,2|0,0:0|3:0,0:0:0:0:
200,318,5126,1,2,0:0:0:0:
200,318,5302,2,0,P|178:294|167:268,1,42.5,0|0,3:0|0:0,0:0:0:0:
143,209,5656,1,0,3:0:0:0:
143,209,5832,1,2,0:0:0:0:
187,141,6009,6,0,L|273:156,1,85,0|0,3:0|3:0,0:0:0:0:
350,142,6538,2,0,P|350:118|342:91,1,42.5,2|0,0:0|3:0,0:0:0:0:
398,38,6891,1,2,0:0:0:0:
398,38,7067,2,0,P|377:26|349:19,1,42.5,0|0,3:0|0:0,0:0:0:0:
278,15,7420,5,0,3:0:0:0:
278,15,7597,2,0,L|236:22,1,42.5,2|0,0:0|3:0,0:0:0:0:
166,62,7950,1,2,0:0:0:0:
166,62,8126,2,0,L|124:54,1,42.5,0|0,3:0|0:0,0:0:0:0:
43,44,8479,1,0,3:0:0:0:
43,44,8656,1,2,0:0:0:0:
10,117,8832,6,0,P|1:159|16:207,1,85,0|0,3:0|3:0,0:0:0:0:
86,228,9361,2,0,L|95:182,1,42.5,2|0,0:0|3:0,0:0:0:0:
175,186,9714,1,2,0:0:0:0:
175,186,9891,2,0,L|183:227,1,42.5,0|0,3:0|0:0,0:0:0:0:
274,297,10244,6,0,B|312:213|444:223|471:280|442:338|394:345|363:321,1,297.5,6|0,3:2|0:0,0:0:0:0:
333,161,11656,6,0,B|342:120|342:120|336:104|336:104|351:45,1,101.999996887207,6|0,3:2|3:0,0:0:0:0:
267,15,12185,2,0,P|237:13|209:20,1,50.9999984436036,2|0,0:0|3:0,0:0:0:0:
185,103,12538,1,2,0:0:0:0:
185,103,12714,2,0,P|210:107|235:105,1,50.9999984436036,0|0,3:0|0:0,0:0:0:0:
105,64,13067,5,0,3:0:0:0:
105,64,13244,2,0,L|93:128,1,50.9999984436036,2|0,0:0|3:0,0:0:0:0:
11,152,13597,1,2,0:0:0:0:
11,152,13774,2,0,L|23:216,1,50.9999984436036,0|0,3:0|0:0,0:0:0:0:
72,277,14126,1,0,3:0:0:0:
118,197,14303,1,2,0:0:0:0:
189,253,14479,6,0,B|245:243|236:277|295:262,1,101.999996887207,0|0,3:0|3:0,0:0:0:0:
364,210,15009,2,0,P|365:184|356:160,1,50.9999984436036,2|0,0:0|3:0,0:0:0:0:
287,100,15361,1,2,0:0:0:0:
287,100,15538,2,0,P|286:74|295:50,1,50.9999984436036,0|0,3:0|0:0,0:0:0:0:
380,17,15891,5,0,3:0:0:0:
380,17,16067,2,0,L|439:26,1,50.9999984436036,2|0,0:0|3:0,0:0:0:0:
483,100,16421,1,2,0:0:0:0:
483,100,16597,2,0,L|424:109,1,50.9999984436036,0|0,3:0|0:0,0:0:0:0:
356,160,16950,1,0,3:0:0:0:
441,193,17126,1,2,0:0:0:0:
373,255,17303,6,0,P|326:237|261:242,1,101.999996887207,0|0,3:0|3:0,0:0:0:0:
218,310,17832,2,0,P|230:339|233:360,1,50.9999984436036,2|0,0:0|3:0,0:0:0:0:
135,281,18185,1,2,0:0:0:0:
135,281,18361,2,0,P|115:305|99:318,1,50.9999984436036,0|0,3:0|0:0,0:0:0:0:
19,274,18714,5,0,3:0:0:0:
19,274,18891,2,0,L|30:217,1,50.9999984436036,2|0,0:0|3:0,0:0:0:0:
99,165,19244,1,2,0:0:0:0:
99,165,19421,2,0,L|88:108,1,50.9999984436036,0|0,3:0|0:0,0:0:0:0:
133,34,19773,1,0,3:0:0:0:
187,108,19950,1,2,0:0:0:0:
257,49,20126,6,0,P|300:64|363:44,1,101.999996887207,0|0,3:0|3:0,0:0:0:0:
434,5,20656,2,0,P|445:31|447:65,1,50.9999984436036,2|0,0:0|3:0,0:0:0:0:
436,144,21009,1,2,0:0:0:0:
348,170,21185,2,0,P|322:159|288:157,1,50.9999984436036,0|0,3:0|0:0,0:0:0:0:
166,191,21538,6,0,B|106:201|38:155|38:155|82:228|67:305|67:305|92:280|130:278,1,356.999989105225,6|0,3:2|0:0,0:0:0:0:
255,292,22950,6,0,B|273:299|287:311|287:311|306:295|340:294,1,85,4|0,0:3|0:0,0:0:0:0:
406,333,23479,1,2,0:0:0:0:
471,278,23656,1,2,0:0:0:0:
471,278,23832,2,0,P|472:246|468:228,1,42.5,2|0,0:0|0:0,0:0:0:0:
399,188,24185,6,0,L|390:234,1,42.5,2|0,0:0|0:0,0:0:0:0:
316,188,24538,2,0,L|280:157,1,42.5,2|0,0:0|0:0,0:0:0:0:
357,117,24891,2,0,L|401:101,1,42.5,2|0,0:0|0:0,0:0:0:0:
454,39,25244,2,0,P|415:18|370:20,1,85,2|0,0:0|0:0,0:0:0:0:
291,35,25773,6,0,L|196:22,1,85,2|0,0:0|0:0,0:0:0:0:
128,57,26303,2,0,P|114:98|123:148,1,85,2|0,0:0|0:0,0:0:0:0:
183,194,26832,1,2,0:0:0:0:
256,150,27009,6,0,P|320:141|381:266,1,212.5,2|0,0:0|0:0,0:0:0:0:
337,324,28067,1,2,0:0:0:0:
300,228,28244,1,2,0:0:0:0:
224,295,28420,6,0,L|234:349,1,42.5,2|0,0:0|0:0,0:0:0:0:
147,349,28773,1,2,0:0:0:0:
147,349,28950,2,0,L|137:295,1,42.5,2|0,0:0|0:0,0:0:0:0:
119,224,29303,1,2,0:0:0:0:
55,168,29479,2,0,P|32:176|5:179,1,42.5,2|0,0:0|0:0,0:0:0:0:
108,59,29832,6,0,B|221:36|193:144|307:119,1,212.5,2|0,0:0|0:0,0:0:0:0:
380,93,30891,1,2,0:0:0:0:
367,193,31067,1,2,0:0:0:0:
459,148,31244,6,0,L|501:153,1,42.5,2|0,0:0|0:0,0:0:0:0:
501,238,31597,1,2,0:0:0:0:
501,238,31773,2,0,L|458:243,1,42.5,2|0,0:0|0:0,0:0:0:0:
395,300,32126,1,2,0:0:0:0:
331,357,32303,2,0,L|288:351,1,42.5,2|0,0:0|0:0,0:0:0:0:
224,296,32656,6,0,B|294:269|331:165|285:50|177:100|172:167|199:206,1,340,2|2,0:0|0:0,0:0:0:0:
130,281,34244,6,0,B|98:290|74:298|74:298|48:289|33:272,1,101.999996887207,6|0,0:0|0:0,0:0:0:0:
5,184,34773,1,2,0:0:0:0:
94,145,34950,1,2,0:0:0:0:
94,145,35126,2,0,L|84:90,1,50.9999984436036,2|0,0:0|0:0,0:0:0:0:
161,34,35479,6,0,P|194:42|210:41,1,50.9999984436036,2|0,0:0|0:0,0:0:0:0:
307,49,35832,2,0,P|283:73|276:87,1,50.9999984436036,2|0,0:0|0:0,0:0:0:0:
222,169,36185,2,0,P|212:136|203:123,1,50.9999984436036,2|0,0:0|0:0,0:0:0:0:
178,234,36538,2,0,P|228:247|281:220,1,101.999996887207,2|0,0:0|0:0,0:0:0:0:
340,158,37067,6,0,L|459:187,1,101.999996887207,2|0,0:0|0:0,0:0:0:0:
476,272,37597,2,0,P|462:295|455:318,1,50.9999984436036,2|0,0:0|0:0,0:0:0:0:
361,343,37950,2,0,P|353:318|340:297,1,50.9999984436036,2|0,0:0|0:0,0:0:0:0:
272,228,38303,6,0,P|146:249|79:155,1,254.999992218018,2|0,0:0|0:0,0:0:0:0:
101,62,39361,1,2,0:0:0:0:
194,144,39538,1,2,0:0:0:0:
248,35,39714,6,0,L|308:27,1,50.9999984436036,2|0,0:0|0:0,0:0:0:0:
347,112,40067,1,2,0:0:0:0:
347,112,40244,2,0,L|287:120,1,50.9999984436036,2|0,0:0|0:0,0:0:0:0:
391,42,40597,1,2,0:0:0:0:
462,106,40773,2,0,P|472:140|473:166,1,50.9999984436036,2|0,0:0|0:0,0:0:0:0:
399,253,41126,6,0,B|330:229|267:257|287:272|221:305|146:266,1,254.999992218018,2|0,0:0|0:0,0:0:0:0:
71,217,42185,1,2,0:0:0:0:
177,157,42361,1,2,0:0:0:0:
66,103,42538,6,0,L|4:115,1,50.9999984436036,2|0,0:0|0:0,0:0:0:0:
115,25,42891,1,2,0:0:0:0:
115,25,43067,2,0,L|177:13,1,50.9999984436036,2|0,0:0|0:0,0:0:0:0:
261,3,43420,1,2,0:0:0:0:
330,71,43597,2,0,P|340:99|341:124,1,50.9999984436036,2|0,0:0|0:0,0:0:0:0:
420,176,43950,6,0,L|486:163,1,50.9999984436036,2|0,0:0|0:0,0:0:0:0:
461,262,44303,2,0,L|439:325,1,50.9999984436036,2|0,0:0|0:0,0:0:0:0:
365,253,44656,2,0,L|320:202,1,50.9999984436036,2|0,0:0|0:0,0:0:0:0:
235,197,45009,2,0,P|193:224|135:216,1,101.999996887207,2|2,0:0|0:0,0:0:0:0:
69,104,45538,6,0,B|76:71|76:71|73:67|73:67|82:31,1,68,6|0,3:2|0:0,0:0:0:0:
208,19,45891,2,0,P|255:60|339:52,1,136,8|0,0:0|0:0,0:0:0:0:
418,1,46420,1,2,0:0:0:0:
494,105,46597,2,0,L|477:179,1,68,8|0,0:0|0:0,0:0:0:0:
380,219,46950,6,0,L|364:152,1,68,2|2,0:0|0:0,0:0:0:0:
235,142,47303,2,0,P|206:188|220:277,1,136,8|2,0:0|0:0,0:0:0:0:
267,361,47832,1,0,0:0:0:0:
382,301,48009,2,0,L|460:310,1,68,8|2,0:0|0:0,0:0:0:0:
503,214,48361,6,0,L|474:69,1,136,2|8,0:0|0:0,0:0:0:0:
390,12,48891,2,0,P|371:45|365:85,1,68,2|0,0:0|0:0,0:0:0:0:
231,48,49244,2,0,P|250:80|281:106,1,68,2|8,0:0|0:0,0:0:0:0:
377,176,49597,6,0,L|363:253,1,68,2|0,0:0|0:0,0:0:0:0:
271,187,49950,2,0,L|257:264,1,68,2|8,0:0|0:0,0:0:0:0:
164,331,50303,2,0,L|150:254,1,68,2|0,0:0|0:0,0:0:0:0:
58,320,50656,2,0,L|44:243,1,68,2|8,0:0|0:0,0:0:0:0:
28,145,51009,1,2,0:0:0:0:
152,90,51185,6,0,B|186:97|186:97|225:85,1,68,6|0,3:2|0:0,0:0:0:0:
340,44,51538,2,0,P|374:90|365:173,1,136,8|0,0:0|0:0,0:0:0:0:
294,245,52067,1,2,0:0:0:0:
412,298,52244,2,0,L|487:284,1,68,8|0,0:0|0:0,0:0:0:0:
297,364,52597,6,0,B|267:359|267:359|259:355|259:355|225:349,1,68,6|0,3:2|0:0,0:0:0:0:
134,263,52950,2,0,P|177:250|206:252,1,68,8|0,0:0|0:0,0:0:0:0:
126,357,53303,1,2,0:0:0:0:
36,264,53479,2,0,P|46:220|62:196,1,68,2|8,0:0|0:0,0:0:0:0:
147,137,53832,1,2,0:0:0:0:
283,222,54009,6,0,B|326:213|326:213|350:224|350:224|405:212,1,114.749996498108,6|0,3:2|0:0,0:0:0:0:
422,205,54361,2,0,P|430:168|421:130,1,76.4999976654053,8|2,0:0|0:0,0:0:0:0:
286,46,54714,2,0,B|243:55|243:55|219:44|219:44|164:56,1,114.749996498108,6|0,3:2|0:0,0:0:0:0:
147,63,55066,2,0,P|139:100|148:138,1,76.4999976654053,8|2,0:0|0:0,0:0:0:0:
283,222,55420,6,0,B|305:324|305:324|284:314|254:301,1,152.999995330811,6|8,3:2|0:0,0:0:0:0:
120,262,55950,1,2,0:0:0:0:
102,266,56038,1,2,0:0:0:0:
83,269,56126,1,2,0:0:0:0:
64,273,56214,1,0,1:0:0:0:
45,277,56303,2,0,L|-4:269,1,38.2499988327027,0|0,1:0|0:0,0:0:0:0:
64,360,56479,2,0,L|150:342,1,76.4999976654053,8|2,0:0|0:0,0:0:0:0:
201,206,56832,6,0,P|208:171|197:133,1,68,6|0,3:2|0:0,0:0:0:0:
60,173,57185,2,0,P|93:180|127:174,1,68,8|0,0:2|0:0,0:0:0:0:
94,33,57538,2,0,P|87:66|94:100,1,68,0|0,1:2|0:0,0:0:0:0:
235,67,57891,2,0,P|202:60|169:67,1,68,8|2,0:2|0:0,0:0:0:0:
295,159,58244,6,0,L|371:146,1,68,0|0,1:2|0:0,0:0:0:0:
290,255,58597,2,0,L|366:242,1,68,8|0,0:2|0:0,0:0:0:0:
285,351,58950,2,0,L|361:338,1,68,0|0,1:2|0:0,0:0:0:0:
206,264,59303,1,8,0:2:0:0:
147,378,59479,1,2,0:0:0:0:
66,276,59656,6,0,P|32:276|0:287,1,68,0|0,1:0|0:0,0:0:0:0:
91,186,60009,2,0,P|74:156|48:134,1,68,8|0,0:0|0:0,0:0:0:0:
181,163,60361,2,0,P|197:133|204:100,1,68,0|0,1:0|0:0,0:0:0:0:
246,230,60714,2,0,P|279:229|312:219,1,68,8|2,0:0|0:0,0:0:0:0:
406,75,61067,6,0,L|331:59,1,68,0|0,1:0|0:0,0:0:0:0:
467,140,61420,2,0,L|518:83,1,68,8|0,0:0|0:0,0:0:0:0:
379,160,61773,2,0,L|402:232,1,68,0|0,1:0|0:0,0:0:0:0:
443,346,62126,1,8,0:0:0:0:
497,228,62303,1,2,0:0:0:0:
310,297,62479,5,6,3:2:0:0:
379,160,62656,1,2,0:0:0:0:
224,248,62832,1,8,0:0:0:0:
411,250,63009,1,2,0:0:0:0:
228,143,63185,5,0,3:0:0:0:
165,336,63361,1,2,0:0:0:0:
21,156,63538,2,0,P|15:107|29:62,1,85,8|2,0:0|0:0,0:0:0:0:
224,248,63891,5,6,3:2:0:0:
0,322,64067,1,2,0:0:0:0:
129,118,64244,1,8,0:0:0:0:
187,355,64420,1,2,0:0:0:0:
341,181,64597,5,0,3:0:0:0:
109,238,64773,1,2,0:0:0:0:
246,22,64950,2,0,P|286:12|340:23,1,85,8|2,0:0|0:0,0:0:0:0:
475,236,65303,5,6,3:2:0:0:
440,249,65391,1,0,1:0:0:0:
402,251,65479,1,0,1:0:0:0:
365,242,65567,1,0,1:0:0:0:
332,223,65656,2,0,L|345:166,3,42.5,8|0|0|0,0:0|1:0|1:0|1:0,0:0:0:0:
401,110,66009,5,6,3:2:0:0:
367,94,66097,1,0,1:0:0:0:
329,91,66185,1,0,1:0:0:0:
293,102,66273,1,0,1:0:0:0:
263,126,66362,1,8,0:2:0:0:
229,142,66450,1,0,1:0:0:0:
191,145,66538,1,0,1:0:0:0:
155,134,66626,1,0,1:0:0:0:
125,110,66714,6,0,L|130:70,3,29.7499990921021,6|8|8|8,3:2|0:3|0:3|0:3,0:0:0:0:
43,138,67067,2,0,P|37:167|44:199,1,59.4999981842042,4|0,0:3|1:0,0:0:0:0:
54,206,67332,1,0,1:0:0:0:
56,220,67420,1,0,1:0:0:0:
59,235,67508,1,0,1:0:0:0:
62,249,67596,1,0,1:0:0:0:
64,264,67684,1,0,1:0:0:0:
67,279,67773,6,0,P|28:276|6:284,1,50.9999984436036,4|0,0:3|0:0,0:0:0:0:
17,361,67950,2,0,P|56:364|78:356,1,50.9999984436036,8|0,0:0|0:0,0:0:0:0:
192,289,68126,6,0,B|237:291|271:333|271:333|312:304|369:317,1,187.000005706787,6|8,3:2|0:0,0:0:0:0:
173,384,68656,1,2,0:0:0:0:
145,180,68832,2,0,P|196:129|309:138,1,187.000005706787,0|8,3:0|0:0,0:0:0:0:
433,243,69361,1,2,0:0:0:0:
375,44,69538,5,0,3:0:0:0:
285,228,69714,1,2,0:0:0:0:
224,1,69891,1,8,0:0:0:0:
402,150,70067,1,2,0:0:0:0:
145,180,70244,2,0,B|58:159|58:159|29:173|17:202,1,140.25000428009,0|0,3:0|0:0,0:0:0:0:
39,275,70597,2,0,P|78:292|143:280,1,93.5000028533936,8|2,0:0|0:0,0:0:0:0:
300,213,70950,5,0,3:0:0:0:
221,371,71126,1,2,0:0:0:0:
145,180,71303,2,0,L|162:77,1,93.5000028533936,8|2,0:0|0:0,0:0:0:0:
345,22,71656,1,0,3:0:0:0:
300,213,71832,1,2,0:0:0:0:
178,1,72009,1,8,0:0:0:0:
358,132,72185,6,0,L|459:115,1,93.5000028533936,2|0,0:0|3:0,0:0:0:0:
258,38,72538,1,2,0:0:0:0:
385,228,72714,2,0,L|486:211,1,93.5000028533936,8|2,0:0|0:0,0:0:0:0:
326,366,73067,2,0,L|187:342,1,140.25000428009,0|0,3:0|0:0,0:0:0:0:
103,329,73420,2,0,P|94:276|110:233,1,93.5000028533936,8|2,0:0|0:0,0:0:0:0:
259,87,73773,5,0,3:0:0:0:
291,262,73950,1,2,0:0:0:0:
386,39,74126,1,8,0:0:0:0:
157,123,74303,2,0,L|62:103,1,93.5000028533936,2|0,0:0|3:0,0:0:0:0:
226,6,74656,1,2,0:0:0:0:
202,247,74832,1,8,0:0:0:0:
348,115,75009,1,2,0:0:0:0:
111,113,75185,5,0,3:0:0:0:
308,218,75361,2,0,P|322:273|310:324,1,93.5000028533936,2|8,0:0|0:0,0:0:0:0:
114,206,75714,1,2,0:0:0:0:
348,115,75891,1,0,3:0:0:0:
203,273,76067,1,2,0:0:0:0:
221,20,76244,1,8,0:0:0:0:
27,181,76420,1,2,0:0:0:0:
297,207,76597,6,0,B|323:206|351:194|351:194|379:208|379:208|402:203|439:211,1,140.25000428009,0|0,3:0|0:0,0:0:0:0:
509,243,76950,1,8,0:0:0:0:
361,356,77126,2,0,P|311:355|263:333,1,93.5000028533936,2|0,0:0|3:0,0:0:0:0:
93,278,77479,2,0,P|136:260|182:260,1,93.5000028533936,2|8,0:0|0:0,0:0:0:0:
36,378,77832,1,2,0:0:0:0:
7,154,78009,6,0,B|25:110|25:110|4:68|4:68|28:13,1,140.25000428009,6|0,3:2|0:0,0:0:0:0:
105,10,78361,6,0,P|141:45|193:47,1,102,10|0,0:0|0:0,0:0:0:0:
259,2,78714,6,0,B|230:41|230:41|257:142|257:142|294:104,1,204,2|0,0:2|0:0,0:0:0:0:
386,55,79067,6,0,P|424:56|447:65,1,55.2499974708558,8|0,0:0|0:0,0:0:0:0:
373,138,79244,2,0,P|391:171|394:195,1,55.2499974708558,2|0,0:0|0:0,0:0:0:0:
296,287,79420,6,0,B|171:254|171:254|201:315,1,187.000005706787,6|8,3:2|0:0,0:0:0:0:
361,376,79950,1,2,0:0:0:0:
313,189,80126,2,0,P|237:142|134:172,1,187.000005706787,0|8,3:0|0:0,0:0:0:0:
15,270,80656,1,2,0:0:0:0:
65,71,80832,5,0,3:2:0:0:
171,254,81009,1,2,0:0:0:0:
202,4,81185,1,8,0:0:0:0:
12,169,81361,1,2,0:0:0:0:
293,167,81538,2,0,B|319:164|340:155|340:155|362:163|379:173|379:173|399:164|427:162,1,140.25000428009,0|0,3:0|0:0,0:0:0:0:
487,220,81891,2,0,P|500:274|490:314,1,93.5000028533936,8|2,0:0|0:0,0:0:0:0:
293,254,82244,5,0,3:0:0:0:
397,77,82420,1,2,0:0:0:0:
396,320,82597,1,8,0:0:0:0:
286,146,82773,1,2,0:0:0:0:
219,341,82950,2,0,P|164:344|111:319,1,93.5000028533936,0|2,3:0|0:0,0:0:0:0:
4,203,83303,1,8,0:0:0:0:
201,134,83479,6,0,L|186:227,1,93.5000028533936,2|0,0:0|3:0,0:0:0:0:
18,91,83832,1,2,0:0:0:0:
221,20,84009,2,0,P|266:17|321:33,1,93.5000028533936,8|2,0:0|0:0,0:0:0:0:
490,147,84361,2,0,B|452:151|432:157|432:157|404:143|404:143|382:151|339:156,1,140.25000428009,0|0,3:0|0:0,0:0:0:0:
305,223,84714,2,0,P|322:268|317:317,1,93.5000028533936,8|2,0:0|0:0,0:0:0:0:
111,373,85067,5,6,3:2:0:0:
75,351,85155,1,0,1:0:0:0:
46,320,85243,1,0,1:0:0:0:
28,282,85331,1,0,1:0:0:0:
20,241,85419,1,10,0:0:0:0:
25,199,85508,1,0,1:0:0:0:
41,161,85596,1,0,1:0:0:0:
67,128,85684,1,0,1:0:0:0:
101,104,85773,6,0,L|90:49,3,46.7500014266968,2|0|0|0,3:2|1:0|1:0|1:0,0:0:0:0:
185,112,86126,2,0,L|174:167,3,46.7500014266968,10|0|0|0,0:2|1:0|1:0|1:0,0:0:0:0:
155,245,86479,5,6,3:2:0:0:
185,273,86567,1,0,1:0:0:0:
223,292,86655,1,0,1:0:0:0:
263,302,86743,1,0,1:0:0:0:
305,301,86831,1,10,0:0:0:0:
346,289,86920,1,0,1:0:0:0:
382,268,87008,1,0,1:0:0:0:
411,238,87096,1,0,1:0:0:0:
432,202,87185,6,0,P|422:177|417:138,3,46.7500014266968,2|0|0|0,3:2|1:0|1:0|1:0,0:0:0:0:
341,112,87538,2,0,P|335:134|326:156,3,46.7500014266968,10|0|0|0,0:2|1:0|1:0|1:0,0:0:0:0:
259,215,87891,5,6,3:2:0:0:
227,243,87979,1,0,1:0:0:0:
188,258,88067,1,0,1:0:0:0:
146,261,88155,1,0,1:0:0:0:
105,252,88243,1,10,0:0:0:0:
70,229,88332,1,0,1:0:0:0:
43,198,88420,1,0,1:0:0:0:
27,159,88508,1,0,1:0:0:0:
19,117,88597,6,0,L|64:106,3,46.7500014266968,2|0|0|0,1:2|1:0|1:0|1:0,0:0:0:0:
109,28,88950,2,0,L|154:39,1,46.7500014266968,10|0,0:0|1:0,0:0:0:0:
215,170,89126,6,0,B|179:204|174:260|214:306|214:306|251:279,1,191.250007295609,6|0,3:2|0:0,0:0:0:0:
301,203,89479,6,0,B|337:213|366:209|366:209|391:229|391:229|422:222|422:222|447:240|494:248,1,191.250007295609,6|0,3:2|0:0,0:0:0:0:
506,337,89832,6,0,B|442:369|386:320|386:320|369:346|336:357,1,191.250007295609,6|0,3:2|0:0,0:0:0:0:
242,344,90185,6,0,P|239:312|246:281,1,63.7500024318696,6|0,3:2|0:0,0:0:0:0:
301,203,90361,5,2,1:2:0:0:
299,196,90449,5,0,1:0:0:0:
298,189,90537,5,0,1:0:0:0:
296,183,90625,5,0,1:0:0:0:
295,176,90714,6,0,B|259:169|259:169|242:173|242:173|197:163,1,93.5000028533936,6|2,3:2|0:0,0:0:0:0:
39,272,91067,2,0,L|150:246,1,93.5000028533936,8|2,0:0|0:0,0:0:0:0:
2,176,91420,1,0,3:0:0:0:
67,371,91597,2,0,L|178:345,1,93.5000028533936,2|8,0:0|0:0,0:0:0:0:
204,164,91950,6,0,P|147:148|102:159,1,93.5000028533936,2|0,0:0|3:0,0:0:0:0:
303,100,92303,2,0,P|288:42|256:9,1,93.5000028533936,2|8,0:0|0:0,0:0:0:0:
408,153,92656,2,0,P|450:111|463:67,1,93.5000028533936,2|0,0:0|3:0,0:0:0:0:
410,270,93009,2,0,P|467:285|512:275,1,93.5000028533936,2|8,0:0|0:0,0:0:0:0:
331,179,93361,1,2,0:0:0:0:
379,369,93538,5,0,3:0:0:0:
504,184,93714,1,2,0:0:0:0:
286,272,93891,2,0,L|177:254,1,93.5000028533936,8|2,0:0|0:0,0:0:0:0:
44,177,94244,1,0,3:0:0:0:
213,78,94420,2,0,P|257:73|310:95,1,93.5000028533936,2|8,0:0|0:0,0:0:0:0:
105,97,94773,6,0,P|88:53|93:7,1,93.5000028533936,2|0,0:0|3:0,0:0:0:0:
205,167,95126,2,0,P|209:213|193:256,1,93.5000028533936,2|8,0:0|0:0,0:0:0:0:
6,213,95479,2,0,L|99:197,1,93.5000028533936,2|0,0:0|3:0,0:0:0:0:
228,364,95832,2,0,L|135:347,1,93.5000028533936,2|8,0:0|0:0,0:0:0:0:
292,186,96185,1,2,0:0:0:0:
374,384,96361,5,0,3:0:0:0:
193,256,96538,1,2,0:0:0:0:
413,181,96714,2,0,P|461:195|512:189,1,93.5000028533936,8|2,0:0|0:0,0:0:0:0:
411,17,97067,1,0,3:0:0:0:
294,209,97244,2,0,P|305:257|336:298,1,93.5000028533936,2|8,0:0|0:0,0:0:0:0:
335,67,97597,6,0,L|243:87,1,93.5000028533936,2|0,0:0|3:0,0:0:0:0:
40,122,97950,2,0,L|131:142,1,93.5000028533936,2|8,0:0|0:0,0:0:0:0:
305,253,98303,2,0,L|213:273,1,93.5000028533936,2|0,0:0|3:0,0:0:0:0:
10,308,98656,2,0,L|101:328,1,93.5000028533936,2|8,0:0|0:0,0:0:0:0:
214,179,99009,1,2,0:0:0:0:
11,213,99185,5,0,3:0:0:0:
214,273,99361,1,2,0:0:0:0:
137,41,99538,2,0,P|90:28|30:42,1,93.5000028533936,8|2,0:0|0:0,0:0:0:0:
112,239,99891,1,0,3:2:0:0:
295,95,100067,2,0,P|308:48|294:-12,1,93.5000028533936,2|8,0:0|0:0,0:0:0:0:
87,136,100420,1,2,0:0:0:0:
335,212,100597,5,6,3:2:0:0:
335,212,100950,6,0,B|374:221|406:190|406:190|355:256|405:324,1,204,8|0,0:3|0:0,0:0:0:0:
481,328,101303,6,0,P|510:261|483:184,1,140.25000428009,10|0,0:3|0:0,0:0:0:0:
464,125,101656,6,0,L|477:60,1,55.2499974708558,8|0,0:0|0:0,0:0:0:0:
370,9,101832,2,0,L|383:74,1,55.2499974708558,2|0,0:0|0:0,0:0:0:0:
335,212,102009,6,0,B|305:211|287:203|287:203|270:215|242:218,1,93.5000028533936,6|0,3:2|0:0,0:0:0:0:
40,127,102361,1,8,0:0:0:0:
214,35,102538,2,0,P|238:81|238:146,1,93.5000028533936,2|0,0:0|3:0,0:0:0:0:
97,306,102891,2,0,P|102:259|125:219,1,93.5000028533936,2|8,0:0|0:0,0:0:0:0:
335,212,103244,6,0,L|439:231,1,93.5000028533936,2|0,0:0|3:0,0:0:0:0:
270,348,103597,2,0,L|166:367,1,93.5000028533936,2|8,0:0|0:0,0:0:0:0:
340,197,103950,2,0,L|444:216,1,93.5000028533936,2|0,0:0|3:0,0:0:0:0:
265,333,104303,2,0,L|161:352,1,93.5000028533936,2|8,0:0|0:0,0:0:0:0:
18,228,104656,1,2,0:0:0:0:
222,214,104832,5,0,3:2:0:0:
67,93,105009,1,2,0:0:0:0:
72,326,105185,1,8,0:0:0:0:
168,138,105361,2,0,P|213:122|272:136,1,93.5000028533936,2|0,0:0|3:0,0:0:0:0:
398,251,105714,2,0,P|354:266|308:260,1,93.5000028533936,2|8,0:0|0:0,0:0:0:0:
369,53,106067,6,0,L|387:152,1,93.5000028533936,2|0,0:0|3:0,0:0:0:0:
292,352,106420,2,0,L|310:253,1,93.5000028533936,2|8,0:0|0:0,0:0:0:0:
384,53,106773,2,0,L|402:152,1,93.5000028533936,2|0,0:0|3:0,0:0:0:0:
277,352,107126,2,0,L|295:253,1,93.5000028533936,2|8,0:0|0:0,0:0:0:0:
212,90,107479,1,2,0:0:0:0:
143,304,107656,5,6,3:2:0:0:
310,155,107832,1,2,1:2:0:0:
273,377,108009,1,8,3:2:0:0:
155,186,108185,1,2,1:2:0:0:
398,251,108361,5,0,3:0:0:0:
269,33,108538,1,2,1:2:0:0:
245,283,108714,1,8,3:2:0:0:
423,103,108891,1,2,1:2:0:0:
141,169,109067,5,6,3:2:0:0:
396,231,109244,1,2,1:2:0:0:
130,318,109420,1,8,0:2:0:0:
296,139,109597,1,2,1:2:0:0:
39,187,109773,5,0,3:0:0:0:
319,261,109950,1,2,1:2:0:0:
121,50,110126,1,8,0:0:0:0:
145,339,110303,1,2,1:2:0:0:
295,49,110479,5,6,3:2:0:0:
334,34,110567,1,0,1:0:0:0:
375,31,110655,1,0,1:0:0:0:
416,39,110743,1,0,1:0:0:0:
453,60,110831,1,10,0:0:0:0:
482,90,110920,1,0,1:0:0:0:
502,127,111008,1,0,1:0:0:0:
510,168,111096,1,0,1:0:0:0:
503,209,111185,6,0,L|494:259,3,46.7500014266968,2|0|0|0,1:2|1:0|1:0|1:0,0:0:0:0:
409,281,111538,2,0,L|400:234,1,46.7500014266968,10|0,0:2|1:0,0:0:0:0:
253,145,111714,6,0,B|184:124|137:177|137:177|108:156|65:157,1,191.250007295609,6|0,3:2|0:0,0:0:0:0:
10,247,112067,6,0,B|43:369|43:369|79:308,1,191.250007295609,6|0,3:2|0:2,0:2:0:0:
151,264,112420,6,0,B|196:247|239:271|239:271|235:276|235:276|278:308|341:287,1,191.250007295609,6|0,3:2|0:0,0:0:0:0:
388,237,112773,6,0,P|403:266|407:297,1,63.7500024318696,6|0,3:2|0:0,0:0:0:0:
374,156,112950,6,0,P|406:157|435:169,1,63.7500024318696,0|0,3:2|0:0,0:0:0:0:
298,129,113126,6,0,P|315:101|340:82,1,63.7500024318696,8|0,0:2|0:0,0:0:0:0:
213,140,113303,6,0,B|159:131|159:131|142:116|142:116|80:105,1,136,6|8,3:2|0:0,0:0:0:0:
0,193,113832,2,0,L|12:274,1,68,2|0,0:0|3:0,0:0:0:0:
74,356,114185,5,2,0:0:0:0:
133,218,114361,2,0,L|145:299,1,68,8|0,0:0|0:0,0:0:0:0:
207,381,114714,5,0,3:0:0:0:
266,243,114890,2,0,L|278:324,1,68,2|8,0:0|0:0,0:0:0:0:
369,379,115244,1,2,0:0:0:0:
406,234,115420,5,0,3:0:0:0:
275,310,115597,1,2,0:0:0:0:
406,234,115773,1,8,0:0:0:0:
275,310,115950,1,2,0:0:0:0:
306,164,116126,6,0,P|319:100|270:28,1,136,0|8,3:0|0:0,0:0:0:0:
156,123,116656,2,0,L|224:114,1,68,2|0,0:0|3:0,0:0:0:0:
96,65,117009,5,2,0:0:0:0:
153,217,117185,2,0,L|220:207,1,68,8|0,0:0|0:0,0:0:0:0:
84,161,117538,5,0,3:0:0:0:
149,308,117714,2,0,L|216:298,1,68,2|8,0:0|0:0,0:0:0:0:
330,280,118067,1,2,0:0:0:0:
220,207,118244,5,0,3:0:0:0:
288,362,118420,1,2,0:0:0:0:
220,207,118597,1,8,0:0:0:0:
288,362,118773,1,2,0:0:0:0:
421,309,118950,6,0,P|441:247|400:165,1,136,0|8,3:0|0:0,0:0:0:0:
309,110,119479,2,0,L|322:191,1,68,2|0,0:0|3:0,0:0:0:0:
355,31,119832,5,2,0:0:0:0:
220,123,120009,2,0,L|233:204,1,68,8|0,0:0|0:0,0:0:0:0:
264,34,120361,5,0,3:0:0:0:
129,126,120538,2,0,L|142:207,1,68,2|8,0:0|0:0,0:0:0:0:
158,307,120891,1,2,0:0:0:0:
230,190,121067,5,0,3:0:0:0:
255,338,121244,1,2,0:0:0:0:
230,190,121420,1,8,0:0:0:0:
255,338,121597,1,2,0:0:0:0:
345,246,121773,6,0,P|404:270|471:253,1,136,0|8,3:0|0:0,0:0:0:0:
496,124,122303,2,0,L|410:104,1,68,2|0,0:0|3:0,0:0:0:0:
316,83,122656,1,2,0:0:0:0:
441,15,122832,2,0,P|483:15|517:28,1,68,8|0,0:0|0:0,0:0:0:0:
365,170,123185,5,6,3:2:0:0:
365,170,123273,1,0,1:0:0:0:
365,170,123361,1,0,1:0:0:0:
304,3,123538,1,2,1:2:0:0:
230,127,123714,1,0,1:0:0:0:
230,127,123803,1,0,1:0:0:0:
230,127,123891,5,2,1:2:0:0:
187,4,124067,1,0,0:0:0:0:
153,185,124244,1,8,0:0:0:0:
316,83,124420,1,2,0:0:0:0:
125,71,124597,6,0,B|102:80|84:94|84:94|47:63|0:71,1,136,6|8,3:2|0:0,0:0:0:0:
2,186,125126,2,0,L|18:264,1,68,2|0,0:0|3:0,0:0:0:0:
2,186,125479,5,2,0:0:0:0:
104,239,125656,2,0,L|120:317,1,68,8|0,0:0|0:0,0:0:0:0:
104,239,126009,5,0,3:0:0:0:
206,292,126186,2,0,L|222:370,1,68,2|8,0:0|0:0,0:0:0:0:
300,276,126538,1,2,0:0:0:0:
190,203,126714,5,0,3:0:0:0:
338,178,126891,1,2,0:0:0:0:
190,203,127067,1,8,0:0:0:0:
338,178,127244,1,2,0:0:0:0:
244,89,127420,6,0,P|175:102|105:51,1,136,0|8,3:0|0:0,0:0:0:0:
306,13,127950,2,0,L|387:26,1,68,2|0,0:0|3:0,0:0:0:0:
306,13,128303,5,2,0:0:0:0:
440,92,128479,2,0,L|359:105,1,68,8|0,0:0|0:0,0:0:0:0:
440,92,128832,5,0,3:0:0:0:
306,171,129008,2,0,L|387:184,1,68,2|8,0:0|0:0,0:0:0:0:
442,274,129361,1,2,0:0:0:0:
326,265,129538,5,0,3:0:0:0:
472,193,129714,1,2,0:0:0:0:
326,265,129891,1,8,0:0:0:0:
472,193,130067,1,2,0:0:0:0:
286,84,130244,5,6,3:2:0:0:
258,104,130332,1,0,1:0:0:0:
226,118,130420,1,0,1:0:0:0:
193,124,130508,1,0,1:0:0:0:
158,124,130596,1,10,0:0:0:0:
125,116,130685,1,0,1:0:0:0:
94,102,130773,1,0,1:0:0:0:
66,81,130861,1,0,1:0:0:0:
44,54,130950,6,0,L|34:108,3,38.2499988327027,0|0|0|0,3:2|1:0|1:0|1:0,0:0:0:0:
7,162,131303,2,0,L|17:216,3,38.2499988327027,10|0|0|0,0:2|1:0|1:0|1:0,0:0:0:0:
26,275,131656,5,6,3:2:0:0:
55,292,131744,1,0,1:0:0:0:
89,298,131832,1,0,1:0:0:0:
123,294,131920,1,0,1:0:0:0:
153,278,132009,1,10,0:0:0:0:
183,261,132097,1,0,1:0:0:0:
217,254,132185,1,0,1:0:0:0:
250,259,132273,1,0,1:0:0:0:
281,275,132361,6,0,L|271:322,3,38.2499988327027,0|0|0|0,3:0|1:0|1:0|1:0,0:0:0:0:
359,253,132714,2,0,L|349:206,3,38.2499988327027,10|0|0|0,0:0|1:0|1:0|1:0,0:0:0:0:
338,135,133067,5,6,3:2:0:0:
318,103,133155,1,0,1:0:0:0:
288,78,133243,1,0,1:0:0:0:
253,63,133331,1,0,1:0:0:0:
215,58,133419,1,10,0:0:0:0:
178,63,133508,1,0,1:0:0:0:
144,80,133596,1,0,1:0:0:0:
115,105,133684,1,0,1:0:0:0:
94,137,133773,6,0,P|100:162|105:188,3,42.5,6|0|0|0,3:2|1:0|1:0|1:0,0:0:0:0:
167,228,134126,2,0,P|160:253|156:279,1,42.5,10|0,0:2|1:0,0:0:0:0:
247,355,134303,6,0,P|274:349|298:346,3,42.5,6|0|0|0,3:2|1:0|1:0|1:0,0:0:0:0:
319,276,134656,1,2,1:2:0:0:
319,276,134744,1,0,1:0:0:0:
319,276,134832,2,0,P|295:270|277:266,3,42.5,8|0|0|0,1:3|1:0|1:0|1:0,0:0:0:0:
240,193,135185,5,2,1:2:0:0:
271,170,135273,1,0,1:0:0:0:
307,159,135361,1,0,1:0:0:0:
345,159,135449,1,0,1:0:0:0:
381,172,135538,2,0,B|410:178|428:195|428:195|448:174|485:168,1,101.999996887207,4|8,3:3|0:0,0:0:0:0:
366,43,135891,6,0,B|320:49|285:66|285:66|262:57|241:32,1,136,6|0,3:2|3:0,0:0:0:0:
145,9,136420,2,0,P|103:10|70:23,1,68,2|0,0:0|3:0,0:0:0:0:
74,120,136773,1,2,0:0:0:0:
74,120,136950,2,0,P|106:129|140:129,1,68,0|0,3:0|0:0,0:0:0:0:
201,212,137303,5,0,3:0:0:0:
201,212,137479,2,0,L|184:290,1,68,2|0,0:0|3:0,0:0:0:0:
233,376,137832,1,2,0:0:0:0:
297,256,138009,5,0,3:0:0:0:
356,378,138185,1,2,0:0:0:0:
418,257,138361,1,0,3:0:0:0:
356,378,138538,1,2,0:0:0:0:
297,256,138714,6,0,B|279:186|320:186|298:114,1,136,0|0,3:0|3:0,0:0:0:0:
194,58,139244,2,0,P|176:98|175:126,1,68,2|0,0:0|3:0,0:0:0:0:
83,181,139597,1,2,0:0:0:0:
83,181,139773,2,0,P|79:147|63:117,1,68,0|0,3:0|0:0,0:0:0:0:
64,274,140126,5,0,3:0:0:0:
64,274,140303,2,0,L|142:256,1,68,2|0,0:0|3:0,0:0:0:0:
236,235,140656,1,2,0:0:0:0:
178,357,140832,5,0,3:0:0:0:
313,328,141009,1,2,0:0:0:0:
178,357,141185,1,0,3:0:0:0:
236,235,141362,1,2,0:0:0:0:
178,357,141538,6,0,B|106:378|123:333|37:353,1,136,0|0,3:0|3:0,0:0:0:0:
7,234,142067,2,0,P|3:197|11:162,1,68,2|0,0:0|3:0,0:0:0:0:
118,172,142420,1,2,0:0:0:0:
118,172,142597,2,0,P|122:205|115:238,1,68,0|0,3:0|0:0,0:0:0:0:
88,76,142950,5,0,3:0:0:0:
88,76,143126,2,0,P|121:71|154:78,1,68,2|0,0:0|3:0,0:0:0:0:
251,129,143479,1,2,0:0:0:0:
317,9,143656,5,0,3:0:0:0:
368,134,143832,1,2,0:0:0:0:
440,18,144009,1,0,3:0:0:0:
368,134,144185,1,2,0:0:0:0:
504,123,144361,6,0,L|476:261,1,136,0|0,3:0|3:0,0:0:0:0:
398,351,144891,2,0,L|384:284,1,68,2|0,0:0|3:0,0:0:0:0:
299,215,145244,1,2,0:0:0:0:
227,296,145420,2,0,P|184:302|149:290,1,68,0|0,3:0|0:0,0:0:0:0:
89,163,145773,6,0,B|119:118|119:118|84:31|84:31|39:89,1,204,6|0,3:2|0:0,0:0:0:0:
39,247,146479,1,2,0:0:0:0:
173,212,146656,1,0,3:0:0:0:
83,339,146832,1,8,0:0:0:0:
89,163,147009,1,2,0:0:0:0:
227,296,147185,6,0,P|263:302|305:293,1,76.4999976654053,6|0,3:2|0:0,0:0:0:0:
249,158,147538,2,0,P|270:187|306:211,1,76.4999976654053,8|0,0:2|0:0,0:0:0:0:
359,75,147891,2,0,P|353:111|362:153,1,76.4999976654053,8|0,0:2|0:0,0:0:0:0:
499,105,148244,2,0,P|469:126|445:162,1,76.4999976654053,8|0,0:2|0:0,0:0:0:0:
399,304,148597,6,0,L|421:385,1,76.4999976654053,8|0,0:0|0:0,0:0:0:0:
301,294,148950,2,0,L|323:375,1,76.4999976654053,8|0,0:0|0:0,0:0:0:0:
201,284,149303,2,0,L|223:365,1,76.4999976654053,8|0,0:0|0:0,0:0:0:0:
238,189,149656,1,8,0:0:0:0:
105,247,149832,1,2,0:0:0:0:
190,101,150009,6,0,P|228:90|272:95,1,76.4999976654053,6|0,3:2|0:0,0:0:0:0:
422,150,150361,2,0,P|385:160|347:158,1,76.4999976654053,8|0,0:2|0:0,0:0:0:0:
190,101,150714,2,0,L|200:12,1,76.4999976654053,8|0,0:2|0:0,0:0:0:0:
58,88,151067,2,0,L|48:177,1,76.4999976654053,8|0,0:2|0:0,0:0:0:0:
172,268,151420,6,0,P|224:246|262:246,1,76.4999976654053,8|0,0:0|0:0,0:0:0:0:
334,377,151773,2,0,P|288:342|269:310,1,76.4999976654053,8|0,0:0|0:0,0:0:0:0:
348,182,152126,2,0,P|341:238|322:270,1,76.4999976654053,8|0,0:0|0:0,0:0:0:0:
299,90,152479,1,8,0:0:0:0:
433,145,152656,1,2,0:0:0:0:
243,244,152832,5,6,3:2:0:0:
192,63,153009,1,0,1:0:0:0:
348,182,153185,1,8,3:2:0:0:
153,165,153361,1,0,1:0:0:0:
307,5,153538,5,8,3:2:0:0:
250,226,153714,1,0,1:0:0:0:
104,26,153891,2,0,P|52:26|5:51,1,85,8|0,0:0|1:0,0:0:0:0:
133,287,154244,5,6,3:2:0:0:
281,102,154420,1,0,1:0:0:0:
293,340,154597,1,8,3:2:0:0:
153,165,154773,1,0,1:0:0:0:
416,142,154950,5,8,3:2:0:0:
248,257,155126,1,0,1:0:0:0:
184,12,155303,2,0,P|140:10|94:33,1,85,8|0,0:0|1:0,1:0:0:0:
53,294,155656,5,6,3:2:0:0:
88,312,155744,1,0,1:0:0:0:
124,323,155832,1,0,1:0:0:0:
161,326,155920,1,0,1:0:0:0:
199,320,156008,1,10,0:0:0:0:
236,306,156097,1,0,1:0:0:0:
267,285,156185,1,0,1:0:0:0:
293,257,156273,1,0,1:0:0:0:
313,224,156361,5,6,3:2:0:0:
284,197,156449,1,0,1:0:0:0:
252,178,156537,1,0,1:0:0:0:
215,166,156625,1,0,1:0:0:0:
176,164,156713,1,8,0:0:0:0:
141,172,156802,1,0,1:0:0:0:
106,187,156891,6,0,B|79:153|79:153|107:91,1,101.999996887207,6|2,3:2|0:0,0:0:0:0:
183,55,157420,2,0,P|209:64|235:64,1,50.9999984436036,2|0,0:0|0:0,0:0:0:0:
321,42,157773,5,2,0:0:0:0:
368,115,157950,5,2,0:0:0:0:
433,73,158126,5,2,0:0:0:0:
446,95,158303,5,2,0:0:0:0:
