osu file format v14

[General]
AudioFilename: audio.mp3
AudioLeadIn: 0
PreviewTime: 59652
Countdown: 0
SampleSet: Soft
StackLeniency: 0.3
Mode: 0
LetterboxInBreaks: 0
EpilepsyWarning: 1
WidescreenStoryboard: 1

[Editor]
DistanceSpacing: 1
BeatDivisor: 4
GridSize: 4
TimelineZoom: 1

[Metadata]
Title:Harenohi Step
TitleUnicode:ハレノヒステップ
Artist:Sasaki Shiori
ArtistUnicode:佐々木詩織
Creator:Kuse
Version:Easy
Source:カノジョ*ステップ
Tags:KuBsNia_ZhoYL_ Dored galgame smee kanojo eroge visual novel full ver opening video game japanese female vocals pop jpop
BeatmapID:2847081
BeatmapSetID:1376952

[Difficulty]
HPDrainRate:2.5
CircleSize:2.5
OverallDifficulty:3
ApproachRate:3.5
SliderMultiplier:0.899999999999999
SliderTickRate:1

[Events]
//Background and Video events
0,0,"bg.jpg",0,0
//Break Periods
2,88875,94606
//Storyboard Layer 0 (Background)
//Storyboard Layer 1 (Fail)
//Storyboard Layer 2 (Pass)
//Storyboard Layer 3 (Foreground)
//Storyboard Layer 4 (Overlay)
//Storyboard Sound Samples

[TimingPoints]
1764,444.444444444444,4,2,1,60,1,0
44430,-100,4,2,1,60,0,0
56875,-100,4,2,1,70,0,0
59986,-100,4,2,1,20,0,0
60430,-100,4,2,1,80,0,1
85208,-100,4,2,1,5,0,1
85319,-100,4,2,1,80,0,1
86875,-100,4,2,1,70,0,0
88208,-100,4,2,1,55,0,0
88652,-100,4,2,1,45,0,0
88875,-100,4,2,1,50,0,0
95986,-100,4,2,1,60,0,0
99430,-100,4,2,1,5,0,0
99541,-100,4,2,1,60,0,0
100541,-100,4,2,1,5,0,0
100652,-100,4,2,1,60,0,0
129763,-100,4,2,1,40,0,0
131097,-100,4,2,1,70,0,0
131541,-100,4,2,1,80,0,1
159986,-100,4,2,1,65,0,0
177652,-100,4,2,1,5,0,0
177763,-100,4,2,1,65,0,0
187986,-100,4,2,1,38,0,0
188430,-100,4,2,1,65,0,0
195319,-100,4,2,1,20,0,0
195541,-100,4,2,1,70,0,0
201763,-100,4,2,1,30,0,0
201875,-100,4,2,1,40,0,0
201986,-100,4,2,1,50,0,0
202097,-100,4,2,1,60,0,0
202208,-100,4,2,1,70,0,0
202652,-100,4,2,1,80,0,1
209097,-100,4,2,1,55,0,1
209319,-100,4,2,1,80,0,1
213208,-100,4,2,1,5,0,1
213319,-100,4,2,1,80,0,1
215319,-100,4,2,1,70,0,1
216875,-100,4,2,1,80,0,1
217319,-100,4,2,1,60,0,1
217763,-100,4,2,1,70,0,1
218208,-100,4,2,1,80,0,1
218430,-100,4,2,1,85,0,1
220208,-100,4,2,1,70,0,0
223763,-100,4,2,1,50,0,0

[Colours]
Combo1 : 168,168,255
Combo2 : 255,104,180
Combo3 : 238,238,0
Combo4 : 255,182,108

[HitObjects]
86,114,1764,6,0,P|129:80|177:82,1,89.9999999999999,6|2,1:2|0:0,0:0:0:0:
231,135,2652,2,0,P|273:169|326:165,1,89.9999999999999,0|2,0:0|0:0,0:0:0:0:
371,107,3541,2,0,B|416:86|483:95|483:95|498:148|475:180,1,180,0|2,0:0|0:0,0:0:0:0:
420,222,4875,1,0,0:0:0:0:
463,300,5319,6,0,P|420:342|370:341,1,89.9999999999999,2|2,1:2|0:0,0:0:0:0:
328,281,6208,2,0,P|289:247|241:246,1,89.9999999999999,0|2,0:0|0:0,0:0:0:0:
185,303,7097,2,0,B|139:331|70:324|70:324|81:259,1,180,0|2,0:0|0:0,0:0:0:0:
18,198,8430,1,0,0:0:0:0:
85,138,8875,6,0,P|130:151|161:195,1,89.9999999999999,2|2,1:2|0:0,0:0:0:0:
206,258,9763,2,0,P|245:288|314:278,1,89.9999999999999,0|2,0:0|0:0,0:0:0:0:
369,261,10652,2,0,P|404:293|458:187,1,180,0|2,0:0|0:0,0:0:0:0:
421,152,11986,1,0,0:0:0:0:
490,94,12430,6,0,P|449:55|407:52,1,89.9999999999999,2|2,1:2|0:0,0:0:0:0:
342,99,13319,2,0,P|312:133|260:138,1,89.9999999999999,0|2,0:0|0:0,0:0:0:0:
183,115,14208,2,0,L|168:16,2,89.9999999999999,0|0|2,0:0|0:0|0:0,0:0:0:0:
199,203,15541,1,2,0:0:0:0:
129,260,15986,6,0,B|151:309|151:309|209:338|304:321,1,180,6|2,1:2|0:0,0:0:0:0:
379,240,17541,2,0,L|374:135,1,89.9999999999999,2|2,0:0|0:0,0:0:0:0:
347,64,18430,1,2,0:0:0:0:
266,23,18875,1,2,0:0:0:0:
185,131,19541,6,0,P|123:120|59:201,1,135,2|2,1:2|0:0,0:0:0:0:
131,281,20875,1,2,0:0:0:0:
220,283,21319,2,0,L|232:388,1,89.9999999999999
319,382,22207,2,0,L|335:272,1,89.9999999999999,0|2,0:0|0:0,0:0:0:0:
415,258,23097,6,0,B|431:190|405:123|405:123|352:144,1,180,0|2,1:2|0:0,0:0:0:0:
243,80,24652,2,0,P|197:56|99:68,1,135,2|0,0:0|0:0,0:0:0:0:
52,125,25763,1,0,0:0:0:0:
110,193,26208,1,2,0:0:0:0:
47,257,26652,6,0,P|76:327|186:318,1,180,0|2,1:0|0:0,0:0:0:0:
291,270,28208,2,0,P|364:258|435:254,1,135,2|2,0:0|0:0,0:0:0:0:
501,207,29319,2,0,P|519:153|494:115,1,89.9999999999999,2|2,0:0|0:0,0:0:0:0:
423,88,30208,6,0,P|366:106|241:121,1,180,4|2,1:2|0:0,0:0:0:0:
117,83,31763,2,0,P|64:119|28:125,1,89.9999999999999,2|2,0:0|0:0,0:0:0:0:
2,206,32652,1,2,0:0:0:0:
40,287,33097,1,2,0:0:0:0:
166,241,33763,6,0,P|231:249|284:320,1,135,2|2,1:2|0:0,0:0:0:0:
357,339,34875,1,2,0:0:0:0:
430,287,35319,2,0,P|455:228|441:142,1,135,2|0,0:0|0:0,0:0:0:0:
373,108,36430,1,0,0:0:0:0:
297,157,36875,1,2,0:0:0:0:
237,89,37319,6,0,P|304:62|425:51,1,180,0|2,1:0|0:0,0:0:0:0:
509,141,38875,2,0,B|515:192|515:192|463:239|470:297,1,135,2|0,0:0|0:0,0:0:0:0:
401,318,39986,2,0,P|347:300|301:297,1,89.9999999999999,0|2,0:0|0:0,0:0:0:0:
243,353,40875,6,0,P|273:277|287:156,1,180,0|2,1:0|0:0,0:0:0:0:
186,90,42430,1,2,0:0:0:0:
95,90,42875,1,2,0:0:0:0:
36,158,43319,1,2,0:0:0:0:
96,224,43763,2,0,L|101:295,1,45,2|8,0:0|0:0,0:0:0:0:
155,339,44430,6,0,P|228:364|306:373,2,135,6|0|2,1:2|1:0|0:0,0:0:0:0:
70,306,46208,2,0,P|92:239|107:148,1,135,0|0,1:0|1:0,0:0:0:0:
99,40,47541,1,8,0:0:0:0:
189,35,47986,6,0,P|258:34|361:58,1,135,2|2,1:2|1:2,0:0:0:0:
393,101,49097,1,2,0:0:0:0:
453,167,49541,2,0,L|439:282,1,89.9999999999999,2|0,0:0|0:0,0:0:0:0:
353,274,50430,2,0,L|342:162,1,89.9999999999999,2|2,1:2|1:2,0:0:0:0:
229,113,51541,6,0,P|150:109|118:52,2,135,6|0|0,1:2|1:0|0:0,0:0:0:0:
302,61,53319,2,0,P|363:67|451:100,1,135,0|2,1:0|1:2,0:0:0:0:
497,209,54652,1,10,0:0:0:0:
429,268,55097,6,0,P|341:245|281:242,1,135,2|0,1:2|1:0,0:0:0:0:
175,300,56430,1,8,0:0:0:0:
107,240,56875,2,0,P|121:143|146:87,1,135,0|0,1:2|0:0,0:0:0:0:
210,60,57986,2,0,P|251:110|336:92,1,135,0|0,1:0|0:0,0:0:0:0:
316,107,60430,6,0,P|395:75|436:74,1,89.9999999999999,6|8,1:2|0:0,0:0:0:0:
481,110,61319,2,0,P|505:162|500:217,1,89.9999999999999,2|8,1:2|0:0,0:0:0:0:
460,272,62208,1,2,1:2:0:0:
388,325,62652,1,10,0:0:0:0:
317,268,63097,2,0,P|233:253|161:248,1,135,2|2,1:2|0:0,0:0:0:0:
103,290,64208,6,0,P|103:350|186:376,1,135,2|2,0:0|1:2,0:0:0:0:
239,333,65319,1,10,0:0:0:0:
324,359,65763,2,0,P|348:302|361:238,1,89.9999999999999,0|10,1:0|0:0,0:0:0:0:
291,210,66652,2,0,P|272:161|267:88,1,89.9999999999999,2|8,1:2|0:0,0:0:0:0:
313,47,67541,6,0,P|397:32|462:48,1,135,6|2,1:2|0:0,0:0:0:0:
394,165,68875,1,10,0:0:0:0:
456,229,69319,2,0,P|463:279|453:332,1,89.9999999999999,2|8,1:2|0:0,0:0:0:0:
376,357,70208,2,0,P|313:334|271:332,1,89.9999999999999,2|10,1:2|0:0,0:0:0:0:
215,281,71097,6,0,L|231:107,1,135,6|2,1:2|0:0,0:0:0:0:
180,69,72208,1,2,0:0:0:0:
116,133,72652,2,0,P|101:186|121:283,1,135,6|10,0:0|0:0,0:0:0:0:
184,317,73763,2,0,P|235:299|291:297,1,89.9999999999999,6|8,1:2|0:0,0:0:0:0:
320,220,74652,6,0,P|364:242|429:247,1,89.9999999999999,6|8,1:2|0:0,0:0:0:0:
434,163,75541,2,0,P|390:141|325:136,1,89.9999999999999,2|8,1:2|0:0,0:0:0:0:
261,149,76430,1,2,1:2:0:0:
219,68,76875,1,10,0:0:0:0:
131,88,77319,2,0,P|106:176|104:248,1,135,2|2,1:2|0:0,0:0:0:0:
170,279,78430,6,0,P|235:283|315:317,1,135,2|2,0:0|1:2,0:0:0:0:
389,294,79541,2,0,L|382:243,1,45,10|4,0:0|1:2,0:0:0:0:
439,126,80430,2,0,P|380:93|320:82,1,89.9999999999999,10|0,0:0|1:0,0:0:0:0:
298,19,81319,1,8,0:0:0:0:
249,94,81763,6,0,P|193:145|105:145,1,135,4|0,1:2|1:0,0:0:0:0:
60,201,82875,1,2,1:2:0:0:
44,289,83319,2,0,P|80:337|164:327,1,135,2|10,1:2|0:0,0:0:0:0:
203,264,84430,1,2,0:0:0:0:
270,323,84875,1,10,0:0:0:0:
342,270,85319,6,0,P|365:213|368:146,1,89.9999999999999,4|8,1:2|0:0,0:0:0:0:
293,135,86208,1,0,1:0:0:0:
343,60,86652,2,0,L|396:68,1,45,8|12,0:0|0:0,0:0:0:0:
387,66,95986,6,0,P|337:83|279:91,1,89.9999999999999,4|8,1:2|0:0,0:0:0:0:
214,62,96875,2,0,P|157:47|102:41,1,89.9999999999999,0|8,0:0|0:0,0:0:0:0:
50,91,97763,1,0,1:0:0:0:
60,180,98208,1,8,0:0:0:0:
126,240,98652,2,0,P|192:258|231:261,1,89.9999999999999,0|8,0:0|0:0,0:0:0:0:
288,210,99541,6,0,P|310:265|312:323,1,89.9999999999999,0|8,1:0|0:0,0:0:0:0:
391,339,100430,1,0,0:0:0:0:
456,276,100875,2,0,L|442:212,1,45,8|4,0:0|1:2,0:0:0:0:
500,160,101541,2,0,P|482:87|344:98,1,225,0|8,1:0|0:0,0:0:0:0:
283,144,103097,6,0,P|200:164|157:162,1,89.9999999999999,4|8,1:2|0:0,0:0:0:0:
115,122,103986,1,2,1:2:0:0:
39,233,104652,2,0,L|58:337,1,89.9999999999999,2|2,0:0|0:0,0:0:0:0:
144,332,105541,2,0,L|160:237,1,89.9999999999999,2|2,0:0|0:0,0:0:0:0:
292,224,106652,6,0,P|370:241|444:263,1,135,2|2,1:2|0:0,0:0:0:0:
506,221,107763,1,2,0:0:0:0:
493,131,108208,2,0,P|453:92|368:116,1,135,2|8,0:0|0:0,0:0:0:0:
303,152,109319,2,0,P|231:147|190:126,1,89.9999999999999,0|10,1:0|0:0,0:0:0:0:
130,171,110208,6,0,P|63:151|51:128,1,89.9999999999999,0|8,1:0|0:0,0:0:0:0:
57,47,111097,1,2,1:2:0:0:
187,10,111763,2,0,P|257:23|346:65,1,135,2|8,0:0|0:0,0:0:0:0:
375,114,112875,1,0,1:0:0:0:
312,178,113319,1,10,0:0:0:0:
373,243,113763,6,0,P|395:288|372:361,1,89.9999999999999,0|10,1:0|0:0,0:0:0:0:
320,381,114652,1,2,1:2:0:0:
203,309,115319,2,0,P|144:313|57:344,1,135,2|10,0:0|0:0,0:0:0:0:
15,266,116430,2,0,P|26:206|44:161,1,89.9999999999999,0|8,1:0|0:0,0:0:0:0:
111,129,117319,6,0,L|103:15,1,89.9999999999999,6|0,1:2|0:0,0:0:0:0:
193,27,118208,2,0,L|205:142,1,89.9999999999999,2|0,1:2|0:0,0:0:0:0:
269,176,119097,1,2,1:2:0:0:
345,128,119541,1,10,0:0:0:0:
419,177,119986,2,0,P|444:232|451:290,1,89.9999999999999,2|10,1:2|0:0,0:0:0:0:
361,280,120875,6,0,L|247:255,1,89.9999999999999,2|0,1:2|0:0,0:0:0:0:
248,347,121763,2,0,L|362:372,1,89.9999999999999,2|0,1:2|0:0,0:0:0:0:
424,383,122652,1,2,1:2:0:0:
499,334,123097,1,10,0:0:0:0:
449,260,123541,2,0,P|453:185|465:139,1,89.9999999999999,2|10,1:2|0:0,0:0:0:0:
474,78,124430,6,0,B|367:53|406:155|286:109,1,180,6|0,1:2|1:0,0:0:0:0:
205,28,125986,2,0,P|138:34|109:43,1,89.9999999999999,2|2,0:0|0:0,0:0:0:0:
62,112,126875,2,0,P|89:153|101:213,1,89.9999999999999,2|2,0:0|0:0,0:0:0:0:
37,257,127763,6,0,P|75:334|157:338,1,135,2|8,0:0|0:0,0:0:0:0:
182,284,128875,1,0,1:0:0:0:
253,338,129319,1,8,0:0:0:0:
313,271,129763,2,0,L|307:215,2,45,2|10|0,1:2|0:0|1:0,0:0:0:0:
483,285,131541,6,0,P|439:274|400:252,1,89.9999999999999,6|8,1:2|0:0,0:0:0:0:
340,185,132430,2,0,P|336:140|315:101,1,89.9999999999999,2|8,1:2|0:0,0:0:0:0:
257,32,133319,1,2,1:2:0:0:
167,21,133763,1,10,0:0:0:0:
134,105,134208,2,0,P|46:125|-10:153,1,135,2|2,1:2|0:0,0:0:0:0:
44,224,135319,6,0,P|97:242|127:310,1,135,2|2,0:0|1:2,0:0:0:0:
192,373,136430,1,10,0:0:0:0:
256,309,136875,2,0,P|279:256|263:189,1,89.9999999999999,4|10,1:2|0:0,0:0:0:0:
364,199,137763,2,0,P|372:255|416:303,1,89.9999999999999,2|8,1:2|0:0,0:0:0:0:
460,338,138652,6,0,P|393:328|328:343,1,135,6|2,1:2|0:0,0:0:0:0:
222,259,139986,1,10,0:0:0:0:
143,303,140430,2,0,P|133:261|142:202,1,89.9999999999999,2|8,1:2|0:0,0:0:0:0:
200,150,141319,2,0,P|244:157|285:175,1,89.9999999999999,2|10,1:2|0:0,0:0:0:0:
371,149,142208,6,0,L|387:-25,1,135,6|2,1:2|0:0,0:0:0:0:
472,4,143319,1,2,0:0:0:0:
499,89,143763,2,0,P|506:146|504:239,1,135,6|10,0:0|0:0,0:0:0:0:
424,262,144874,2,0,P|373:244|317:242,1,89.9999999999999,6|8,1:2|0:0,0:0:0:0:
268,298,145763,6,0,P|217:314|153:317,1,89.9999999999999,6|8,1:2|0:0,0:0:0:0:
101,274,146652,2,0,P|87:228|89:159,1,89.9999999999999,2|8,1:2|0:0,0:0:0:0:
110,99,147541,1,2,1:2:0:0:
189,56,147986,1,10,0:0:0:0:
255,116,148430,2,0,P|302:163|380:142,1,135,2|2,1:2|0:0,0:0:0:0:
402,72,149541,6,0,P|342:36|264:37,1,135,2|2,0:0|1:2,0:0:0:0:
196,71,150652,2,0,L|200:129,1,45,10|4,0:0|1:2,0:0:0:0:
207,250,151541,2,0,L|215:364,1,89.9999999999999,10|0,0:0|1:0,0:0:0:0:
295,375,152430,1,8,0:0:0:0:
360,312,152874,6,0,P|354:248|276:221,1,135,4|0,1:2|1:0,0:0:0:0:
227,158,153986,1,2,1:2:0:0:
155,212,154430,2,0,P|89:214|48:164,1,135,2|10,1:2|0:0,0:0:0:0:
43,74,155541,1,2,0:0:0:0:
110,14,155986,1,10,0:0:0:0:
180,70,156430,6,0,P|234:91|282:93,1,89.9999999999999,4|8,1:2|0:0,0:0:0:0:
336,37,157319,1,0,1:0:0:0:
404,95,157763,2,0,L|457:103,1,45,8|12,0:0|0:0,0:0:0:0:
436,191,158430,1,8,0:0:0:0:
427,280,158875,1,8,0:0:0:0:
415,369,159319,2,0,L|355:363,1,45,8|8,0:0|0:0,0:0:0:0:
303,304,159986,6,0,P|264:287|211:282,1,89.9999999999999,6|8,1:2|0:0,0:0:0:0:
144,335,160875,1,0,1:0:0:0:
64,293,161319,1,8,0:0:0:0:
82,205,161763,2,0,P|117:177|166:167,1,89.9999999999999,2|8,1:2|0:0,0:0:0:0:
250,169,162652,1,0,1:0:0:0:
273,82,163097,1,8,0:0:0:0:
356,48,163541,6,0,P|436:77|438:136,2,135,2|2|10,0:0|0:0|0:0,0:0:0:0:
273,82,165319,2,0,L|137:47,1,135,2|2,1:2|0:0,0:0:0:0:
35,131,166652,1,10,0:0:0:0:
108,183,167097,6,0,P|96:217|158:295,1,135,2|2,1:2|0:0,0:0:0:0:
270,236,168430,1,10,0:0:0:0:
329,303,168875,2,0,P|392:317|440:251,1,135,2|2,1:2|0:0,0:0:0:0:
484,144,170208,1,10,0:0:0:0:
398,172,170652,6,0,L|246:152,2,135,2|2|2,1:2|0:0|0:0,0:0:0:0:
383,83,172430,2,0,B|233:63|233:63|196:98|196:98|111:79,1,270,6|8,1:2|0:0,0:0:0:0:
39,76,174208,6,0,L|50:196,1,89.9999999999999,6|8,1:2|0:0,0:0:0:0:
77,251,175097,2,0,P|116:278|171:289,1,89.9999999999999,2|8,0:0|0:0,0:0:0:0:
232,239,175986,2,0,P|278:209|328:201,1,89.9999999999999,2|8,1:2|0:0,0:0:0:0:
386,151,176875,2,0,L|397:52,1,89.9999999999999,2|8,0:0|0:0,0:0:0:0:
480,30,177763,6,0,P|511:83|495:164,1,135,6|2,1:2|1:2,0:0:0:0:
437,216,178875,1,0,1:0:0:0:
358,171,179319,1,6,1:2:0:0:
270,192,179763,1,2,1:2:0:0:
233,274,180208,1,6,1:2:0:0:
202,358,180652,2,0,L|136:344,1,45,2|8,1:2|0:0,0:0:0:0:
94,285,181319,6,0,P|120:217|198:218,1,135,6|0,1:2|1:2,0:0:0:0:
233,274,182430,1,2,1:2:0:0:
313,233,182875,2,0,L|452:227,1,135,2|10,1:2|0:0,0:0:0:0:
470,140,183986,2,0,L|366:145,1,89.9999999999999,8|10,0:0|0:0,0:0:0:0:
301,100,184875,6,0,P|259:73|186:65,1,89.9999999999999,6|0,1:2|1:0,0:0:0:0:
132,82,185763,2,0,P|107:150|114:192,1,89.9999999999999,0|10,1:0|0:0,0:0:0:0:
134,202,186430,2,0,P|199:259|52:281,1,315,6|12,1:2|0:3,0:0:0:0:
47,214,188430,5,0,1:0:0:0:
170,82,189319,2,0,L|246:68,2,67.4999999999999,0|0|0,1:0|1:0|1:0,0:0:0:0:
393,107,191097,2,0,L|469:93,2,67.4999999999999,0|0|0,1:0|1:0|1:0,0:0:0:0:
308,315,192875,2,0,L|232:329,2,67.4999999999999,0|0|0,1:0|1:0|1:0,0:0:0:0:
443,203,195541,6,0,P|443:272|425:330,1,89.9999999999999,6|2,1:2|1:2,0:0:0:0:
354,323,196430,2,0,P|298:301|248:296,1,89.9999999999999,0|2,1:0|1:2,0:0:0:0:
187,257,197319,1,2,1:2:0:0:
217,172,197763,1,0,1:0:0:0:
149,112,198208,2,0,P|82:115|36:129,1,89.9999999999999,2|2,1:2|1:2,0:0:0:0:
18,200,199097,6,0,P|22:271|81:297,1,135,2|2,1:2|0:0,0:0:0:0:
159,269,200208,1,2,0:0:0:0:
234,318,200652,2,0,P|291:309|367:264,1,135,2|2,0:0|1:2,0:0:0:0:
333,185,201763,2,0,P|334:120|355:81,1,89.9999999999999,8|8,0:0|0:0,0:0:0:0:
303,17,202652,6,0,P|258:24|219:45,1,89.9999999999999,6|8,1:2|0:0,0:0:0:0:
153,107,203541,2,0,P|109:85|44:80,1,89.9999999999999,2|8,1:2|0:0,0:0:0:0:
0,137,204430,1,2,1:2:0:0:
22,224,204875,1,10,0:0:0:0:
105,191,205319,2,0,P|186:203|260:242,1,135,2|2,1:2|0:0,0:0:0:0:
214,312,206430,6,0,P|263:356|335:303,1,135,2|2,0:0|1:2,0:0:0:0:
373,259,207541,2,0,L|366:208,1,45,10|4,0:0|1:2,0:0:0:0:
433,96,208430,2,0,P|493:104|517:160,1,89.9999999999999,10|0,0:0|1:0,0:0:0:0:
455,196,209319,1,8,0:0:0:0:
501,273,209763,6,0,P|461:338|386:333,1,135,4|0,1:2|1:0,0:0:0:0:
345,277,210875,1,2,1:2:0:0:
280,340,211319,2,0,P|237:325|140:320,1,135,2|10,1:2|0:0,0:0:0:0:
60,298,212430,1,2,0:0:0:0:
13,220,212875,1,10,0:0:0:0:
78,158,213319,6,0,P|101:101|104:34,1,89.9999999999999,4|8,1:2|0:0,0:0:0:0:
168,8,214208,1,0,1:0:0:0:
241,60,214652,2,0,L|294:68,1,45,8|12,0:0|0:0,0:0:0:0:
366,26,215319,1,8,0:0:0:0:
440,76,215763,1,8,0:0:0:0:
459,163,216208,2,0,L|449:226,1,45,8|8,0:0|0:0,0:0:0:0:
372,249,216875,6,0,P|316:202|196:223,1,180,4|0,1:2|1:0,0:0:0:0:
164,285,218208,2,0,L|170:340,1,45,8|12,0:0|0:0,0:0:0:0:
256,192,220208,12,4,223763,0:1:0:0:
