osu file format v14

[General]
AudioFilename: audio.mp3
AudioLeadIn: 0
PreviewTime: 219086
Countdown: 0
SampleSet: Soft
StackLeniency: 0.4
Mode: 0
LetterboxInBreaks: 0
WidescreenStoryboard: 1

[Editor]
Bookmarks: 29385,63876,75193,121361,144355,155672,178846,224116,251960
DistanceSpacing: 0.9
BeatDivisor: 4
GridSize: 32
TimelineZoom: 2

[Metadata]
Title:Yume to Iro de Dekiteiru
TitleUnicode:夢と色でできている
Artist:Sasaki Sayaka
ArtistUnicode:佐咲紗花
Creator:kazu2411
Version:gaziblaze's Collab Insane
Source:夢と色でできている
Tags:yume to iro de dekiteiru eroge op opening visual novel feng 8th video game japanese 堀江晶太 Horie Shouta pop jpop j-pop gazimal dkblaze
BeatmapID:2922983
BeatmapSetID:1394924

[Difficulty]
HPDrainRate:5
CircleSize:3.8
OverallDifficulty:8
ApproachRate:9
SliderMultiplier:1.4
SliderTickRate:1

[Events]
//Background and Video events
0,0,"yumet to iro de dekiteiru.jpg",0,0
//Break Periods
2,18092,28789
2,109864,120765
2,219200,223520
//Storyboard Layer 0 (Background)
//Storyboard Layer 1 (Fail)
//Storyboard Layer 2 (Pass)
//Storyboard Layer 3 (Foreground)
//Storyboard Layer 4 (Overlay)
//Storyboard Sound Samples

[TimingPoints]
647,359.281437125748,4,2,5,60,1,0
647,-166.666666666667,4,2,5,35,0,0
826,-166.666666666667,4,2,1,35,0,0
3521,-166.666666666667,4,2,5,35,0,0
3700,-166.666666666667,4,2,1,35,0,0
6395,-125,4,2,5,45,0,0
6575,-125,4,2,1,45,0,0
8910,-125,4,2,2,45,0,0
9090,-100,4,2,1,60,0,0
11964,-100,4,2,2,60,0,0
12144,-100,4,2,1,60,0,0
12503,-100,4,2,2,60,0,0
12682,-100,4,2,1,60,0,0
13042,-100,4,2,2,60,0,0
13221,-100,4,2,1,60,0,0
13491,-100,4,2,2,60,0,0
13581,-100,4,2,1,60,0,0
13940,-100,4,2,2,60,0,0
14120,-100,4,2,1,60,0,0
14479,-100,4,2,2,60,0,0
14658,-100,4,2,1,60,0,0
16006,-100,4,2,2,60,0,0
16096,-100,4,2,1,60,0,0
20766,-100,4,2,5,60,0,0
21126,-100,4,2,1,60,0,0
22203,-100,4,2,5,60,0,0
22922,-100,4,2,1,60,0,0
25078,-100,4,2,5,60,0,0
25437,-100,4,2,1,60,0,0
26515,-100,4,2,5,60,0,0
26874,-100,4,2,1,60,0,0
27952,-100,4,2,5,60,0,0
28311,-100,4,2,1,60,0,0
29389,-125,4,2,1,45,0,0
30826,-125,4,2,5,45,0,0
31185,-125,4,2,1,45,0,0
32263,-125,4,2,5,45,0,0
32623,-125,4,2,1,45,0,0
33700,-125,4,2,5,45,0,0
34419,-125,4,2,1,45,0,0
35138,-166.666666666667,4,2,5,45,0,0
35317,-125,4,2,1,45,0,0
39090,-125,4,2,1,60,0,0
39988,-100,4,2,1,60,0,0
40347,-100,4,2,2,60,0,0
40886,-100,4,2,1,60,0,0
58042,-100,4,2,2,60,0,0
58132,-100,4,2,1,60,0,0
63341,-100,4,2,2,60,0,0
63880,-100,4,2,1,60,0,0
71964,-100,4,2,2,60,0,0
72323,-100,4,2,1,60,0,0
74120,-100,4,2,2,60,0,0
75197,-83.3333333333333,4,2,1,80,0,1
80676,-83.3333333333333,4,2,2,80,0,1
80946,-83.3333333333333,4,2,1,80,0,1
85617,-83.3333333333333,4,2,2,80,0,1
85976,-83.3333333333333,4,2,1,80,0,1
86694,-71.4285714285714,4,2,1,80,0,1
87054,-83.3333333333333,4,2,1,80,0,1
92173,-83.3333333333333,4,2,2,80,0,1
92443,-83.3333333333333,4,2,1,80,0,1
96754,-71.4285714285714,4,2,1,80,0,1
97832,-71.4285714285714,4,2,2,80,0,1
98371,-83.3333333333333,4,2,6,80,0,1
101335,-83.3333333333333,4,2,1,80,0,1
101425,-83.3333333333333,4,2,6,80,0,1
102772,-83.3333333333333,4,2,1,80,0,1
102862,-83.3333333333333,4,2,6,80,0,1
102952,-83.3333333333333,4,2,1,80,0,1
103042,-83.3333333333333,4,2,6,80,0,1
103132,-83.3333333333333,4,2,1,80,0,1
103221,-83.3333333333333,4,2,6,80,0,1
103401,-83.3333333333333,4,2,1,80,0,1
103581,-83.3333333333333,4,2,2,80,0,1
104120,-83.3333333333333,4,2,1,80,0,1
106994,-71.4285714285714,4,2,1,80,0,1
107263,-71.4285714285714,4,2,2,80,0,1
108970,-83.3333333333333,4,2,1,60,0,0
121365,-100,4,2,1,60,0,0
142383,-100,4,2,2,60,0,0
142563,-100,4,2,1,60,0,0
142832,-100,4,2,2,60,0,0
142922,-100,4,2,1,60,0,0
143191,-100,4,2,2,60,0,0
143461,-100,4,2,1,60,0,0
143641,-100,4,2,2,60,0,0
143820,-100,4,2,1,60,0,0
144179,-100,4,2,2,60,0,0
144359,-100,4,2,1,60,0,0
149748,-100,4,2,2,60,0,0
150108,-100,4,2,1,60,0,0
152443,-100,4,2,2,60,0,0
152802,-90.9090909090909,4,2,1,60,0,0
153161,-90.9090909090909,4,2,2,60,0,0
154239,-90.9090909090909,4,2,1,60,0,0
154958,-83.3333333333333,4,2,1,60,0,0
155676,-83.3333333333333,4,2,1,80,0,1
161155,-83.3333333333333,4,2,2,80,0,1
161425,-83.3333333333333,4,2,1,80,0,1
166096,-83.3333333333333,4,2,2,80,0,1
166814,-142.857142857143,4,2,1,80,0,1
167173,-71.4285714285714,4,2,1,80,0,1
167712,-83.3333333333333,4,2,1,80,0,1
172652,-83.3333333333333,4,2,2,80,0,1
172922,-83.3333333333333,4,2,1,80,0,1
176874,-83.3333333333333,4,2,2,80,0,1
177054,-83.3333333333333,4,2,1,80,0,1
177593,-83.3333333333333,4,2,2,80,0,1
178850,-76.9230769230769,4,2,6,70,0,0
190347,-142.857142857143,4,2,1,70,0,0
191425,-142.857142857143,4,2,1,60,0,0
193042,-100,4,2,1,60,0,0
193221,-125,4,2,1,60,0,0
194479,-125,4,2,2,60,0,0
194658,-100,4,2,1,60,0,0
195018,-100,4,2,2,60,0,0
196096,-200,4,2,1,60,0,0
196814,-90.9090909090909,4,2,1,60,0,0
197353,-100,4,2,1,60,0,0
197533,-166.666666666667,4,2,1,60,0,0
198251,-100,4,2,1,60,0,0
200407,-83.3333333333333,4,2,1,60,0,0
201754,-83.3333333333333,4,2,2,60,0,0
201844,-83.3333333333333,4,2,1,60,0,0
202203,-83.3333333333333,4,2,2,60,0,0
203281,-83.3333333333333,4,2,1,60,0,0
203551,-83.3333333333333,4,2,2,60,0,0
204718,-83.3333333333333,4,2,1,60,0,0
205078,-83.3333333333333,4,2,2,60,0,0
206156,-83.3333333333333,4,2,1,60,0,0
206425,-83.3333333333333,4,2,2,60,0,0
207593,-83.3333333333333,4,2,1,60,0,0
211904,-76.9230769230769,4,2,1,60,0,0
212533,-76.9230769230769,4,2,2,60,0,0
213341,-333.333333333333,4,2,5,60,0,0
214868,-333.333333333333,4,2,5,5,0,0
214958,-142.857142857143,4,2,1,60,0,0
215497,-142.857142857143,4,2,1,60,0,0
215856,-90.9090909090909,4,2,1,60,0,0
216215,-71.4285714285714,4,2,1,60,0,0
224120,-125,4,2,1,60,0,0
225557,-125,4,2,6,35,0,0
226635,-100,4,2,6,60,0,0
226994,-83.3333333333333,4,2,1,60,0,0
227173,-83.3333333333333,4,2,2,60,0,0
227533,-83.3333333333333,4,2,1,60,0,0
227892,-83.3333333333333,4,2,2,60,0,0
228431,-83.3333333333333,4,2,1,60,0,0
228611,-83.3333333333333,4,2,2,60,0,0
228970,-83.3333333333333,4,2,1,60,0,0
229329,-83.3333333333333,4,2,2,60,0,0
229868,-83.3333333333333,4,2,2,60,0,1
229958,-83.3333333333333,4,2,2,60,0,0
230407,-71.4285714285714,4,2,1,80,0,1
235886,-71.4285714285714,4,2,2,80,0,1
236155,-71.4285714285714,4,2,1,80,0,1
239748,-71.4285714285714,4,2,2,80,0,1
239928,-71.4285714285714,4,2,1,80,0,1
240108,-71.4285714285714,4,2,2,80,0,1
240467,-71.4285714285714,4,2,1,80,0,1
240826,-71.4285714285714,4,2,2,80,0,1
242084,-71.4285714285714,4,2,6,80,0,1
245048,-71.4285714285714,4,2,1,80,0,1
245138,-71.4285714285714,4,2,6,80,0,1
246485,-71.4285714285714,4,2,1,80,0,1
246575,-71.4285714285714,4,2,6,80,0,1
246664,-71.4285714285714,4,2,1,80,0,1
246754,-71.4285714285714,4,2,6,80,0,1
246844,-71.4285714285714,4,2,1,80,0,1
246934,-71.4285714285714,4,2,6,80,0,1
247114,-71.4285714285714,4,2,1,80,0,1
247383,-71.4285714285714,4,2,2,80,0,1
247832,-71.4285714285714,4,2,1,80,0,1
249808,-71.4285714285714,4,2,2,80,0,1
250078,-71.4285714285714,4,2,1,80,0,1
250167,-71.4285714285714,4,2,2,80,0,1
250706,-71.4285714285714,4,2,1,80,0,1
253042,-71.4285714285714,4,2,2,80,0,1
253581,-71.4285714285714,4,2,1,80,0,1
255018,-71.4285714285714,4,2,2,80,0,1
255557,-71.4285714285714,4,2,1,80,0,1
256455,-83.3333333333333,4,2,1,60,0,0
260407,-71.4285714285714,4,2,2,60,0,0
262203,-83.3333333333333,4,2,2,60,0,0
262563,-83.3333333333333,4,2,1,60,0,0
264898,-83.3333333333333,4,2,2,60,0,0
265078,-83.3333333333333,4,2,1,60,0,0
266155,-83.3333333333333,4,2,2,60,0,0
266335,-62.5,4,2,1,60,0,0
266694,-62.5,4,2,2,60,0,0
267233,-62.5,4,2,1,60,0,0
267772,-62.5,4,2,2,60,0,0
267952,-100,4,2,1,60,0,0
268311,-100,4,2,2,60,0,0
273700,-83.3333333333333,4,2,2,60,0,0
274419,-100,4,2,2,60,0,0
276575,-100,4,2,5,60,0,0
276754,-100,4,2,2,60,0,0
278012,-71.4285714285714,4,2,2,60,0,0
278910,-71.4285714285714,4,2,1,60,0,0

[Colours]
Combo1 : 197,163,254
Combo2 : 254,192,241
Combo3 : 212,212,212

[HitObjects]
137,206,647,6,0,P|139:232|145:263,2,41.9999987182618,2|2|2,0:2|0:2|0:2,0:0:0:0:
24,166,1185,2,0,P|32:117|37:70,1,83.9999974365235,2|2,0:2|0:2,0:0:0:0:
128,13,1724,1,2,0:2:0:0:
201,100,1904,2,0,P|244:93|301:86,1,83.9999974365235,2|0,0:2|0:2,0:2:0:0:
402,67,2443,1,2,0:2:0:0:
402,67,2623,1,2,0:2:0:0:
402,67,2982,2,0,P|404:93|410:124,2,41.9999987182618,2|2|2,0:2|0:2|0:2,0:0:0:0:
498,194,3521,6,0,P|500:167|506:137,2,41.9999987182618,2|2|2,0:2|0:2|0:2,0:0:0:0:
382,224,4060,2,0,P|386:265|393:307,1,83.9999974365235,2|2,0:2|0:2,0:0:0:0:
299,374,4599,1,2,0:2:0:0:
234,281,4778,2,0,P|190:288|134:295,1,83.9999974365235,2|0,0:2|0:2,0:2:0:0:
38,308,5317,1,2,0:2:0:0:
38,308,5497,1,2,0:2:0:0:
38,308,5856,2,0,P|44:284|46:252,2,41.9999987182618,2|2|2,0:2|0:2|0:2,0:0:0:0:
14,135,6395,6,0,B|55:129|55:129|80:157|80:157|134:171,1,112,2|2,0:2|0:2,0:0:0:0:
190,70,6934,2,0,L|133:84,1,56,2|0,0:2|0:2,0:2:0:0:
0,47,7293,1,2,0:2:0:0:
0,47,7473,1,2,0:2:0:0:
14,135,7652,2,0,L|28:192,1,56,2|0,0:2|0:2,0:2:0:0:
38,308,8012,5,2,0:2:0:0:
105,249,8191,1,2,0:2:0:0:
185,349,8371,2,0,L|129:343,1,56,2|0,0:2|0:2,0:2:0:0:
206,262,8730,2,0,L|248:266,1,28,8|0,0:2|0:0,0:0:0:0:
365,278,8910,5,8,0:2:0:0:
365,278,9000,1,8,0:2:0:0:
365,278,9090,2,0,P|352:198|283:172,1,140,4|0,3:2|3:2,0:2:0:0:
151,171,9629,2,0,L|158:101,1,70,8|0,0:2|3:2,0:2:0:0:
165,72,9898,1,8,3:2:0:0:
165,72,9988,1,0,3:2:0:0:
243,137,10167,1,0,3:2:0:0:
296,49,10347,2,0,L|369:56,1,70,8|0,0:2|0:2,0:0:0:0:
471,72,10706,5,0,3:2:0:0:
409,159,10886,1,0,3:2:0:0:
489,230,11066,2,0,P|483:269|480:311,1,70,8|0,0:2|0:0,0:0:0:0:
476,335,11335,1,8,0:2:0:0:
476,335,11425,1,0,3:2:0:0:
394,265,11605,1,0,3:2:0:0:
295,359,11784,1,12,0:2:0:0:
219,249,11964,5,8,0:2:0:0:
219,249,12054,1,8,0:2:0:0:
219,249,12144,2,0,P|255:250|291:256,2,70,6|2|10,3:2|3:2|3:2,0:2:0:0:
108,164,12682,2,0,P|73:170|36:171,1,70,10|0,0:2|3:2,0:0:0:0:
213,133,13042,1,10,0:2:0:0:
213,133,13132,1,8,0:0:0:0:
213,133,13221,2,0,P|207:98|204:54,1,70,10|2,3:2|0:2,0:2:0:0:
373,108,13581,6,0,P|378:171|371:266,1,140,10|8,3:2|3:2,0:0:0:0:
228,283,14120,2,0,P|258:258|299:257,1,70,8|0,0:2|3:2,0:0:0:0:
455,260,14479,1,8,0:2:0:0:
455,260,14569,1,8,0:0:0:0:
455,260,14658,2,0,P|488:271|510:298,1,70,8|2,3:2|0:2,0:2:0:0:
373,247,15018,6,0,P|376:210|376:169,2,70,10|0|2,0:2|0:2|3:2,0:0:0:0:
366,352,15557,2,0,P|328:344|286:341,1,70,10|0,0:2|3:2,0:0:0:0:
136,278,15916,1,2,0:2:0:0:
136,278,16006,1,8,0:0:0:0:
136,278,16096,2,0,P|174:270|216:267,1,70,8|2,3:2|0:2,0:2:0:0:
268,127,16455,6,0,P|201:114|178:175,1,140,8|0,3:2|3:2,0:0:0:0:
303,236,16994,2,0,P|337:243|372:246,1,70,8|0,0:2|3:0,0:2:0:0:
484,185,17353,5,0,3:3:0:0:
392,151,17533,1,0,3:2:0:0:
384,70,17712,1,0,3:3:0:0:
448,26,17892,1,4,3:2:0:0:
256,64,29389,5,6,3:2:0:0:
179,161,29748,1,0,0:0:0:0:
179,161,29928,2,0,P|139:148|61:130,1,112,2|0,0:0|0:0,0:0:0:0:
94,38,30467,2,0,P|119:30|159:13,1,56,2|2,0:0|0:0,0:0:0:0:
256,64,30826,6,0,B|220:147|320:131|280:228,1,168,2|2,0:2|0:2,0:2:0:0:
283,218,31904,1,2,0:0:0:0:
283,218,32263,6,0,P|211:191|161:179,1,112,2|2,0:0|0:2,0:0:0:0:
177,182,32802,1,2,0:2:0:0:
86,261,33341,2,0,P|83:239|74:200,1,56,2|0,0:0|0:0,0:0:0:0:
56,125,33700,5,2,0:2:0:0:
56,125,34419,2,0,P|48:166|43:192,1,56
86,261,34778,1,0,0:0:0:0:
240,168,34958,1,0,0:0:0:0:
173,230,35138,2,0,P|189:305|195:345,1,104.999996795654,2|0,0:0|0:0,0:0:0:0:
207,344,35676,6,0,B|266:357|266:357|305:318|305:318|372:333,1,168,2|2,0:0|0:0,0:0:0:0:
356,329,36575,5,0,0:2:0:0:
346,307,36754,1,2,0:2:0:0:
456,239,37114,1,2,0:2:0:0:
456,239,37293,6,0,P|459:204|475:126,1,112,2|2,0:2|0:2,0:0:0:0:
365,170,38012,5,2,0:0:0:0:
365,170,38191,2,0,P|356:139|369:106,1,56,0|2,0:0|0:2,0:0:0:0:
491,46,38551,2,0,P|444:35|371:21,1,112,2|0,0:2|0:2,0:2:0:0:
225,17,39090,5,10,0:2:0:0:
297,85,39269,1,2,3:2:0:0:
143,137,39449,5,8,3:2:0:0:
297,85,39629,1,0,3:2:0:0:
297,85,39808,1,0,3:2:0:0:
188,241,39988,6,0,P|148:227|72:207,1,105,4|0,0:2|0:2,0:2:0:0:
6,223,40347,2,0,P|13:241|18:257,1,35,8|8,0:2|0:2,0:0:0:0:
14,384,40527,1,0,3:2:0:0:
26,366,40617,1,8,0:2:0:0:
44,356,40706,1,8,0:2:0:0:
65,354,40796,1,8,0:2:0:0:
84,360,40886,6,0,P|111:352|229:323,1,140,4|8,3:2|0:2,0:2:0:0:
392,315,41425,2,0,P|398:358|378:392,1,70,2|0,0:2|0:0,0:2:0:0:
308,342,41784,1,2,3:2:0:0:
393,214,41964,1,10,0:2:0:0:
393,214,42144,1,2,0:2:0:0:
292,245,42323,6,0,P|252:233|178:210,1,105,2|0,3:2|3:2,0:2:0:0:
180,218,42682,1,10,0:2:0:0:
85,119,42862,2,0,P|136:138|201:90,1,140,2|0,3:2|3:2,0:2:0:0:
280,138,43401,1,10,0:2:0:0:
371,60,43581,1,0,0:0:0:0:
371,60,43670,1,8,0:2:0:0:
371,60,43760,6,0,P|380:120|384:153,1,70,2|0,3:2|0:0,0:2:0:0:
382,154,44030,1,0,3:2:0:0:
382,154,44120,1,8,0:2:0:0:
498,263,44299,2,0,B|472:222|472:222|358:252,1,140,0|2,3:2|3:2,0:2:0:0:
346,325,44838,1,10,0:2:0:0:
283,265,45018,1,2,0:2:0:0:
149,384,45197,6,0,P|152:352|161:273,1,105,0|0,3:2|3:2,0:2:0:0:
164,264,45557,1,8,0:2:0:0:
239,186,45736,1,0,3:2:0:0:
175,101,45916,1,2,0:2:0:0:
175,101,46096,1,2,3:2:0:0:
87,163,46275,2,0,P|49:158|27:114,1,70,10|2,0:2|0:2,0:2:0:0:
74,19,46635,6,0,P|120:6|161:-6,1,70,0|0,3:2|0:0,0:2:0:0:
259,69,46994,1,10,0:2:0:0:
259,69,47173,2,0,P|252:125|249:150,1,70,2|0,3:2|0:0,0:2:0:0:
405,177,47533,2,0,P|400:140|392:92,1,70,2|8,3:2|0:2,0:0:0:0:
378,7,47892,1,2,0:2:0:0:
268,61,48072,6,0,P|237:51|181:36,1,70,0|0,3:2|0:0,0:2:0:0:
188,46,48341,1,0,3:2:0:0:
188,46,48431,1,10,0:2:0:0:
128,156,48611,2,0,P|144:188|189:196,1,70,2|0,0:2|0:0,0:2:0:0:
295,148,48970,2,0,P|284:201|281:243,1,70,2|8,3:2|0:2,0:0:0:0:
262,315,49329,1,0,0:0:0:0:
364,381,49509,6,0,P|380:356|452:357,1,105,2|2,3:2|3:2,0:2:0:0:
455,368,49868,1,8,0:2:0:0:
500,274,50048,2,0,P|502:258|513:128,1,140,2|2,3:2|3:2,0:2:0:0:
397,63,50587,2,0,P|405:115|407:133,1,70,8|0,0:2|0:2,0:0:0:0:
321,217,50946,6,0,P|316:182|311:147,1,70,2|0,3:2|0:0,0:2:0:0:
305,130,51215,1,0,3:2:0:0:
305,130,51305,1,8,0:2:0:0:
164,84,51485,2,0,B|233:71|204:21|299:5,1,140,2|2,3:2|3:2,0:2:0:0:
367,65,52024,1,10,3:2:0:0:
305,130,52203,1,2,0:2:0:0:
153,76,52383,6,0,P|169:175|174:209,1,105,6|0,3:2|3:2,0:2:0:0:
180,190,52742,1,8,0:0:0:0:
234,273,52922,2,0,P|199:232|114:263,1,140,2|0,3:2|3:0,0:0:0:0:
108,380,53461,1,10,0:2:0:0:
48,306,53641,1,2,0:2:0:0:
198,347,53820,6,0,P|233:334|311:313,1,105,2|0,3:2|3:2,0:2:0:0:
313,313,54179,1,8,0:2:0:0:
180,210,54359,2,0,P|210:221|263:234,1,70,0|0,3:2|0:2,0:2:0:0:
388,262,54718,1,2,3:2:0:0:
334,185,54898,1,10,0:2:0:0:
334,185,55078,1,2,0:0:0:0:
474,142,55257,6,0,P|430:147|386:84,1,105,0|0,3:0|3:2,0:0:0:0:
392,93,55617,1,10,0:2:0:0:
239,3,55796,2,0,P|230:67|226:143,1,140,2|0,3:2|3:2,0:2:0:0:
73,229,56335,1,10,0:2:0:0:
161,205,56515,1,2,0:0:0:0:
56,222,56694,6,0,P|46:202|73:144,1,70,0|0,3:0|3:2,0:0:0:0:
75,77,56964,1,0,3:0:0:0:
85,72,57054,2,0,P|113:77|168:88,1,70,8|0,0:2|3:2,0:0:0:0:
356,128,57413,1,2,0:2:0:0:
314,47,57593,1,2,3:2:0:0:
314,47,57772,1,10,0:2:0:0:
230,149,57952,2,0,P|235:167|239:187,1,35,2|8,0:2|0:2,0:0:0:0:
319,226,58132,6,0,P|308:296|303:347,1,105,4|0,3:2|3:2,0:2:0:0:
302,348,58491,1,8,0:0:0:0:
400,304,58670,2,0,P|406:351|411:394,1,70,2|0,3:2|0:0,0:2:0:0:
220,384,59030,2,0,P|207:366|224:301,1,70,2|8,3:2|0:2,0:0:0:0:
318,200,59389,1,2,0:2:0:0:
228,238,59569,6,0,P|204:231|138:214,1,70,2|0,3:2|0:2,0:2:0:0:
52,89,59928,1,10,0:2:0:0:
127,136,60108,2,0,P|175:122|289:95,1,140,2|0,3:2|3:2,0:2:0:0:
167,26,60646,1,10,0:2:0:0:
127,136,60826,1,2,0:2:0:0:
37,105,61006,6,0,P|49:157|57:208,1,105,2|0,3:2|3:2,0:2:0:0:
54,217,61365,1,8,0:2:0:0:
18,313,61545,2,0,P|37:279|135:281,1,140,2|2,3:2|3:2,0:2:0:0:
196,383,62084,2,0,P|200:356|213:310,1,70,10|2,0:2|0:2,0:0:0:0:
259,214,62443,5,4,3:2:0:0:
171,142,62623,1,0,0:0:0:0:
171,142,62712,1,0,3:2:0:0:
171,142,62802,1,8,0:2:0:0:
220,297,62982,1,4,3:2:0:0:
347,177,63161,1,0,0:2:0:0:
157,235,63341,1,10,0:2:0:0:
136,230,63430,1,8,0:2:0:0:
116,225,63520,1,10,0:2:0:0:
95,220,63610,1,8,0:2:0:0:
75,215,63700,1,10,0:2:0:0:
54,211,63790,1,8,0:2:0:0:
34,205,63880,6,0,P|72:163|44:112,1,105,6|0,3:2|0:2,0:2:0:0:
49,118,64239,1,2,3:2:0:0:
188,27,64419,2,0,P|181:66|178:123,1,70,2|0,0:2|3:2,0:2:0:0:
226,196,64778,1,2,0:2:0:0:
311,133,64958,1,2,3:2:0:0:
368,225,65138,2,0,P|404:212|464:208,1,70,2|0,0:2|3:2,0:2:0:0:
492,315,65497,5,2,0:2:0:0:
492,315,65676,1,2,3:2:0:0:
399,360,65856,2,0,P|363:347|303:343,1,70,2|0,0:2|3:2,0:2:0:0:
219,384,66215,1,2,0:2:0:0:
249,296,66395,1,2,3:2:0:0:
120,384,66575,5,10,0:2:0:0:
120,384,66664,1,8,0:2:0:0:
120,384,66754,1,4,3:2:0:0:
249,296,66934,2,0,P|240:254|238:198,1,70,2|2,0:2|3:2,0:2:0:0:
235,125,67293,1,2,0:2:0:0:
235,125,67473,1,2,3:2:0:0:
151,53,67652,1,2,0:2:0:0:
250,14,67832,1,2,3:2:0:0:
332,89,68012,2,0,P|321:123|320:157,1,70,2|0,0:2|3:0,0:2:0:0:
394,275,68371,6,0,P|426:265|468:263,1,70,8|0,0:2|3:2,0:0:0:0:
281,383,68730,2,0,P|251:370|206:371,1,70,8|2,0:2|3:2,0:0:0:0:
117,253,69090,2,0,P|154:264|174:298,1,70,10|2,0:2|3:2,0:0:0:0:
21,363,69449,5,2,3:2:0:0:
21,363,69539,1,0,3:2:0:0:
21,363,69629,2,0,P|27:308|29:236,1,105,6|0,3:2|0:2,0:2:0:0:
24,249,69988,1,2,3:2:0:0:
155,282,70167,2,0,B|186:298|217:273|217:273|246:229|296:241,1,140,2|2,0:2|0:2,0:2:0:0:
395,293,70706,1,2,3:2:0:0:
297,384,70886,2,0,P|294:340|283:297,1,70,2|0,0:2|3:0,0:2:0:0:
365,181,71245,6,0,P|403:169|457:172,1,70,10|0,0:2|3:2,0:0:0:0:
327,69,71605,2,0,P|289:57|235:60,1,70,6|0,3:2|3:0,0:2:0:0:
176,164,71964,1,10,0:2:0:0:
171,138,72053,1,8,0:2:0:0:
167,112,72143,1,8,3:2:0:0:
162,86,72233,1,8,0:2:0:0:
158,60,72323,6,0,P|118:98|59:71,1,105,6|0,3:2|0:2,0:2:0:0:
68,80,72682,1,10,3:2:0:0:
14,223,72862,1,10,3:2:0:0:
190,232,73042,2,0,P|179:194|176:146,1,70,10|8,3:2|3:2,0:0:0:0:
132,357,73401,1,10,3:2:0:0:
279,237,73581,1,10,3:2:0:0:
325,384,73760,6,0,B|280:375|280:375|269:359|269:359|219:349,1,105,14|0,0:2|0:2,0:2:0:0:
329,304,74120,2,0,L|373:295,1,35,10|8,0:2|0:2,0:0:0:0:
458,221,74299,1,10,0:2:0:0:
440,217,74388,1,8,0:2:0:0:
421,212,74479,2,0,P|386:201|338:191,1,70,10|8,0:0|0:0,0:0:0:0:
319,111,74747,1,8,0:2:0:0:
325,84,74837,1,10,0:2:0:0:
344,63,74927,1,8,0:2:0:0:
370,55,75017,1,10,3:2:0:0:
397,60,75107,1,8,0:2:0:0:
419,77,75197,6,0,P|292:95|231:113,1,167.999994873047,6|0,3:2|0:2,0:2:0:0:
76,11,75736,2,0,P|87:63|92:97,1,83.9999974365235,8|2,3:2|0:2,0:0:0:0:
115,239,76096,1,2,3:2:0:0:
36,154,76275,1,2,0:2:0:0:
185,180,76455,1,10,3:2:0:0:
82,324,76635,6,0,P|110:279|219:296,1,167.999994873047,2|2,0:2|0:2,0:2:0:0:
185,180,77173,1,10,3:2:0:0:
296,255,77353,2,0,P|300:227|311:167,1,83.9999974365235,2|0,0:2|3:2,0:2:0:0:
176,84,77712,2,0,P|189:146|194:176,1,83.9999974365235,2|8,0:2|3:2,0:0:0:0:
348,87,78072,6,0,B|255:64|309:2|191:-2,1,167.999994873047,2|0,0:2|0:2,0:2:0:0:
94,147,78611,1,8,3:2:0:0:
35,75,78790,1,2,0:2:0:0:
177,150,78970,2,0,P|184:209|186:238,1,83.9999974365235,2|2,3:2|0:2,0:0:0:0:
65,224,79329,1,10,3:2:0:0:
276,280,79509,6,0,P|284:197|296:114,1,167.999994873047,14|2,0:2|0:2,0:2:0:0:
226,49,80048,1,10,3:2:0:0:
404,24,80227,2,0,P|369:26|322:-13,1,83.9999974365235,14|0,0:2|3:0,0:2:0:0:
383,172,80587,2,0,P|389:148|443:117,1,83.9999974365235,10|8,0:2|3:2,0:0:0:0:
241,64,80946,6,8,P|257:125|269:243,1,167.999994873047,14|0,3:2|0:2,0:2:0:0:
259,333,81485,1,8,3:2:0:0:
187,258,81664,1,2,0:2:0:0:
344,351,81844,1,2,3:2:0:0:
452,213,82024,1,2,0:2:0:0:
376,262,82203,1,10,3:2:0:0:
269,100,82383,6,0,P|284:184|291:264,1,125.999996154785,2|0,0:2|0:2,0:2:0:0:
286,238,82742,1,2,0:2:0:0:
431,122,82922,1,10,3:2:0:0:
380,41,83102,2,0,P|345:31|280:14,1,83.9999974365235,2|0,0:2|3:2,0:2:0:0:
129,160,83461,2,0,P|108:130|116:76,1,83.9999974365235,2|8,0:2|3:2,0:2:0:0:
280,13,83820,6,0,P|267:116|260:199,1,167.999994873047,2|2,0:2|0:2,0:2:0:0:
187,110,84359,1,10,3:2:0:0:
275,192,84539,2,0,P|282:239|288:280,1,83.9999974365235,2|0,0:2|3:2,0:2:0:0:
158,369,84898,5,10,0:2:0:0:
40,327,85078,2,0,P|54:322|89:310,1,41.9999987182618,2|0,3:2|0:0,0:0:0:0:
238,290,85257,6,0,P|192:291|161:206,1,125.999996154785,14|0,0:2|0:2,0:2:0:0:
213,162,85617,2,0,P|216:145|225:99,1,41.9999987182618,10|8,0:2|0:2,0:0:0:0:
96,50,85796,1,10,0:2:0:0:
102,73,85886,1,8,0:2:0:0:
108,96,85976,1,10,0:2:0:0:
37,195,86155,1,2,3:2:0:0:
191,286,86335,6,0,P|197:261|202:234,1,41.9999987182618,10|0,3:2|0:0,0:0:0:0:
101,356,86515,1,0,3:0:0:0:
281,304,86694,6,0,B|176:273|193:367|87:355,1,195.999994018555,14|0,0:2|0:2,0:2:0:0:
23,183,87233,6,0,P|34:233|44:294,1,83.9999974365235,8|2,3:2|0:2,0:0:0:0:
227,128,87593,1,2,3:2:0:0:
143,79,87772,1,2,0:2:0:0:
108,162,87952,1,10,3:2:0:0:
31,45,88132,6,0,P|86:66|172:4,1,167.999994873047,2|0,0:2|0:2,0:2:0:0:
310,55,88670,1,10,3:2:0:0:
239,191,88850,2,0,B|217:159|217:159|238:110,1,83.9999974365235,2|0,0:2|3:2,0:2:0:0:
402,182,89209,2,0,P|365:170|302:153,1,83.9999974365235,2|8,0:2|3:2,0:0:0:0:
203,38,89569,6,0,P|240:26|375:-2,1,167.999994873047,2|0,0:2|0:2,0:2:0:0:
438,74,90108,1,8,3:2:0:0:
330,148,90287,1,2,0:2:0:0:
401,271,90467,1,2,3:2:0:0:
484,220,90646,1,2,0:2:0:0:
400,290,90826,1,10,3:2:0:0:
274,213,91006,6,0,P|288:306|296:393,1,167.999994873047,6|0,0:2|0:2,0:2:0:0:
186,313,91545,1,10,3:2:0:0:
82,369,91724,2,0,P|79:329|109:291,1,83.9999974365235,12|0,0:2|3:0,0:2:0:0:
239,232,92084,2,0,P|208:222|150:205,1,83.9999974365235,10|8,3:2|3:2,0:0:0:0:
7,102,92443,6,0,B|31:96|59:93|59:93|93:43|93:43|120:40|163:31,1,167.999994873047,14|0,0:2|0:2,0:2:0:0:
254,102,92982,1,8,3:2:0:0:
302,31,93161,1,2,0:2:0:0:
176,130,93341,1,2,3:2:0:0:
277,193,93521,1,2,0:2:0:0:
389,100,93700,2,0,P|397:134|400:154,1,41.9999987182618,10|0,3:2|0:0,0:0:0:0:
499,49,93880,6,0,P|489:159|484:234,1,167.999994873047,2|2,0:2|0:2,0:2:0:0:
368,325,94419,1,10,3:2:0:0:
297,214,94599,2,0,P|336:230|381:245,1,83.9999974365235,2|0,0:2|3:2,0:2:0:0:
255,360,94958,2,0,P|207:372|166:388,1,83.9999974365235,2|8,0:2|3:2,0:2:0:0:
177,174,95317,6,0,P|190:256|193:289,1,83.9999974365235,2|0,0:2|3:0,0:2:0:0:
101,231,95676,1,2,0:2:0:0:
294,155,95856,1,10,0:2:0:0:
208,79,96036,2,0,P|198:143|195:172,1,83.9999974365235,2|0,0:2|3:0,0:2:0:0:
36,285,96395,2,0,P|18:268|18:206,1,83.9999974365235,2|8,0:2|3:0,0:2:0:0:
1,28,96754,6,0,B|32:37|58:51|58:51|114:-10|114:-10|148:4|186:13,1,195.999994018555,14|10,0:2|0:2,0:2:0:0:
208,79,97203,1,8,0:2:0:0:
227,71,97293,1,10,3:2:0:0:
361,15,97473,6,0,B|316:50|316:50|342:150,1,146.999995513916,14|0,0:2|0:2,0:2:0:0:
374,209,97832,1,10,0:2:0:0:
368,181,97921,1,8,0:2:0:0:
352,158,98011,1,8,3:2:0:0:
328,145,98101,1,8,0:2:0:0:
300,143,98191,1,10,0:2:0:0:
274,153,98281,1,8,0:2:0:0:
255,174,98371,6,0,P|264:231|267:258,1,83.9999974365235,6|2,3:2|0:2,0:2:0:0:
283,384,98730,1,10,3:2:0:0:
181,336,98910,1,2,0:2:0:0:
181,336,99000,1,2,0:2:0:0:
181,336,99090,1,2,3:2:0:0:
361,265,99269,1,2,0:2:0:0:
255,174,99449,2,0,P|280:179|308:188,1,41.9999987182618,10|0,3:2|0:0,0:0:0:0:
492,172,99629,6,0,P|428:171|381:87,1,167.999994873047,2|2,0:2|0:2,0:2:0:0:
255,174,100167,1,10,3:2:0:0:
132,44,100347,1,2,0:2:0:0:
132,44,100437,1,2,0:2:0:0:
132,44,100527,1,2,3:2:0:0:
71,119,100706,1,2,0:2:0:0:
147,165,100886,1,10,3:2:0:0:
280,17,101066,6,0,P|269:110|261:201,1,167.999994873047,2|2,0:2|0:2,0:2:0:0:
246,361,101605,1,10,3:2:0:0:
88,310,101784,2,0,B|74:353|74:353|111:390,1,83.9999974365235,2|0,0:2|3:2,0:2:0:0:
233,277,102144,2,0,P|195:262|147:250,1,83.9999974365235,2|8,0:2|3:2,0:2:0:0:
2,210,102503,6,0,B|84:202|45:132|149:125,1,167.999994873047,2|2,0:2|0:2,0:0:0:0:
216,179,103042,1,10,3:2:0:0:
325,68,103221,1,2,0:2:0:0:
325,68,103311,1,8,0:0:0:0:
325,68,103401,2,0,P|316:139|314:172,1,83.9999974365235,6|0,3:2|0:2,0:2:0:0:
228,95,103760,1,8,3:2:0:0:
390,218,103940,1,8,0:2:0:0:
390,218,104030,1,8,0:2:0:0:
390,218,104120,5,6,3:2:0:0:
481,180,104299,1,2,0:2:0:0:
427,107,104479,1,2,3:2:0:0:
314,252,104658,2,0,P|306:213|329:165,1,83.9999974365235,2|0,0:2|3:2,0:2:0:0:
422,298,105018,1,2,0:2:0:0:
385,384,105197,1,2,3:2:0:0:
430,285,105377,6,0,P|331:299|259:313,1,167.999994873047,2|2,0:2|0:2,0:2:0:0:
177,251,105916,1,2,3:2:0:0:
291,141,106096,2,0,P|278:228|276:253,1,83.9999974365235,10|0,0:2|3:0,0:2:0:0:
190,83,106455,2,0,P|187:62|174:-20,1,83.9999974365235,10|0,0:2|3:2,0:0:0:0:
71,164,106814,1,2,3:2:0:0:
71,164,106904,1,0,3:2:0:0:
71,164,106994,5,6,3:2:0:0:
285,52,107173,1,2,3:2:0:0:
285,52,107263,1,8,0:2:0:0:
285,52,107353,1,10,3:2:0:0:
184,196,107533,2,0,P|191:148|200:100,1,97.9999970092774,10|8,0:2|3:2,0:2:0:0:
358,254,107892,5,10,0:2:0:0:
338,239,107981,1,8,0:2:0:0:
315,231,108071,1,10,3:2:0:0:
291,233,108161,1,8,0:2:0:0:
268,243,108251,1,10,0:2:0:0:
251,260,108341,1,8,0:2:0:0:
241,283,108430,5,8,3:2:0:0:
331,362,108611,1,10,0:2:0:0:
506,174,108790,6,0,P|498:217|495:236,1,48.9999985046387,8|8,3:2|0:2,0:0:0:0:
483,321,108970,1,8,3:2:0:0:
483,321,121365,6,0,P|413:309|315:301,1,140,4|8,3:2|0:2,0:2:0:0:
229,366,121904,1,2,3:2:0:0:
273,271,122084,1,2,0:2:0:0:
183,288,122263,1,2,3:2:0:0:
318,375,122443,1,10,0:2:0:0:
318,375,122623,1,2,0:2:0:0:
423,288,122802,6,0,P|409:234|410:172,1,105,2|0,3:2|3:2,0:2:0:0:
416,174,123161,1,10,0:2:0:0:
340,98,123341,2,0,B|304:88|289:53|289:53|266:84|197:83,1,140,2|0,3:2|3:2,0:2:0:0:
223,0,123880,1,10,0:2:0:0:
120,64,124060,1,0,0:0:0:0:
120,64,124149,1,8,0:2:0:0:
120,64,124239,6,0,L|130:140,1,70,2|0,3:2|0:0,0:2:0:0:
136,162,124509,1,0,3:2:0:0:
136,162,124599,1,8,0:2:0:0:
60,295,124778,2,0,B|115:277|115:277|128:254|128:254|194:236,1,140,0|2,3:2|3:2,0:2:0:0:
277,223,125317,1,10,0:2:0:0:
312,316,125497,1,2,0:2:0:0:
469,253,125676,6,0,P|420:244|353:210,1,105,0|0,3:2|3:2,0:2:0:0:
360,210,126036,1,8,2:2:0:0:
441,134,126215,1,2,3:2:0:0:
346,71,126395,1,0,0:2:0:0:
346,71,126575,1,2,3:2:0:0:
261,142,126754,2,0,P|227:153|193:158,1,70,10|2,0:2|0:2,0:0:0:0:
33,73,127114,6,0,P|69:32|135:58,1,105,6|0,3:2|3:0,0:2:0:0:
122,45,127473,1,10,0:2:0:0:
36,157,127652,2,0,P|48:197|47:234,1,70,2|0,3:2|0:0,0:2:0:0:
175,312,128012,2,0,P|177:278|188:245,1,70,2|8,3:2|0:2,0:0:0:0:
261,142,128371,1,2,0:2:0:0:
324,252,128551,6,0,P|363:254|399:220,1,70,0|0,3:2|0:0,0:2:0:0:
396,228,128820,1,0,3:2:0:0:
396,228,128910,1,10,0:2:0:0:
470,138,129090,2,0,P|471:176|480:215,1,70,2|0,3:2|0:2,0:0:0:0:
385,110,129448,1,2,3:2:0:0:
452,52,129629,1,10,0:2:0:0:
368,29,129808,1,2,0:2:0:0:
260,57,129988,6,0,P|225:65|162:70,1,70,0|0,3:2|0:0,0:2:0:0:
181,70,130257,1,0,3:2:0:0:
181,70,130347,1,8,0:2:0:0:
199,191,130527,2,0,P|164:183|101:178,1,70,0|0,3:2|0:2,0:2:0:0:
9,86,130886,1,0,3:2:0:0:
9,86,131066,2,0,P|50:98|58:130,1,70,8|0,0:2|0:2,0:0:0:0:
0,269,131425,6,0,P|49:269|60:209,1,105,0|0,3:2|3:2,0:2:0:0:
61,214,131784,1,8,0:2:0:0:
207,329,131964,2,0,P|158:329|147:269,1,105,0|0,3:2|0:0,0:2:0:0:
146,273,132323,1,0,3:2:0:0:
273,250,132503,1,10,0:2:0:0:
273,250,132682,1,2,0:2:0:0:
193,159,132862,6,0,P|193:102|183:27,1,105,6|0,3:2|3:2,0:2:0:0:
183,43,133221,1,10,0:2:0:0:
304,152,133401,2,0,B|345:167|373:130|357:131|386:92|427:104,1,140,2|0,3:2|3:2,0:2:0:0:
488,257,133940,1,10,0:2:0:0:
428,179,134120,1,2,0:2:0:0:
355,302,134299,6,0,P|316:295|261:292,1,70,2|0,3:2|0:0,0:2:0:0:
271,298,134569,1,0,3:2:0:0:
271,298,134658,1,8,0:2:0:0:
224,177,134838,2,0,P|185:184|130:186,1,70,0|0,3:2|0:2,0:2:0:0:
112,307,135197,1,2,3:2:0:0:
112,307,135377,1,10,0:2:0:0:
0,245,135557,1,0,0:0:0:0:
55,134,135736,6,0,P|65:76|60:28,1,105,2|0,3:2|3:2,0:2:0:0:
56,20,136096,1,10,0:2:0:0:
168,94,136275,2,0,P|196:112|230:106,1,70,0|0,3:2|0:0,0:2:0:0:
324,6,136635,1,0,3:2:0:0:
324,6,136814,1,8,0:2:0:0:
420,99,136994,1,2,0:2:0:0:
284,159,137173,6,0,B|326:158|326:158|344:183|344:183|387:202,1,105,0|0,3:2|3:0,0:0:0:0:
385,199,137533,1,8,0:2:0:0:
284,251,137712,1,0,3:2:0:0:
389,325,137892,1,2,0:0:0:0:
389,325,138072,1,2,3:2:0:0:
285,359,138251,1,10,0:2:0:0:
385,199,138431,1,2,0:2:0:0:
191,233,138611,6,0,P|138:251|70:257,1,105,4|0,3:2|3:2,0:2:0:0:
79,256,138970,1,10,0:2:0:0:
0,106,139149,2,0,P|39:111|58:157,1,70,2|0,3:2|0:0,0:2:0:0:
196,41,139509,2,0,P|157:46|138:92,1,70,2|8,3:2|0:2,0:0:0:0:
144,169,139868,1,2,0:2:0:0:
256,233,140048,6,0,P|303:228|308:160,1,105,2|0,3:2|3:0,0:2:0:0:
313,169,140407,1,10,0:2:0:0:
463,146,140587,2,0,P|416:141|411:73,1,105,2|0,3:2|0:2,0:2:0:0:
406,82,140946,1,0,3:2:0:0:
389,230,141126,1,10,0:2:0:0:
281,61,141305,1,2,0:2:0:0:
281,61,141395,1,8,0:0:0:0:
281,61,141485,6,0,P|228:66|165:84,1,105,0|0,3:2|3:2,0:2:0:0:
168,85,141844,1,8,0:2:0:0:
13,153,142024,2,0,B|48:142|85:173|66:177|97:223|156:206,1,140,4|8,3:2|3:2,0:2:0:0:
149,210,142473,1,8,0:2:0:0:
149,210,142563,1,8,0:2:0:0:
21,317,142742,1,0,0:0:0:0:
21,317,142832,1,8,0:2:0:0:
21,317,142922,6,0,L|3:228,1,70,4|0,3:2|0:2,0:2:0:0:
18,227,143191,2,0,L|25:270,1,35,8|8,0:2|3:2,0:0:0:0:
0,78,143461,1,8,0:2:0:0:
140,134,143641,1,10,3:2:0:0:
137,125,143730,1,8,0:2:0:0:
134,116,143820,1,10,0:2:0:0:
18,227,144000,1,2,3:2:0:0:
155,228,144179,1,10,0:2:0:0:
152,219,144268,1,8,0:2:0:0:
149,210,144359,6,0,P|143:267|141:285,1,70,6|0,3:2|0:0,0:2:0:0:
232,367,144718,1,2,3:2:0:0:
232,367,144898,2,0,P|256:344|315:344,1,70,2|0,0:2|3:2,0:2:0:0:
390,379,145257,1,2,0:2:0:0:
390,379,145437,1,2,3:2:0:0:
498,287,145617,2,0,P|490:321|483:355,1,70,2|0,0:2|3:0,0:2:0:0:
359,295,145976,6,0,P|356:267|346:220,1,70,2|2,0:2|3:2,0:2:0:0:
384,148,146335,1,10,0:2:0:0:
483,208,146515,2,0,P|504:189|507:131,1,70,0|2,3:2|3:2,0:0:0:0:
439,75,146874,1,2,3:2:0:0:
307,186,147054,1,0,3:2:0:0:
307,186,147144,1,0,3:2:0:0:
307,186,147233,6,0,P|265:172|214:160,1,70,4|0,3:2|0:0,0:0:0:0:
151,79,147593,1,2,3:2:0:0:
253,10,147772,2,0,P|241:64|239:93,1,70,2|2,0:2|3:2,0:2:0:0:
100,151,148132,1,2,0:2:0:0:
151,79,148311,1,2,3:2:0:0:
259,168,148491,1,2,0:2:0:0:
182,215,148670,6,0,P|139:227|64:239,1,105,0|0,3:0|0:0,0:0:0:0:
59,229,149030,2,0,B|36:261|36:261|52:304,1,70,0|12,3:2|0:2,0:0:0:0:
91,379,149389,1,0,3:0:0:0:
196,300,149569,2,0,P|215:306|239:313,1,35,10|8,0:2|0:0,0:0:0:0:
280,384,149748,1,10,3:2:0:0:
296,379,149837,1,8,0:2:0:0:
313,374,149927,1,10,0:2:0:0:
330,369,150017,1,8,0:2:0:0:
347,364,150108,6,0,P|340:328|329:288,1,70,6|0,3:2|0:0,0:2:0:0:
287,159,150467,1,2,3:2:0:0:
363,213,150646,2,0,P|397:220|453:234,1,70,2|0,0:2|3:0,0:2:0:0:
512,89,151006,1,2,0:2:0:0:
461,19,151185,1,2,3:2:0:0:
347,104,151365,6,0,P|318:70|255:68,1,105,14|0,0:2|0:2,0:2:0:0:
248,77,151724,1,2,0:2:0:0:
178,8,151904,1,2,3:2:0:0:
100,118,152084,2,0,P|111:184|114:215,1,70,10|0,0:2|3:0,0:2:0:0:
255,336,152443,1,10,0:2:0:0:
250,301,152532,1,8,0:2:0:0:
225,278,152622,1,8,3:2:0:0:
191,275,152712,1,8,0:2:0:0:
162,294,152802,6,0,P|128:281|32:254,1,115.50000352478,6|0,0:2|0:2,0:2:0:0:
41,265,153161,1,10,0:2:0:0:
128,178,153341,1,10,3:2:0:0:
0,114,153521,2,0,P|14:106|42:96,1,38.5000011749268,10|8,0:2|0:2,0:0:0:0:
109,18,153700,1,8,3:2:0:0:
134,23,153789,1,8,0:2:0:0:
159,29,153879,1,10,0:2:0:0:
184,34,153969,1,8,0:2:0:0:
209,40,154059,1,10,3:2:0:0:
271,201,154239,6,0,P|276:165|284:125,1,77.0000023498536,6|0,0:2|3:0,0:2:0:0:
471,40,154599,1,10,0:2:0:0:
443,61,154688,1,8,0:2:0:0:
409,61,154778,1,10,3:2:0:0:
383,41,154868,1,8,0:2:0:0:
373,12,154958,6,0,P|380:66|388:101,1,83.9999974365235,10|0,0:2|3:0,0:0:0:0:
373,187,155227,1,8,0:2:0:0:
403,173,155316,1,10,0:2:0:0:
437,174,155406,1,8,0:2:0:0:
467,190,155496,1,10,3:2:0:0:
485,219,155586,1,8,0:2:0:0:
489,253,155676,6,0,P|423:234|296:210,1,167.999994873047,6|0,3:2|0:2,0:2:0:0:
147,339,156215,2,0,P|189:327|213:286,1,83.9999974365235,8|2,3:2|0:2,0:0:0:0:
151,179,156575,1,2,3:2:0:0:
1,258,156754,1,2,0:2:0:0:
59,96,156934,1,10,3:2:0:0:
141,259,157114,6,0,B|92:270|68:219|86:216|52:160|-23:177,1,167.999994873047,2|2,0:2|0:2,0:2:0:0:
65,323,157652,1,10,3:2:0:0:
150,179,157832,2,0,P|191:188|215:221,1,83.9999974365235,2|0,0:2|3:2,0:2:0:0:
352,342,158191,2,0,P|339:302|356:265,1,83.9999974365235,2|10,0:2|3:2,0:0:0:0:
391,87,158551,6,0,P|325:133|250:103,1,167.999994873047,2|0,0:2|0:2,0:2:0:0:
497,26,159090,2,0,P|491:73|492:135,1,83.9999974365235,8|2,3:2|0:2,0:0:0:0:
486,308,159449,1,2,3:2:0:0:
400,217,159629,1,2,0:2:0:0:
352,342,159808,1,10,3:2:0:0:
487,187,159988,6,0,P|427:128|329:156,1,167.999994873047,6|2,0:2|0:2,0:2:0:0:
272,221,160527,1,10,3:2:0:0:
174,93,160706,2,0,P|217:95|247:122,1,83.9999974365235,6|0,0:2|3:0,0:2:0:0:
285,298,161066,2,0,P|265:259|273:220,1,83.9999974365235,10|8,3:2|3:2,0:0:0:0:
410,43,161425,6,0,P|431:98|340:132,1,167.999994873047,14|0,3:2|0:2,0:2:0:0:
314,49,161964,1,8,3:2:0:0:
246,121,162144,1,2,0:2:0:0:
377,233,162323,1,2,3:2:0:0:
348,138,162503,1,2,0:2:0:0:
177,199,162682,1,10,3:2:0:0:
336,327,162862,6,0,P|284:293|272:233,1,125.999996154785,2|0,0:2|0:2,0:2:0:0:
273,221,163221,1,2,0:2:0:0:
171,384,163401,1,10,3:2:0:0:
109,289,163581,2,0,P|150:289|191:298,1,83.9999974365235,2|0,0:2|3:2,0:2:0:0:
436,384,163940,2,0,P|444:343|444:289,1,83.9999974365235,2|8,0:2|3:2,0:2:0:0:
469,113,164299,6,0,B|427:100|392:135|392:135|375:88|320:81,1,167.999994873047,2|2,0:2|0:2,0:2:0:0:
453,191,164838,1,10,3:2:0:0:
323,245,165018,2,0,P|314:203|314:162,1,83.9999974365235,2|0,0:2|3:2,0:2:0:0:
413,34,165377,1,2,0:2:0:0:
279,89,165557,2,0,P|298:82|319:81,1,41.9999987182618,10|0,3:2|0:0,0:0:0:0:
248,192,165736,6,0,B|221:200|201:187|201:187|178:139|113:144,1,125.999996154785,14|0,0:2|0:2,0:2:0:0:
45,188,166096,2,0,L|55:124,1,41.9999987182618,10|8,3:2|0:2,0:0:0:0:
0,17,166275,1,10,3:2:0:0:
3,38,166364,1,8,0:2:0:0:
6,59,166454,1,10,3:2:0:0:
140,144,166635,1,0,3:2:0:0:
26,268,166814,6,0,P|60:271|97:248,1,73.4999977569581,10|0,3:2|0:2,0:2:0:0:
121,224,167173,6,0,P|131:315|220:336,1,195.999994018555,4|0,3:2|0:2,0:2:0:0:
248,192,167712,2,0,P|213:220|195:286,1,83.9999974365235,8|2,3:2|0:2,0:0:0:0:
421,311,168072,1,2,3:2:0:0:
339,352,168252,1,2,0:2:0:0:
282,281,168431,1,10,3:2:0:0:
290,87,168611,6,0,P|342:149|362:235,1,167.999994873047,2|0,0:2|0:2,0:2:0:0:
248,192,169149,1,10,3:2:0:0:
213,51,169329,2,0,P|235:17|276:4,1,83.9999974365235,2|0,0:2|3:2,0:2:0:0:
450,118,169688,2,0,P|425:84|386:72,1,83.9999974365235,2|8,0:2|3:2,0:0:0:0:
248,192,170048,6,0,P|327:212|378:151,1,167.999994873047,2|0,0:2|0:2,0:2:0:0:
290,87,170587,1,8,3:2:0:0:
168,149,170766,1,2,0:2:0:0:
114,30,170946,1,2,3:2:0:0:
0,98,171126,1,2,0:2:0:0:
124,46,171305,1,10,3:2:0:0:
73,185,171485,6,0,B|93:248|93:248|75:278|75:278|104:354,1,167.999994873047,6|0,0:2|0:2,0:2:0:0:
3,237,172024,1,10,0:2:0:0:
171,292,172203,2,0,P|213:284|268:272,1,83.9999974365235,14|0,0:2|3:0,0:2:0:0:
398,383,172563,2,0,P|358:373|301:363,1,83.9999974365235,10|8,3:2|3:2,0:0:0:0:
457,254,172922,6,0,P|448:194|331:176,1,167.999994873047,14|0,3:2|0:2,0:2:0:0:
359,262,173461,1,8,3:2:0:0:
251,173,173641,1,2,0:2:0:0:
417,60,173820,1,2,3:2:0:0:
355,161,174000,1,2,0:2:0:0:
265,70,174179,1,10,3:2:0:0:
237,264,174359,6,0,B|192:274|165:219|183:220|155:157|86:183,1,167.999994873047,2|2,0:2|0:2,0:2:0:0:
27,262,174898,1,10,3:2:0:0:
146,328,175078,2,0,P|105:335|77:366,1,83.9999974365235,2|0,0:2|3:2,0:2:0:0:
107,177,175437,1,2,0:2:0:0:
232,360,175617,1,8,3:2:0:0:
370,190,175796,6,0,B|308:205|308:205|297:245|297:245|232:265,1,167.999994873047,6|2,3:2|0:2,0:2:0:0:
386,287,176335,1,10,3:2:0:0:
231,178,176515,2,0,P|242:136|251:96,1,83.9999974365235,2|0,0:2|3:2,0:2:0:0:
414,12,176874,2,0,P|413:70|427:145,1,125.999996154785,10|0,0:2|0:0,0:2:0:0:
442,213,177233,6,0,P|410:186|369:189,1,83.9999974365235,6|0,0:2|3:0,0:2:0:0:
235,263,177593,1,10,0:2:0:0:
194,263,177682,1,8,0:2:0:0:
159,241,177772,1,10,3:2:0:0:
141,204,177862,1,8,0:2:0:0:
146,162,177952,2,0,L|205:145,1,41.9999987182618,10|0,0:2|0:0,0:0:0:0:
331,116,178132,1,8,3:2:0:0:
189,18,178311,5,2,0:2:0:0:
193,38,178400,1,8,0:2:0:0:
197,59,178490,1,10,3:2:0:0:
76,121,178670,1,10,0:2:0:0:
56,114,178759,1,8,0:2:0:0:
36,108,178850,6,0,B|-12:143|-12:143|18:228,1,136.499993751526,6|2,3:2|0:2,0:2:0:0:
21,226,179209,1,10,3:2:0:0:
168,313,179389,2,0,P|173:276|184:219,1,90.9999958343508,2|2,0:2|3:2,0:2:0:0:
43,345,179748,1,2,0:2:0:0:
173,230,179928,2,0,L|122:213,1,45.4999979171754,10|2,3:2|0:2,0:0:0:0:
27,123,180108,2,0,P|63:131|136:85,1,90.9999958343508,2|2,0:2|3:2,0:2:0:0:
161,41,180467,5,2,0:2:0:0:
264,124,180646,1,10,3:2:0:0:
264,124,180736,1,2,0:2:0:0:
264,124,180826,1,2,0:2:0:0:
463,83,181006,2,0,P|467:60|473:39,1,45.4999979171754,2|0,3:2|0:2,0:2:0:0:
346,2,181185,2,0,P|356:65|363:109,1,90.9999958343508,2|10,0:2|3:2,0:2:0:0:
365,119,181455,1,2,0:2:0:0:
365,119,181545,1,2,0:2:0:0:
494,177,181724,6,0,P|484:266|479:321,1,136.499993751526,2|2,3:2|0:2,0:2:0:0:
479,333,182084,1,10,3:2:0:0:
313,384,182263,2,0,P|281:362|278:312,1,90.9999958343508,2|2,0:2|3:2,0:2:0:0:
347,211,182623,1,2,0:2:0:0:
351,228,182713,1,2,0:2:0:0:
354,244,182803,1,10,3:2:0:0:
357,261,182893,1,2,0:2:0:0:
360,278,182982,1,2,0:2:0:0:
263,188,183161,6,0,P|239:194|204:205,1,45.4999979171754,2|0,3:2|0:0,0:2:0:0:
154,268,183341,2,0,P|118:257|62:243,1,90.9999958343508,2|10,0:2|3:2,0:0:0:0:
47,242,183611,1,2,0:2:0:0:
47,242,183700,1,2,0:2:0:0:
122,171,183880,1,2,3:2:0:0:
2,94,184060,1,2,0:2:0:0:
114,0,184239,2,0,P|102:61|97:90,1,90.9999958343508,10|2,3:2|0:2,0:2:0:0:
224,193,184599,5,6,3:2:0:0:
319,106,184778,1,0,0:2:0:0:
233,183,184958,1,10,3:2:0:0:
384,285,185138,2,0,B|418:240|418:240|279:265,1,181.999991668702,2|2,0:2|0:2,0:2:0:0:
294,262,185676,1,8,3:2:0:0:
510,152,185856,2,0,P|503:179|500:196,1,45.4999979171754,2|2,0:2|0:2,0:0:0:0:
384,285,186036,6,0,P|376:246|360:162,1,90.9999958343508,2|2,3:2|0:2,0:2:0:0:
301,66,186395,1,8,3:2:0:0:
466,79,186575,2,0,B|435:81|413:86|413:86|362:37|362:37|333:44|292:49,1,181.999991668702,2|2,0:2|0:2,0:2:0:0:
210,167,187114,1,10,3:2:0:0:
96,17,187293,1,2,0:2:0:0:
89,23,187383,1,2,0:2:0:0:
82,29,187473,6,0,P|123:79|187:68,1,136.499993751526,6|0,3:2|0:0,0:2:0:0:
231,31,187832,2,0,P|219:99|213:141,1,90.9999958343508,10|0,3:2|0:2,0:0:0:0:
210,167,188102,1,10,0:2:0:0:
210,167,188191,1,2,3:2:0:0:
352,129,188371,5,10,0:2:0:0:
394,281,188551,1,10,3:2:0:0:
364,310,188640,1,10,0:2:0:0:
319,318,188730,1,10,0:2:0:0:
275,299,188820,1,10,0:2:0:0:
253,258,188910,6,0,P|224:252|184:242,1,45.4999979171754,14|0,3:2|0:2,0:2:0:0:
126,207,189090,2,0,P|120:235|110:275,1,45.4999979171754,10|10,0:2|0:2,0:0:0:0:
75,333,189269,2,0,P|103:338|143:348,1,45.4999979171754,10|0,3:2|0:2,0:2:0:0:
201,384,189449,2,0,P|206:355|216:315,1,45.4999979171754,10|0,0:2|0:2,0:2:0:0:
126,207,189629,2,0,P|122:183|114:134,1,45.4999979171754,10|0,3:2|0:0,0:2:0:0:
213,82,189808,5,8,0:2:0:0:
187,74,189897,1,10,0:2:0:0:
161,66,189987,1,10,3:2:0:0:
135,58,190077,1,10,0:2:0:0:
109,50,190167,1,10,0:2:0:0:
83,42,190257,1,10,0:2:0:0:
57,34,190347,6,0,B|98:111|178:57|152:47|192:-19|294:-11|302:55|301:75,1,293.999991027832,4|0,3:2|0:2,0:2:0:0:
384,260,191605,2,0,P|380:281|376:300,1,24.4999992523194,0|0,3:2|3:2,0:0:0:0:
296,369,191784,6,0,B|274:263|139:285|158:351|208:346|209:319,1,195.999994018555,4|2,0:2|0:2,0:2:0:0:
271,183,193042,2,0,P|267:202|266:220,1,35,8|8,3:2|3:2,0:0:0:0:
358,174,193221,6,0,B|242:178|291:67|158:90,1,224,4|0,3:2|0:0,0:2:0:0:
256,0,194479,5,8,0:2:0:0:
256,0,194569,1,8,0:2:0:0:
256,0,194658,2,0,P|249:113|250:150,1,140,4|8,3:2|0:2,0:2:0:0:
332,177,195197,1,0,3:2:0:0:
159,300,195736,5,0,3:2:0:0:
269,375,196096,6,0,P|301:333|361:334,1,105,4|0,3:2|0:2,0:2:0:0:
504,354,196814,6,0,B|460:380|460:380|441:269,1,154.000004699707,4|0,0:2|0:2,0:2:0:0:
512,143,197353,2,0,P|506:168|504:181,1,35,0|0,3:2|0:0,0:0:0:0:
448,267,197533,6,0,P|431:224|334:223,1,146.999995513916,4|0,0:2|0:0,0:2:0:0:
241,179,198251,6,0,P|323:201|369:88,1,210,4|0,3:2|0:0,0:2:0:0:
256,0,198970,5,4,3:2:0:0:
280,353,199509,1,8,0:2:0:0:
254,186,199868,1,0,3:2:0:0:
126,293,200048,5,0,3:2:0:0:
224,274,200228,1,0,3:2:0:0:
44,208,200407,6,0,B|-7:244|-7:244|28:357,1,167.999994873047,12|0,0:2|3:0,0:0:0:0:
136,142,200946,2,0,B|86:133|86:133|54:80|54:80|-20:65,1,167.999994873047,8|0,0:2|3:2,0:2:0:0:
128,0,201485,1,8,0:2:0:0:
234,102,201664,1,2,0:2:0:0:
234,102,201754,1,8,0:2:0:0:
234,102,201844,6,0,P|277:91|373:74,1,125.999996154785,6|8,3:2|0:2,0:2:0:0:
476,149,202203,2,0,P|479:128|484:107,3,41.9999987182618,10|0|2|0,3:2|0:2|0:2|0:2,0:2:0:0:
372,165,202563,2,0,P|383:198|389:223,3,41.9999987182618,8|0|10|8,3:2|0:2|0:2|0:2,0:2:0:0:
482,253,202922,2,0,P|448:240|381:298,1,125.999996154785,8|8,3:2|0:2,0:2:0:0:
391,312,203281,6,0,P|356:298|236:266,1,125.999996154785,12|10,3:2|0:2,0:2:0:0:
195,371,203641,2,0,P|192:359|189:328,3,41.9999987182618,10|0|10|0,3:2|0:2|0:2|0:2,0:2:0:0:
66,331,204000,2,0,P|72:313|87:297,3,41.9999987182618,8|0|10|8,3:2|0:2|0:2|0:2,0:2:0:0:
44,200,204359,1,8,3:2:0:0:
169,245,204539,1,10,0:2:0:0:
169,245,204629,1,8,0:2:0:0:
169,245,204718,6,0,B|210:217|210:217|181:109,1,125.999996154785,14|0,3:2|0:0,0:2:0:0:
183,127,205078,1,10,3:2:0:0:
38,73,205257,2,0,B|124:86|99:-5|201:19,1,167.999994873047,10|8,0:2|0:2,0:2:0:0:
371,147,205796,1,10,3:2:0:0:
423,76,205976,1,10,0:2:0:0:
271,0,206155,6,0,P|285:102|288:149,1,125.999996154785,12|8,3:2|0:2,0:2:0:0:
211,201,206515,2,0,P|206:221|204:242,3,41.9999987182618,8|8|8|8,3:2|0:2|0:2|0:2,0:2:0:0:
276,323,206874,5,10,3:2:0:0:
281,299,206963,1,8,0:2:0:0:
294,279,207053,1,8,0:2:0:0:
311,264,207143,1,10,0:2:0:0:
333,255,207233,1,8,3:2:0:0:
357,254,207323,1,8,0:2:0:0:
380,259,207412,1,10,0:2:0:0:
399,273,207502,1,8,0:2:0:0:
414,291,207593,6,0,P|409:329|404:379,1,83.9999974365235,6|0,3:2|3:2,0:2:0:0:
512,231,207952,2,0,P|506:202|493:134,1,83.9999974365235,10|2,0:2|0:2,0:0:0:0:
489,128,208221,1,8,0:2:0:0:
489,128,208311,1,0,3:2:0:0:
406,175,208491,1,2,3:2:0:0:
309,106,208670,2,0,P|342:95|389:75,1,83.9999974365235,10|2,0:2|0:2,0:0:0:0:
403,68,208940,1,8,0:2:0:0:
403,68,209030,5,0,3:2:0:0:
306,0,209209,1,0,3:2:0:0:
202,90,209389,2,0,P|209:130|217:188,1,83.9999974365235,10|2,0:2|0:2,0:0:0:0:
246,198,209658,1,8,0:2:0:0:
246,198,209748,2,0,P|239:266|238:288,1,83.9999974365235,2|0,3:2|3:2,0:2:0:0:
384,345,210108,1,8,0:2:0:0:
335,276,210287,1,0,0:0:0:0:
242,373,210467,6,0,P|211:329|122:341,1,125.999996154785,6|0,0:2|0:2,0:2:0:0:
12,347,210826,2,0,P|35:370|45:389,1,41.9999987182618,10|0,0:2|0:0,0:0:0:0:
137,338,211006,2,0,P|141:304|154:219,1,83.9999974365235,2|0,0:2|3:2,0:2:0:0:
152,122,211365,1,0,3:2:0:0:
35,150,211545,2,0,B|17:196|17:196|54:239,1,83.9999974365235,10|0,0:0|0:0,0:0:0:0:
228,110,211904,6,0,B|139:106|161:15|51:32,1,181.999991668702,6|8,3:2|0:2,0:0:0:0:
200,194,212443,1,2,0:2:0:0:
263,37,212623,5,10,3:2:0:0:
234,25,212713,1,8,0:2:0:0:
203,27,212803,1,8,0:2:0:0:
176,43,212893,1,8,0:2:0:0:
160,71,212982,1,8,3:2:0:0:
328,192,213161,6,0,P|348:184|380:174,1,45.4999979171754,10|8,0:2|0:2,0:0:0:0:
498,121,213341,6,0,B|438:87|438:87|470:200,1,178.499994552612,2|0,0:2|0:0,0:2:0:0:
491,216,214958,6,0,P|485:265|483:284,1,48.9999985046387,2|0,0:0|0:0,0:0:0:0:
405,374,215317,2,0,P|371:375|335:326,1,97.9999970092774,2|0,0:0|3:2,0:0:0:0:
227,218,215856,5,8,0:2:0:0:
253,210,215945,1,8,0:2:0:0:
279,203,216035,1,0,3:2:0:0:
305,196,216125,1,0,0:0:0:0:
331,189,216215,6,0,P|299:175|178:146,1,146.999995513916,4|8,3:2|0:2,0:2:0:0:
176,153,216575,1,8,0:2:0:0:
61,305,216754,2,0,B|8:276|8:276|39:154,1,146.999995513916,4|8,3:2|0:2,0:2:0:0:
0,119,217114,1,8,0:2:0:0:
5,84,217203,1,8,0:2:0:0:
35,57,217293,1,8,3:2:0:0:
75,55,217383,1,8,0:2:0:0:
107,76,217473,6,0,P|138:68|256:45,1,146.999995513916,4|0,3:2|0:2,0:2:0:0:
266,42,217832,1,8,3:2:0:0:
328,140,218012,1,8,3:2:0:0:
414,16,218191,1,8,3:2:0:0:
325,153,218371,1,8,3:2:0:0:
493,200,218551,1,8,0:2:0:0:
495,186,218640,1,8,0:2:0:0:
497,173,218730,1,8,0:2:0:0:
500,160,218820,1,8,0:2:0:0:
503,146,218910,1,8,0:2:0:0:
506,134,219000,1,8,0:2:0:0:
262,193,224120,5,8,0:2:0:0:
262,193,224838,6,0,B|304:197|333:160|318:152|343:101|388:102|388:102|368:125|376:127,1,196,4|0,3:2|0:0,0:0:0:0:
380,136,225557,1,2,0:2:0:0:
427,257,225916,1,2,0:2:0:0:
322,314,226275,1,2,3:2:0:0:
262,193,226635,6,0,P|208:200|184:255,1,105,2|0,0:2|0:0,0:0:0:0:
202,274,226994,2,0,L|243:269,1,41.9999987182618,8|0,0:2|0:2,0:2:0:0:
427,257,227173,1,8,0:2:0:0:
423,232,227262,1,8,0:2:0:0:
420,207,227352,1,8,0:2:0:0:
417,182,227442,1,8,0:2:0:0:
414,158,227533,6,0,P|371:160|311:134,1,83.9999974365235,6|0,3:2|0:0,0:2:0:0:
166,43,227892,1,10,3:2:0:0:
190,24,227981,1,8,0:2:0:0:
221,24,228071,1,10,3:2:0:0:
247,41,228161,1,8,0:2:0:0:
258,69,228251,2,0,P|255:95|250:118,1,41.9999987182618,10|8,3:2|0:2,0:2:0:0:
149,194,228431,2,0,P|145:173|143:152,1,41.9999987182618,6|0,3:2|0:2,0:2:0:0:
51,40,228611,1,10,0:2:0:0:
47,60,228700,1,8,0:2:0:0:
44,81,228790,1,10,3:2:0:0:
59,242,228970,6,0,P|101:185|159:203,1,125.999996154785,14|0,0:2|0:2,0:2:0:0:
156,233,229329,1,10,0:2:0:0:
172,263,229418,1,8,0:2:0:0:
198,286,229508,1,10,3:2:0:0:
231,297,229598,1,8,0:2:0:0:
266,294,229688,1,10,0:2:0:0:
297,279,229778,1,8,0:2:0:0:
314,258,229868,6,0,L|307:222,6,20.9999993591309,10|2|10|2|10|2|10,3:2|0:0|0:2|0:0|0:2|0:0|0:2,0:0:0:0:
391,193,230227,2,0,P|377:172|345:156,1,41.9999987182618,8|8,3:2|0:2,0:0:0:0:
281,150,230407,6,0,B|335:179|382:139|361:134|409:85|475:125,1,195.999994018555,6|0,3:2|0:2,0:2:0:0:
506,234,230946,2,0,P|456:229|427:192,1,97.9999970092774,8|2,3:2|0:2,0:0:0:0:
317,80,231305,1,2,3:2:0:0:
416,0,231485,1,2,0:2:0:0:
461,118,231664,1,10,0:2:0:0:
322,236,231844,6,0,B|272:211|282:150|282:150|224:169|166:110,1,195.999994018555,2|0,0:2|0:2,0:2:0:0:
148,36,232383,1,10,3:2:0:0:
16,174,232563,2,0,P|62:168|88:121,1,97.9999970092774,2|0,0:2|3:2,0:2:0:0:
8,76,232832,1,0,0:0:0:0:
8,76,232922,2,0,L|16:184,1,97.9999970092774,2|8,0:2|3:2,0:0:0:0:
78,339,233281,6,0,B|132:362|181:309|181:309|164:249|228:216,1,195.999994018555,2|0,0:2|0:2,0:2:0:0:
355,308,233820,2,0,P|301:293|248:289,1,97.9999970092774,8|2,3:2|0:2,0:0:0:0:
106,268,234179,1,2,3:2:0:0:
270,201,234359,1,2,0:2:0:0:
137,151,234539,1,10,3:2:0:0:
259,289,234718,6,0,B|306:312|326:360|326:360|356:314|427:303,1,195.999994018555,14|0,0:2|0:2,0:2:0:0:
343,200,235257,1,10,3:2:0:0:
297,128,235437,2,0,P|243:134|225:189,1,97.9999970092774,14|0,0:2|3:0,0:2:0:0:
412,147,235796,2,0,P|464:161|473:218,1,97.9999970092774,10|8,3:2|3:2,0:0:0:0:
404,307,236155,6,0,B|356:314|326:360|326:360|306:312|259:289,1,195.999994018555,14|0,3:2|0:2,0:2:0:0:
97,369,236694,2,0,P|144:360|166:309,1,97.9999970092774,8|2,3:2|0:2,0:0:0:0:
88,185,237054,1,2,3:2:0:0:
60,298,237233,1,2,0:2:0:0:
190,233,237413,2,0,P|186:207|186:177,1,48.9999985046387,10|0,3:2|0:0,0:0:0:0:
266,75,237593,6,0,P|355:86|361:176,1,195.999994018555,2|0,0:2|0:2,0:2:0:0:
259,289,238132,1,10,3:2:0:0:
417,332,238311,2,0,P|368:334|327:359,1,97.9999970092774,2|0,0:2|3:2,0:2:0:0:
361,176,238670,2,0,P|387:216|429:240,1,97.9999970092774,2|8,0:2|3:2,0:2:0:0:
484,38,239030,6,0,P|443:47|381:48,1,97.9999970092774,6|0,0:2|3:0,0:2:0:0:
243,24,239389,1,2,0:2:0:0:
287,168,239569,1,10,3:2:0:0:
99,121,239748,2,0,P|140:112|202:111,1,97.9999970092774,2|0,0:2|3:2,0:2:0:0:
196,239,240108,1,10,0:2:0:0:
198,219,240198,1,8,0:2:0:0:
201,200,240287,1,8,3:2:0:0:
214,322,240467,6,0,B|171:349|118:297|130:293|93:236|42:274,1,195.999994018555,6|10,0:2|0:2,0:2:0:0:
8,305,240916,1,8,0:2:0:0:
0,258,241005,1,10,3:2:0:0:
4,210,241095,1,8,0:2:0:0:
32,171,241185,1,10,0:2:0:0:
75,147,241275,1,8,0:2:0:0:
123,145,241365,1,10,3:2:0:0:
168,163,241454,1,8,0:0:0:0:
201,200,241545,2,0,L|192:265,4,48.9999985046387,10|8|8|8|10,0:0|0:0|3:2|0:0|0:0,0:0:0:0:
385,326,242084,6,0,P|335:310|314:252,1,97.9999970092774,6|2,3:2|0:2,0:2:0:0:
317,116,242443,1,10,3:2:0:0:
453,191,242622,1,2,0:2:0:0:
453,191,242712,1,2,0:2:0:0:
453,191,242802,1,2,3:2:0:0:
386,21,242982,1,2,0:2:0:0:
470,106,243161,2,0,P|438:105|407:117,1,48.9999985046387,10|0,3:2|0:0,0:0:0:0:
283,203,243341,6,0,B|242:189|229:123|249:77|300:73|326:91|317:118,1,195.999994018555,2|2,0:2|0:2,0:2:0:0:
195,246,243880,1,10,3:2:0:0:
104,89,244060,1,2,0:2:0:0:
104,89,244149,1,2,0:2:0:0:
104,89,244239,1,2,3:2:0:0:
93,192,244419,1,2,0:2:0:0:
193,138,244599,1,10,3:2:0:0:
24,32,244778,6,0,B|30:74|5:107|5:107|29:132|29:132|-1:165|12:226,1,195.999994018555,2|2,0:2|0:2,0:2:0:0:
35,341,245317,1,10,3:2:0:0:
156,253,245497,2,0,B|139:207|139:207|75:185,1,97.9999970092774,2|0,0:2|3:2,0:2:0:0:
161,366,245856,2,0,P|203:349|257:343,1,97.9999970092774,2|10,0:2|3:2,0:2:0:0:
436,350,246215,6,0,B|366:326|366:326|352:279|352:279|278:253,1,195.999994018555,2|2,0:2|0:2,0:0:0:0:
434,267,246754,2,0,L|487:248,1,48.9999985046387,10|0,3:2|0:2,0:2:0:0:
375,193,246934,2,0,L|322:174,1,48.9999985046387,14|0,0:2|0:0,0:0:0:0:
440,126,247114,1,2,0:2:0:0:
346,26,247293,1,0,0:2:0:0:
321,17,247382,1,8,0:2:0:0:
295,20,247472,1,8,3:2:0:0:
273,33,247562,1,8,0:2:0:0:
258,55,247652,1,8,0:2:0:0:
254,80,247742,1,8,0:2:0:0:
261,105,247832,6,0,P|219:84|137:85,1,97.9999970092774,6|2,3:2|0:2,0:0:0:0:
137,191,248191,1,2,3:2:0:0:
17,39,248371,2,0,B|78:4|78:4|46:136,1,195.999994018555,2|2,0:2|0:2,0:2:0:0:
10,280,248910,1,2,3:2:0:0:
165,292,249090,6,0,B|115:260|79:321|93:322|57:397|-29:354,1,195.999994018555,2|2,0:2|0:2,0:2:0:0:
47,202,249629,1,0,3:2:0:0:
148,375,249808,2,0,P|201:367|240:348,1,97.9999970092774,10|0,0:2|3:0,0:2:0:0:
382,291,250167,2,0,P|329:283|290:264,1,97.9999970092774,10|0,0:2|3:2,0:0:0:0:
226,131,250527,5,2,3:2:0:0:
226,131,250617,1,0,3:2:0:0:
226,131,250706,1,6,3:2:0:0:
304,193,250886,1,2,0:2:0:0:
312,92,251066,1,2,3:2:0:0:
130,147,251245,1,2,0:2:0:0:
130,147,251335,2,0,P|140:100|145:50,1,97.9999970092774,0|0,0:0|0:2,0:0:0:0:
138,32,251605,1,2,0:2:0:0:
31,135,251784,1,2,3:2:0:0:
146,250,251964,6,0,P|196:227|299:199,1,146.999995513916,14|0,0:2|0:2,0:2:0:0:
297,206,252323,1,10,0:2:0:0:
377,286,252503,1,0,3:0:0:0:
272,383,252682,2,0,P|252:360|258:293,1,97.9999970092774,10|0,0:2|3:0,0:2:0:0:
439,196,253042,1,10,0:2:0:0:
439,196,253132,1,8,0:2:0:0:
439,196,253221,1,8,3:2:0:0:
495,319,253401,1,10,0:2:0:0:
495,319,253491,1,8,0:2:0:0:
495,319,253581,5,10,3:2:0:0:
402,381,253760,1,10,3:2:0:0:
338,291,253940,1,10,3:2:0:0:
195,342,254120,2,0,P|198:313|210:236,1,97.9999970092774,10|8,3:2|3:2,0:0:0:0:
196,57,254479,1,10,3:2:0:0:
348,150,254658,1,10,3:2:0:0:
187,44,254838,6,0,P|178:93|172:136,1,48.9999985046387,10|0,3:2|0:0,0:0:0:0:
25,198,255018,1,8,3:2:0:0:
48,172,255108,1,8,0:2:0:0:
80,163,255197,1,10,0:2:0:0:
114,167,255287,1,8,0:2:0:0:
146,189,255377,1,10,3:2:0:0:
161,230,255467,1,8,0:2:0:0:
151,278,255557,1,8,3:2:0:0:
151,278,256455,6,0,P|120:267|50:250,2,83.9999974365235,6|2|10,3:2|0:2|0:2,0:2:0:0:
245,356,256994,2,0,P|285:332|279:235,1,125.999996154785,2|0,0:2|0:0,0:2:0:0:
282,247,257353,1,2,3:2:0:0:
171,151,257533,1,10,0:2:0:0:
235,88,257712,1,2,0:2:0:0:
325,165,257892,6,0,P|349:158|418:147,1,83.9999974365235,0|0,3:2|0:2,0:0:0:0:
467,221,258251,1,8,0:2:0:0:
482,79,258431,2,0,B|429:111|429:111|458:228,1,167.999994873047,0|0,0:2|3:2,0:2:0:0:
507,360,258970,2,0,P|493:334|419:317,1,83.9999974365235,8|0,0:2|0:2,0:0:0:0:
342,369,259329,5,2,3:2:0:0:
224,293,259509,1,2,3:2:0:0:
305,244,259688,1,10,0:2:0:0:
213,302,259868,2,0,P|205:255|188:162,1,125.999996154785,2|0,0:2|0:0,0:2:0:0:
185,164,260227,1,2,3:2:0:0:
315,84,260407,6,0,P|283:91|255:100,1,48.9999985046387,14|0,0:2|0:2,0:2:0:0:
150,31,260587,1,10,0:2:0:0:
137,28,260676,1,8,0:2:0:0:
124,25,260766,1,0,3:2:0:0:
0,129,260946,5,12,0:2:0:0:
61,199,261126,1,8,3:2:0:0:
61,199,261215,1,8,0:2:0:0:
61,199,261305,1,8,0:2:0:0:
185,164,261485,6,0,P|178:196|174:219,1,48.9999985046387,8|0,3:2|0:2,0:2:0:0:
143,251,261664,1,8,0:2:0:0:
143,251,261754,2,0,P|149:292|153:320,1,48.9999985046387,8|0,0:2|3:2,0:2:0:0:
201,361,261934,1,8,0:2:0:0:
234,325,262024,1,8,0:2:0:0:
282,319,262114,1,8,0:2:0:0:
320,348,262203,6,0,P|325:323|350:242,2,83.9999974365235,6|2|10,3:2|0:2|0:2,0:2:0:0:
412,212,262742,2,0,P|351:219|317:135,1,125.999996154785,2|0,0:2|0:0,0:2:0:0:
316,161,263102,1,2,0:2:0:0:
377,84,263281,1,10,0:2:0:0:
221,18,263461,6,0,P|230:58|238:102,1,83.9999974365235,2|0,0:2|3:2,0:2:0:0:
159,176,263820,1,2,0:2:0:0:
159,176,264000,1,10,0:2:0:0:
251,269,264179,2,0,P|311:256|401:238,1,125.999996154785,2|0,0:2|0:0,0:2:0:0:
384,240,264539,1,2,0:2:0:0:
190,373,264718,2,0,L|177:315,1,41.9999987182618,8|0,3:2|0:0,0:0:0:0:
46,289,264898,6,0,P|33:353|24:407,1,83.9999974365235,14|0,0:2|3:2,0:2:0:0:
122,252,265257,1,2,0:2:0:0:
15,112,265437,1,10,3:2:0:0:
66,185,265617,2,0,P|107:198|185:152,1,125.999996154785,2|0,0:2|0:0,0:2:0:0:
269,176,265976,2,0,P|265:155|258:119,1,41.9999987182618,2|0,0:2|0:0,0:0:0:0:
181,0,266155,2,0,P|172:41|168:61,1,41.9999987182618,8|8,0:2|0:2,0:2:0:0:
103,79,266335,6,0,P|185:60|298:41,1,168,6|0,0:2|0:2,0:2:0:0:
286,47,266694,1,10,0:2:0:0:
355,112,266874,1,10,3:2:0:0:
355,112,266964,1,8,0:2:0:0:
355,112,267054,1,10,0:2:0:0:
481,23,267233,6,0,B|435:54|435:54|459:129,1,112,8|0,0:2|0:2,0:2:0:0:
483,128,267503,1,8,0:2:0:0:
497,132,267593,2,0,P|490:169|487:195,1,56,8|0,3:2|0:0,0:0:0:0:
512,266,267772,1,6,0:2:0:0:
476,259,267862,1,8,0:2:0:0:
446,285,267952,6,0,P|402:267|317:246,1,105,8|0,3:2|0:0,0:0:0:0:
301,274,268311,2,0,P|318:270|335:265,2,35,8|8|10,3:2|0:2|0:2,0:0:0:0:
252,69,268670,2,0,P|244:139|249:216,1,140,0|2,3:0|3:2,0:0:0:0:
105,348,269209,1,10,0:2:0:0:
105,348,269299,1,8,0:2:0:0:
105,348,269389,6,0,P|148:333|198:393,1,105,8|0,3:2|0:2,0:0:0:0:
195,378,269748,1,0,3:2:0:0:
272,329,269928,1,8,0:2:0:0:
128,242,270108,2,0,P|91:252|30:263,1,70,0|0,3:0|0:2,0:0:0:0:
42,264,270377,1,8,0:2:0:0:
42,264,270467,1,8,3:2:0:0:
171,166,270646,2,0,P|166:145|156:107,1,35,8|8,0:2|0:2,0:0:0:0:
39,46,270826,6,0,P|84:61|152:13,1,105,10|0,3:2|0:0,0:0:0:0:
164,0,271185,2,0,P|157:17|157:34,2,35,10|8|10,3:2|0:2|0:2,0:0:0:0:
249,118,271545,1,0,3:2:0:0:
255,115,271634,1,8,0:2:0:0:
262,113,271724,1,10,0:2:0:0:
268,111,271814,1,8,0:2:0:0:
275,109,271904,1,10,3:2:0:0:
332,50,272084,1,2,0:2:0:0:
414,121,272263,6,0,P|402:217|400:241,1,105,2|0,3:2|0:0,0:2:0:0:
391,275,272623,2,0,P|388:257|387:240,1,35,0|8,3:2|0:2,0:0:0:0:
476,240,272802,1,8,0:2:0:0:
512,329,272982,1,0,3:2:0:0:
512,329,273161,1,8,0:2:0:0:
415,380,273341,2,0,P|372:365|311:350,1,105,8|8,3:2|0:2,0:0:0:0:
193,356,273700,6,0,P|264:371|307:267,1,167.999994873047,6|10,3:2|3:2,0:0:0:0:
309,282,274149,1,8,0:2:0:0:
309,282,274239,1,10,0:2:0:0:
233,228,274419,2,0,P|231:201|224:136,1,70,0|2,3:0|0:2,0:0:0:0:
222,137,274688,1,8,0:2:0:0:
222,137,274778,1,10,3:2:0:0:
285,66,274958,1,10,0:2:0:0:
441,141,275138,6,0,P|395:148|302:170,1,140,8|8,3:2|3:2,0:0:0:0:
160,57,275676,1,8,0:2:0:0:
52,153,275856,1,0,3:2:0:0:
143,191,276036,1,8,0:2:0:0:
143,191,276126,1,8,0:2:0:0:
143,191,276215,2,0,P|149:238|153:269,1,70,8|8,3:2|0:2,0:0:0:0:
0,320,276575,6,0,P|6:289|14:243,2,70,2|2|10,3:2|0:2|3:2,0:0:0:0:
104,372,277114,2,0,P|151:356|209:346,1,105,2|0,0:2|0:0,0:2:0:0:
215,347,277473,1,2,0:2:0:0:
325,384,277652,2,0,B|355:354|355:354|330:303,1,70,10|2,3:2|0:2,0:0:0:0:
301,298,277922,1,0,0:0:0:0:
292,286,278012,6,0,B|261:199|345:226|324:133,1,146.999995513916,0|0,3:2|0:2,0:2:0:0:
297,121,278371,1,8,3:2:0:0:
319,113,278460,1,8,0:2:0:0:
342,106,278550,1,8,0:2:0:0:
365,100,278640,1,8,0:2:0:0:
389,95,278730,1,8,3:2:0:0:
233,68,278910,5,10,0:2:0:0:
447,164,279090,1,10,0:2:0:0:
233,68,279269,1,10,0:2:0:0:
