osu file format v14

[General]
AudioFilename: audio.mp3
AudioLeadIn: 0
PreviewTime: 219086
Countdown: 0
SampleSet: Soft
StackLeniency: 0.4
Mode: 0
LetterboxInBreaks: 0
WidescreenStoryboard: 0

[Editor]
DistanceSpacing: 1.3
BeatDivisor: 4
GridSize: 16
TimelineZoom: 2

[Metadata]
Title:Yume to Iro de Dekiteiru
TitleUnicode:夢と色でできている
Artist:Sasaki Sayaka
ArtistUnicode:佐咲紗花
Creator:kazu2411
Version:I'll take you and everything you've got with me.
Source:夢と色でできている
Tags:yume to iro de dekiteiru eroge op opening visual novel feng 8th video game japanese 堀江晶太 Horie Shouta pop jpop j-pop gazimal dkblaze
BeatmapID:2879341
BeatmapSetID:1394924

[Difficulty]
HPDrainRate:5.5
CircleSize:4
OverallDifficulty:8.5
ApproachRate:9.1
SliderMultiplier:1.8
SliderTickRate:1

[Events]
//Background and Video events
0,0,"yumet to iro de dekiteiru.jpg",0,0
//Break Periods
2,110068,120781
2,220523,223397
//Storyboard Layer 0 (Background)
//Storyboard Layer 1 (Fail)
//Storyboard Layer 2 (Pass)
//Storyboard Layer 3 (Foreground)
//Storyboard Layer 4 (Overlay)
//Storyboard Sound Samples

[TimingPoints]
647,359.281437125748,4,2,5,35,1,0
647,-100,4,2,5,35,0,0
826,-100,4,2,1,35,0,0
1904,-125,4,2,1,35,0,0
2263,-125,4,2,1,35,0,0
2443,-125,4,2,1,35,0,0
3521,-125,4,2,5,35,0,0
3700,-125,4,2,1,35,0,0
5138,-125,4,2,1,35,0,0
5317,-125,4,2,1,35,0,0
6395,-125,4,2,5,45,0,0
6575,-125,4,2,1,45,0,0
7652,-111.111111111111,4,2,1,45,0,0
8371,-99.9999999999999,4,2,1,45,0,0
8910,-99.9999999999999,4,2,2,45,0,0
9090,-90.9090909090909,4,2,1,60,0,0
9359,-90.9090909090909,4,2,1,5,0,0
9449,-90.9090909090909,4,2,1,60,0,0
11964,-90.9090909090909,4,2,2,60,0,0
12144,-90.9090909090909,4,2,1,60,0,0
12503,-90.9090909090909,4,2,2,60,0,0
12682,-90.9090909090909,4,2,1,60,0,0
13042,-90.9090909090909,4,2,2,60,0,0
13221,-90.9090909090909,4,2,1,60,0,0
13491,-90.9090909090909,4,2,2,60,0,0
13581,-90.9090909090909,4,2,1,60,0,0
13940,-90.9090909090909,4,2,2,60,0,0
14120,-90.9090909090909,4,2,1,60,0,0
14479,-90.9090909090909,4,2,2,60,0,0
14658,-90.9090909090909,4,2,1,60,0,0
16006,-90.9090909090909,4,2,2,60,0,0
16096,-90.9090909090909,4,2,1,60,0,0
17263,-90.9090909090909,4,2,1,5,0,0
17353,-90.9090909090909,4,2,1,60,0,0
18431,-90.9090909090909,4,2,1,60,0,0
19149,-125,4,2,1,60,0,0
20766,-125,4,2,5,60,0,0
21126,-125,4,2,1,60,0,0
22203,-125,4,2,5,60,0,0
22742,-125,4,2,1,60,0,0
22922,-125,4,2,1,60,0,0
25078,-125,4,2,5,60,0,0
25437,-125,4,2,1,60,0,0
26515,-125,4,2,5,60,0,0
26874,-125,4,2,1,60,0,0
27952,-125,4,2,5,60,0,0
28132,-125,4,2,1,60,0,0
28311,-125,4,2,1,60,0,0
29389,-125,4,2,1,45,0,0
30826,-125,4,2,5,45,0,0
31185,-125,4,2,1,45,0,0
31724,-125,4,2,1,45,0,0
32263,-125,4,2,5,45,0,0
32623,-125,4,2,1,45,0,0
33161,-125,4,2,1,45,0,0
33521,-125,4,2,1,45,0,0
33700,-125,4,2,5,45,0,0
34419,-125,4,2,1,45,0,0
34958,-125,4,2,1,45,0,0
35138,-125,4,2,5,45,0,0
35317,-125,4,2,1,45,0,0
37832,-125,4,2,1,45,0,0
38281,-125,4,2,1,5,0,0
38371,-125,4,2,1,45,0,0
38551,-166.666666666667,4,2,1,45,0,0
38820,-166.666666666667,4,2,1,5,0,0
38910,-166.666666666667,4,2,1,45,0,0
39090,-166.666666666667,4,2,1,60,0,0
39449,-166.666666666667,4,2,1,60,0,0
39988,-100,4,2,1,60,0,0
40347,-100,4,2,2,60,0,0
40886,-100,4,2,1,60,0,0
41694,-100,4,2,1,5,0,0
41784,-100,4,2,1,60,0,0
42682,-100,4,2,1,60,0,0
47443,-100,4,2,1,5,0,0
47533,-100,4,2,1,60,0,0
48880,-100,4,2,1,5,0,0
48970,-100,4,2,1,60,0,0
53191,-100,4,2,1,5,0,0
53281,-100,4,2,1,60,0,0
55437,-100,4,2,1,60,0,0
56066,-100,4,2,1,5,0,0
56155,-100,4,2,1,60,0,0
58042,-100,4,2,2,60,0,0
58132,-100,4,2,1,60,0,0
58491,-100,4,2,1,60,0,0
58940,-100,4,2,1,5,0,0
59030,-100,4,2,1,60,0,0
60377,-100,4,2,1,5,0,0
60467,-100,4,2,1,60,0,0
61814,-100,4,2,1,5,0,0
61904,-100,4,2,1,60,0,0
63341,-100,4,2,2,60,0,0
63880,-90.9090909090909,4,2,1,60,0,0
65587,-90.9090909090909,4,2,1,5,0,0
65676,-90.9090909090909,4,2,1,60,0,0
65766,-90.9090909090909,4,2,1,5,0,0
65856,-90.9090909090909,4,2,1,60,0,0
67203,-90.9090909090909,4,2,1,5,0,0
67293,-90.9090909090909,4,2,1,60,0,0
67383,-90.9090909090909,4,2,1,5,0,0
67473,-90.9090909090909,4,2,1,60,0,0
67563,-90.9090909090909,4,2,1,5,0,0
67652,-90.9090909090909,4,2,1,60,0,0
67742,-90.9090909090909,4,2,1,5,0,0
67832,-90.9090909090909,4,2,1,60,0,0
67922,-90.9090909090909,4,2,1,5,0,0
68012,-90.9090909090909,4,2,1,60,0,0
68281,-90.9090909090909,4,2,1,5,0,0
68371,-90.9090909090909,4,2,1,60,0,0
69898,-90.9090909090909,4,2,1,60,0,0
69988,-90.9090909090909,4,2,1,60,0,0
70437,-90.9090909090909,4,2,1,5,0,0
70527,-90.9090909090909,4,2,1,60,0,0
71155,-90.9090909090909,4,2,1,5,0,0
71245,-90.9090909090909,4,2,1,60,0,0
71964,-90.9090909090909,4,2,2,60,0,0
72323,-90.9090909090909,4,2,1,60,0,0
72593,-90.9090909090909,4,2,1,60,0,0
72682,-90.9090909090909,4,2,1,60,0,0
72862,-90.9090909090909,4,2,1,60,0,0
73042,-90.9090909090909,4,2,1,60,0,0
73221,-90.9090909090909,4,2,1,60,0,0
73401,-90.9090909090909,4,2,1,60,0,0
74120,-90.9090909090909,4,2,2,60,0,0
75197,-83.3333333333333,4,2,1,80,0,1
75467,-83.3333333333333,4,2,1,5,0,1
75557,-83.3333333333333,4,2,1,80,0,1
76904,-83.3333333333333,4,2,1,5,0,1
76994,-83.3333333333333,4,2,1,80,0,1
78341,-83.3333333333333,4,2,1,5,0,1
78431,-83.3333333333333,4,2,1,80,0,1
79778,-83.3333333333333,4,2,1,5,0,1
79868,-83.3333333333333,4,2,1,80,0,1
80587,-83.3333333333333,4,2,1,80,0,1
80676,-83.3333333333333,4,2,2,80,0,1
80946,-83.3333333333333,4,2,1,80,0,1
81215,-83.3333333333333,4,2,1,5,0,1
81305,-83.3333333333333,4,2,1,80,0,1
82652,-83.3333333333333,4,2,1,5,0,1
82742,-83.3333333333333,4,2,1,80,0,1
84090,-83.3333333333333,4,2,1,5,0,1
84179,-83.3333333333333,4,2,1,80,0,1
85617,-83.3333333333333,4,2,2,80,0,1
85976,-83.3333333333333,4,2,1,80,0,1
86335,-250,4,2,1,80,0,1
86605,-250,4,2,1,5,0,1
86694,-83.3333333333333,4,2,1,80,0,1
86964,-83.3333333333333,4,2,1,5,0,1
87054,-83.3333333333333,4,2,1,80,0,1
88401,-83.3333333333333,4,2,1,5,0,1
88491,-83.3333333333333,4,2,1,80,0,1
89838,-83.3333333333333,4,2,1,5,0,1
89928,-83.3333333333333,4,2,1,80,0,1
91275,-83.3333333333333,4,2,1,5,0,1
91365,-83.3333333333333,4,2,1,80,0,1
92173,-83.3333333333333,4,2,2,80,0,1
92443,-83.3333333333333,4,2,1,80,0,1
92712,-83.3333333333333,4,2,1,5,0,1
92802,-83.3333333333333,4,2,1,80,0,1
94149,-83.3333333333333,4,2,1,5,0,1
94239,-83.3333333333333,4,2,1,80,0,1
95587,-83.3333333333333,4,2,1,5,0,1
95676,-83.3333333333333,4,2,1,80,0,1
96305,-83.3333333333333,4,2,1,5,0,1
96395,-83.3333333333333,4,2,1,80,0,1
97832,-83.3333333333333,4,2,2,80,0,1
98371,-83.3333333333333,4,2,6,80,0,1
101335,-83.3333333333333,4,2,1,5,0,1
101425,-83.3333333333333,4,2,6,80,0,1
102772,-83.3333333333333,4,2,1,5,0,1
102862,-83.3333333333333,4,2,6,80,0,1
102952,-83.3333333333333,4,2,1,5,0,1
103042,-83.3333333333333,4,2,6,80,0,1
103132,-83.3333333333333,4,2,1,5,0,1
103221,-83.3333333333333,4,2,6,80,0,1
103401,-83.3333333333333,4,2,1,80,0,1
103581,-83.3333333333333,4,2,2,80,0,1
104120,-83.3333333333333,4,2,1,80,0,1
105646,-83.3333333333333,4,2,1,5,0,1
105736,-83.3333333333333,4,2,1,80,0,1
106365,-83.3333333333333,4,2,1,5,0,1
106455,-83.3333333333333,4,2,1,80,0,1
107263,-83.3333333333333,4,2,2,80,0,1
108970,-100,4,2,1,60,0,0
109329,-333.333333333333,4,2,1,40,0,0
109868,-333.333333333333,4,2,1,60,0,0
121365,-100,4,2,1,60,0,0
128012,-100,4,2,1,60,0,0
129359,-100,4,2,1,5,0,0
129449,-100,4,2,1,60,0,0
133670,-100,4,2,1,5,0,0
133760,-100,4,2,1,60,0,0
135916,-100,4,2,1,60,0,0
136545,-100,4,2,1,5,0,0
136635,-100,4,2,1,60,0,0
138072,-100,4,2,1,60,0,0
139419,-100,4,2,1,5,0,0
139509,-100,4,2,1,60,0,0
140856,-100,4,2,1,5,0,0
140946,-100,4,2,1,60,0,0
141844,-100,4,2,1,60,0,0
142383,-100,4,2,2,60,0,0
142563,-100,4,2,1,60,0,0
142832,-100,4,2,2,60,0,0
142922,-100,4,2,1,60,0,0
143191,-100,4,2,2,60,0,0
143461,-100,4,2,1,60,0,0
143641,-100,4,2,2,60,0,0
143820,-100,4,2,1,60,0,0
144179,-100,4,2,2,60,0,0
144359,-90.9090909090909,4,2,1,60,0,0
145347,-90.9090909090909,4,2,1,5,0,0
145437,-90.9090909090909,4,2,1,60,0,0
145527,-90.9090909090909,4,2,1,5,0,0
145617,-90.9090909090909,4,2,1,60,0,0
146066,-90.9090909090909,4,2,1,5,0,0
146155,-90.9090909090909,4,2,1,60,0,0
146245,-90.9090909090909,4,2,1,5,0,0
146335,-90.9090909090909,4,2,1,60,0,0
146784,-90.9090909090909,4,2,1,5,0,0
146874,-90.9090909090909,4,2,1,60,0,0
146964,-90.9090909090909,4,2,1,5,0,0
147054,-90.9090909090909,4,2,1,60,0,0
147682,-90.9090909090909,4,2,1,5,0,0
147772,-90.9090909090909,4,2,1,60,0,0
147862,-90.9090909090909,4,2,1,5,0,0
147952,-90.9090909090909,4,2,1,60,0,0
148042,-90.9090909090909,4,2,1,5,0,0
148132,-90.9090909090909,4,2,1,60,0,0
148221,-90.9090909090909,4,2,1,5,0,0
148311,-90.9090909090909,4,2,1,60,0,0
148401,-90.9090909090909,4,2,1,5,0,0
148491,-90.9090909090909,4,2,1,60,0,0
148760,-90.9090909090909,4,2,1,5,0,0
148850,-90.9090909090909,4,2,1,60,0,0
149479,-90.9090909090909,4,2,1,5,0,0
149569,-90.9090909090909,4,2,1,60,0,0
149748,-90.9090909090909,4,2,2,60,0,0
150108,-90.9090909090909,4,2,1,60,0,0
150377,-90.9090909090909,4,2,1,5,0,0
150467,-90.9090909090909,4,2,1,60,0,0
150916,-90.9090909090909,4,2,1,5,0,0
151006,-90.9090909090909,4,2,1,60,0,0
151635,-90.9090909090909,4,2,1,60,0,0
151724,-90.9090909090909,4,2,1,60,0,0
152443,-90.9090909090909,4,2,2,60,0,0
152802,-90.9090909090909,4,2,1,60,0,0
153072,-90.9090909090909,4,2,1,60,0,0
153161,-90.9090909090909,4,2,2,60,0,0
154239,-133.333333333333,4,2,1,60,0,0
154599,-133.333333333333,4,2,1,60,0,0
155138,-90.9090909090909,4,2,1,60,0,0
155676,-83.3333333333333,4,2,1,80,0,1
155946,-83.3333333333333,4,2,1,5,0,1
156036,-83.3333333333333,4,2,1,80,0,1
157383,-83.3333333333333,4,2,1,5,0,1
157473,-83.3333333333333,4,2,1,80,0,1
158820,-83.3333333333333,4,2,1,5,0,1
158910,-83.3333333333333,4,2,1,80,0,1
160257,-83.3333333333333,4,2,1,5,0,1
160347,-83.3333333333333,4,2,1,80,0,1
160976,-83.3333333333333,4,2,1,5,0,1
161066,-83.3333333333333,4,2,1,80,0,1
161155,-83.3333333333333,4,2,2,80,0,1
161425,-83.3333333333333,4,2,1,80,0,1
161694,-83.3333333333333,4,2,1,5,0,1
161784,-83.3333333333333,4,2,1,80,0,1
163132,-83.3333333333333,4,2,1,5,0,1
163221,-83.3333333333333,4,2,1,80,0,1
164569,-83.3333333333333,4,2,1,5,0,1
164658,-83.3333333333333,4,2,1,80,0,1
166096,-83.3333333333333,4,2,2,80,0,1
166814,-250,4,2,1,80,0,1
167084,-250,4,2,1,80,0,1
167173,-83.3333333333333,4,2,1,80,0,1
167443,-83.3333333333333,4,2,1,5,0,1
167533,-83.3333333333333,4,2,1,80,0,1
168880,-83.3333333333333,4,2,1,5,0,1
168970,-83.3333333333333,4,2,1,80,0,1
170317,-83.3333333333333,4,2,1,5,0,1
170407,-83.3333333333333,4,2,1,80,0,1
171754,-83.3333333333333,4,2,1,5,0,1
171844,-83.3333333333333,4,2,1,80,0,1
172473,-83.3333333333333,4,2,1,5,0,1
172563,-83.3333333333333,4,2,1,80,0,1
172652,-83.3333333333333,4,2,2,80,0,1
172922,-83.3333333333333,4,2,1,80,0,1
173191,-83.3333333333333,4,2,1,5,0,1
173281,-83.3333333333333,4,2,1,80,0,1
174629,-83.3333333333333,4,2,1,5,0,1
174718,-83.3333333333333,4,2,1,80,0,1
176066,-83.3333333333333,4,2,1,5,0,1
176155,-83.3333333333333,4,2,1,80,0,1
176874,-83.3333333333333,4,2,2,80,0,1
177054,-83.3333333333333,4,2,1,80,0,1
177593,-83.3333333333333,4,2,2,80,0,1
178850,-83.3333333333333,4,2,6,70,0,0
190347,-125,4,2,1,70,0,0
191425,-125,4,2,1,60,0,0
192503,-250,4,2,1,60,0,0
193221,-125,4,2,1,60,0,0
194479,-125,4,2,2,60,0,0
194658,-125,4,2,1,60,0,0
194928,-125,4,2,1,5,0,0
195018,-125,4,2,2,60,0,0
196096,-125,4,2,1,60,0,0
200946,-250,4,2,1,60,0,0
201485,-125,4,2,1,60,0,0
201754,-125,4,2,2,60,0,0
201844,-100,4,2,1,60,0,0
202203,-100,4,2,2,60,0,0
202742,-100,4,2,2,60,0,0
203281,-100,4,2,1,60,0,0
203551,-100,4,2,2,60,0,0
204179,-100,4,2,2,60,0,0
204718,-100,4,2,1,60,0,0
205078,-100,4,2,2,60,0,0
206156,-100,4,2,1,60,0,0
206425,-100,4,2,2,60,0,0
207593,-83.3333333333333,4,2,1,60,0,0
210467,-76.9230769230769,4,2,1,60,0,1
212533,-76.9230769230769,4,2,2,60,0,1
213341,-1000,4,2,5,60,0,0
214868,-1000,4,2,5,5,0,0
214958,-1000,4,2,1,60,0,0
215497,-1000,4,2,1,60,0,0
215856,-83.3333333333333,4,2,1,60,0,0
217742,-83.3333333333333,4,2,1,60,0,0
217832,-83.3333333333333,4,2,1,60,0,0
224120,-333.333333333333,4,2,1,60,0,0
224748,-333.333333333333,4,2,1,5,0,0
224838,-333.333333333333,4,2,1,60,0,0
225557,-333.333333333333,4,2,6,35,0,0
226635,-333.333333333333,4,2,6,60,0,0
226994,-83.3333333333333,4,2,1,60,0,0
227173,-83.3333333333333,4,2,2,60,0,0
227533,-83.3333333333333,4,2,1,60,0,0
227892,-83.3333333333333,4,2,2,60,0,0
228431,-83.3333333333333,4,2,1,60,0,0
228611,-83.3333333333333,4,2,2,60,0,0
228970,-83.3333333333333,4,2,1,60,0,0
229329,-83.3333333333333,4,2,2,60,0,0
230407,-83.3333333333333,4,2,1,80,0,1
230676,-83.3333333333333,4,2,1,5,0,1
230766,-83.3333333333333,4,2,1,80,0,1
232114,-83.3333333333333,4,2,1,5,0,1
232203,-83.3333333333333,4,2,1,80,0,1
233551,-83.3333333333333,4,2,1,5,0,1
233641,-83.3333333333333,4,2,1,80,0,1
234988,-83.3333333333333,4,2,1,5,0,1
235078,-83.3333333333333,4,2,1,80,0,1
235886,-83.3333333333333,4,2,2,80,0,1
236155,-83.3333333333333,4,2,1,80,0,1
236425,-83.3333333333333,4,2,1,5,0,1
236515,-83.3333333333333,4,2,1,80,0,1
237862,-83.3333333333333,4,2,1,5,0,1
237952,-83.3333333333333,4,2,1,80,0,1
239748,-83.3333333333333,4,2,2,80,0,1
239928,-83.3333333333333,4,2,1,80,0,1
240108,-83.3333333333333,4,2,2,80,0,1
240467,-83.3333333333333,4,2,1,80,0,1
240826,-83.3333333333333,4,2,2,80,0,1
242084,-83.3333333333333,4,2,6,80,0,1
245048,-83.3333333333333,4,2,1,5,0,1
245138,-83.3333333333333,4,2,6,80,0,1
246485,-83.3333333333333,4,2,1,5,0,1
246575,-83.3333333333333,4,2,6,80,0,1
246664,-83.3333333333333,4,2,1,5,0,1
246754,-83.3333333333333,4,2,6,80,0,1
246844,-83.3333333333333,4,2,1,80,0,1
246934,-83.3333333333333,4,2,6,80,0,1
247114,-83.3333333333333,4,2,1,80,0,1
247383,-83.3333333333333,4,2,2,80,0,1
247832,-83.3333333333333,4,2,1,80,0,1
249359,-83.3333333333333,4,2,1,5,0,1
249449,-83.3333333333333,4,2,1,80,0,1
249808,-83.3333333333333,4,2,2,80,0,1
250078,-83.3333333333333,4,2,1,5,0,1
250167,-83.3333333333333,4,2,2,80,0,1
250706,-83.3333333333333,4,2,1,80,0,1
251515,-83.3333333333333,4,2,1,80,0,1
251605,-83.3333333333333,4,2,1,80,0,1
252233,-83.3333333333333,4,2,1,80,0,1
252323,-83.3333333333333,4,2,1,80,0,1
253042,-83.3333333333333,4,2,2,80,0,1
253581,-83.3333333333333,4,2,1,80,0,1
255018,-83.3333333333333,4,2,2,80,0,1
255557,-83.3333333333333,4,2,1,80,0,0
256455,-83.3333333333333,4,2,1,70,0,0
260407,-83.3333333333333,4,2,2,70,0,0
262563,-83.3333333333333,4,2,1,70,0,0
264898,-83.3333333333333,4,2,2,70,0,0
265078,-83.3333333333333,4,2,1,70,0,0
266155,-83.3333333333333,4,2,2,70,0,0
266335,-83.3333333333333,4,2,1,70,0,0
266605,-83.3333333333333,4,2,1,70,0,0
266694,-83.3333333333333,4,2,2,70,0,0
267233,-83.3333333333333,4,2,1,70,0,0
267772,-83.3333333333333,4,2,2,70,0,0
267952,-125,4,2,1,60,0,0
268311,-125,4,2,2,60,0,0
268491,-125,4,2,5,60,0,0
268850,-125,4,2,2,60,0,0
270826,-125,4,2,5,60,0,0
271006,-125,4,2,2,60,0,0
272263,-125,4,2,5,60,0,0
272623,-125,4,2,2,60,0,0
273700,-125,4,2,2,60,0,0
275138,-125,4,2,5,60,0,0
275317,-125,4,2,2,60,0,0
276575,-125,4,2,5,60,0,0
276754,-125,4,2,2,60,0,0
278012,-125,4,2,5,60,0,0
278281,-125,4,2,2,60,0,0
278910,-125,4,2,1,60,0,0
279090,-125,4,2,1,60,0,0
279269,-125,4,2,1,60,0,0

[Colours]
Combo1 : 197,163,254
Combo2 : 254,192,241
Combo3 : 212,212,212

[HitObjects]
69,78,647,5,2,0:2:0:0:
209,114,826,1,2,0:2:0:0:
121,254,1006,1,2,0:2:0:0:
97,168,1185,1,2,0:2:0:0:
97,168,1545,5,2,0:2:0:0:
121,254,1724,1,2,0:2:0:0:
145,340,1904,2,0,B|186:352|217:320|212:313|231:283|277:284,1,144,2|0,0:2|0:2,0:2:0:0:
363,340,2443,1,2,0:2:0:0:
277,364,2623,1,2,0:2:0:0:
277,364,2982,5,2,0:2:0:0:
363,340,3161,1,2,0:2:0:0:
449,316,3341,1,2,0:2:0:0:
398,169,3521,5,2,0:2:0:0:
484,225,3700,1,2,0:2:0:0:
363,340,3880,1,2,0:2:0:0:
381,255,4060,1,2,0:2:0:0:
381,255,4419,5,2,0:2:0:0:
363,340,4599,1,2,0:2:0:0:
449,316,4778,2,0,B|461:261|461:261|456:228|456:228|470:168,1,144,2|0,0:2|0:2,0:2:0:0:
416,84,5317,1,2,0:2:0:0:
398,169,5497,1,2,0:2:0:0:
398,169,5856,5,2,0:2:0:0:
416,84,6036,1,2,0:2:0:0:
331,117,6215,1,2,0:2:0:0:
380,124,6395,5,2,0:2:0:0:
399,37,6575,1,0,0:0:0:0:
312,18,6754,1,2,0:2:0:0:
293,105,6934,2,0,B|260:83|260:83|214:91,1,72,2|0,0:2|0:2,0:2:0:0:
136,108,7293,5,2,0:2:0:0:
154,214,7473,1,2,0:2:0:0:
172,320,7652,2,0,B|208:313|208:313|221:305|221:305|266:297,1,80.9999975280763,2|0,0:2|0:2,0:2:0:0:
388,343,8012,5,2,0:2:0:0:
248,300,8191,1,2,0:2:0:0:
355,200,8371,2,0,B|316:193|316:193|301:186|301:186|254:177,1,90,2|0,0:2|0:2,0:2:0:0:
105,230,8730,1,8,0:2:0:0:
267,179,8910,1,8,0:2:0:0:
275,223,9000,1,8,0:2:0:0:
283,267,9090,6,0,B|325:281|359:248|353:239|383:204|436:218,1,148.50000453186,4|0,3:2|0:0,0:2:0:0:
415,291,9449,1,0,3:2:0:0:
470,149,9629,2,0,P|434:101|388:128,1,99.0000030212403,8|0,0:2|3:2,0:2:0:0:
365,134,9898,1,8,3:2:0:0:
382,173,9988,2,0,L|398:66,1,99.0000030212403,0|0,3:2|3:2,0:0:0:0:
474,234,10347,1,8,0:2:0:0:
346,95,10527,1,0,0:2:0:0:
507,10,10706,6,0,L|400:26,1,99.0000030212403,0|0,3:2|3:2,0:0:0:0:
256,45,11066,1,8,0:2:0:0:
402,213,11335,1,8,0:2:0:0:
382,173,11425,2,0,L|284:187,1,99.0000030212403,0|0,3:2|3:2,0:0:0:0:
123,204,11784,1,12,0:2:0:0:
241,348,11964,1,8,0:2:0:0:
227,316,12054,1,8,0:2:0:0:
215,288,12144,6,0,L|155:298,1,49.5000015106202,6|0,0:0|0:0,0:0:0:0:
75,333,12323,2,0,L|95:276,1,49.5000015106202,2|0,0:0|0:0,0:0:0:0:
148,139,12503,1,10,3:2:0:0:
135,171,12593,1,0,3:2:0:0:
123,204,12682,1,10,3:2:0:0:
283,187,12862,5,0,3:2:0:0:
193,39,13042,1,10,3:2:0:0:
225,53,13132,1,0,3:2:0:0:
257,67,13221,2,0,B|288:67|307:47|298:45|318:21|358:23,1,99.0000030212403,10|2,3:2|0:2,0:2:0:0:
373,34,13491,1,0,3:2:0:0:
405,48,13581,5,10,3:2:0:0:
347,238,13760,2,0,L|394:250,1,49.5000015106202
508,119,13940,1,8,3:2:0:0:
476,133,14030,1,0,3:2:0:0:
444,147,14120,1,8,3:2:0:0:
507,0,14299,5,0,3:2:0:0:
323,118,14479,2,0,P|336:95|367:94,1,49.5000015106202,8|0,0:2|0:0,0:0:0:0:
409,162,14658,2,0,B|378:162|359:142|368:140|348:116|308:118,1,99.0000030212403,8|2,3:2|0:2,0:2:0:0:
291,132,14928,1,0,0:0:0:0:
259,146,15018,5,10,0:2:0:0:
428,120,15197,2,0,L|484:135,1,49.5000015106202,2|0,0:0|0:0,0:0:0:0:
375,302,15377,1,2,3:2:0:0:
361,270,15467,1,0,3:2:0:0:
347,238,15557,1,10,3:2:0:0:
414,384,15736,5,0,3:2:0:0:
507,168,15916,1,2,3:2:0:0:
493,200,16006,1,0,3:2:0:0:
479,232,16096,2,0,B|448:232|429:212|438:210|418:186|378:188,1,99.0000030212403,8|2,3:2|0:2,0:2:0:0:
361,206,16365,1,0,0:0:0:0:
347,238,16455,5,8,3:2:0:0:
417,55,16635,2,0,L|349:73,1,49.5000015106202,0|0,3:2|0:0,0:0:0:0:
165,116,16814,1,0,3:2:0:0:
264,339,16994,2,0,B|281:318|277:295|277:295|221:272|182:325,1,148.50000453186,8|0,0:2|0:0,0:2:0:0:
112,295,17353,1,0,3:3:0:0:
266,215,17533,1,0,3:2:0:0:
165,116,17712,1,0,3:3:0:0:
188,254,17892,1,4,3:2:0:0:
188,254,18431,5,2,0:0:0:0:
112,295,18611,1,0,0:0:0:0:
38,249,18790,1,0,0:0:0:0:
40,161,18970,1,0,0:0:0:0:
119,204,19149,2,0,P|128:134|122:33,1,144,2|0,0:0|0:0,0:0:0:0:
239,38,19688,5,0,0:0:0:0:
164,122,19868,2,0,B|209:114|226:153|220:160|239:194|305:187,1,144,2|0,0:0|0:0,0:0:0:0:
159,196,20407,1,0,0:0:0:0:
290,117,20587,1,2,0:0:0:0:
238,276,20766,6,0,P|206:262|161:343,1,144,2|0,0:0|0:0,0:0:0:0:
21,233,21305,2,0,P|53:219|98:300,1,144,2|0,0:0|0:0,0:0:0:0:
210,159,21844,2,0,P|172:168|161:214,1,72,0|2,0:0|0:0,0:0:0:0:
296,278,22203,6,0,P|306:237|310:199,1,72,2|0,0:0|0:0,0:0:0:0:
184,357,22563,2,0,P|174:316|170:278,1,72,0|2,0:0|0:0,0:0:0:0:
158,195,22922,1,0,0:0:0:0:
287,141,23102,1,0,0:0:0:0:
174,79,23281,1,0,0:0:0:0:
300,43,23461,6,0,P|244:35|238:119,1,144,2|0,0:0|0:0,0:0:0:0:
263,213,24000,1,0,0:0:0:0:
390,179,24179,2,0,B|375:148|375:148|328:132,1,72,2|0,0:0|0:0,0:0:0:0:
212,256,24539,2,0,B|227:225|227:225|274:209,1,72
351,347,24898,1,2,0:0:0:0:
469,200,25078,6,0,B|412:215|412:215|397:229|397:229|324:248,1,144,2|0,0:0|0:0,0:0:0:0:
453,284,25617,1,2,0:0:0:0:
351,347,25796,2,0,P|326:310|334:254,1,72
354,163,26155,1,0,0:0:0:0:
323,283,26335,1,2,0:0:0:0:
262,212,26515,6,0,B|198:234|198:234|163:305,1,144,2|0,0:0|0:0,0:0:0:0:
25,182,27054,2,0,P|82:172|78:263,1,144,2|0,0:0|0:0,0:0:0:0:
188,198,27593,2,0,P|196:147|197:99,1,72,0|2,0:0|0:0,0:0:0:0:
139,379,27952,6,0,P|131:328|130:280,1,72,2|0,0:0|0:0,0:0:0:0:
269,326,28311,2,0,P|277:275|280:221,1,72,0|2,0:0|0:0,0:0:0:0:
26,279,28670,2,0,P|18:228|16:175,1,72
188,198,29030,2,0,P|196:147|198:93,1,72,0|2,0:0|0:0,0:0:0:0:
188,95,29299,1,0,0:0:0:0:
177,70,29389,6,0,P|126:63|135:142,1,144,6|0,3:2|0:0,0:0:0:0:
0,124,29928,2,0,P|51:117|42:196,1,144,2|0,0:0|0:0,0:0:0:0:
188,198,30467,2,0,P|149:204|151:254,1,72,2|2,0:0|0:0,0:0:0:0:
8,256,30826,6,0,P|42:223|38:286,1,144,2|0,0:2|0:0,0:2:0:0:
108,345,31365,2,0,P|144:372|132:310,1,144,2|0,0:2|0:0,0:0:0:0:
139,231,31904,2,0,P|153:200|188:198,1,72,2|0,0:0|0:0,0:0:0:0:
285,290,32263,2,0,P|250:292|231:264,1,72,2|0,0:0|0:0,0:0:0:0:
287,144,32623,1,2,0:2:0:0:
373,254,32802,2,0,P|386:198|335:224,1,144,2|0,0:2|0:0,0:0:0:0:
387,346,33341,2,0,P|421:348|441:319,1,72,2|0,0:0|0:0,0:0:0:0:
470,206,33700,6,0,P|391:168|439:241,1,216,2|0,0:2|0:0,0:0:0:0:
512,278,34419,1,2,0:2:0:0:
387,346,34599,1,2,0:2:0:0:
419,242,34778,1,0,0:0:0:0:
480,384,34958,6,0,P|476:348|465:314,1,72,2|2,0:2|0:2,0:0:0:0:
320,289,35317,2,0,P|323:253|334:218,1,72
408,105,35676,1,2,0:0:0:0:
462,169,35856,1,0,0:0:0:0:
419,242,36036,1,0,0:0:0:0:
334,218,36215,1,2,0:0:0:0:
330,135,36395,6,0,P|333:99|344:65,1,72,0|0,0:0|0:2,0:0:0:0:
507,94,36754,2,0,P|503:58|492:24,1,72,2|0,0:2|0:0,0:0:0:0:
370,0,37114,1,2,0:2:0:0:
438,124,37293,1,2,0:2:0:0:
277,88,37473,1,0,0:0:0:0:
441,42,37652,1,2,0:2:0:0:
280,168,37832,6,0,B|328:162|354:119|354:119|359:171|394:197,1,180
463,229,38371,1,2,0:2:0:0:
317,312,38551,2,0,P|311:273|327:229,1,80.9999975280763,2|0,0:2|0:0,0:2:0:0:
391,195,38910,1,0,0:2:0:0:
431,340,39090,1,10,0:2:0:0:
231,301,39269,1,2,3:2:0:0:
210,320,39449,5,8,3:2:0:0:
410,268,39629,1,0,3:2:0:0:
274,81,39808,1,0,3:2:0:0:
487,153,39988,2,0,P|427:140|392:204,1,135,4|0,0:2|0:2,0:2:0:0:
410,268,40347,5,8,0:2:0:0:
362,282,40437,1,8,0:2:0:0:
316,262,40527,1,0,3:2:0:0:
294,217,40617,1,8,0:2:0:0:
314,167,40706,1,8,0:2:0:0:
309,117,40796,1,8,0:2:0:0:
274,81,40886,6,0,B|237:72|211:102|215:108|189:136|125:120,1,135,4|0,3:2|0:0,0:2:0:0:
91,71,41245,1,8,0:2:0:0:
118,263,41425,2,0,P|109:207|164:223,1,135,2|0,0:2|0:0,0:2:0:0:
187,301,41784,1,2,3:2:0:0:
268,159,41964,1,10,0:2:0:0:
151,124,42144,1,2,0:2:0:0:
93,326,42323,6,0,P|87:248|72:173,1,135,2|0,3:2|3:2,0:2:0:0:
32,130,42682,1,10,0:2:0:0:
127,53,42862,2,0,P|118:14|81:28,1,90,2|0,3:2|0:0,0:2:0:0:
151,124,43221,1,0,3:2:0:0:
2,207,43401,2,0,L|50:217,1,45,10|0,0:2|0:0,0:0:0:0:
9,41,43670,1,8,0:2:0:0:
18,73,43760,6,0,P|12:151|-3:226,1,135,2|0,3:2|3:2,0:2:0:0:
43,275,44120,1,8,0:2:0:0:
141,179,44299,2,0,L|230:194,1,90,0|0,3:2|0:0,0:2:0:0:
112,106,44658,1,2,3:2:0:0:
163,256,44838,1,10,0:2:0:0:
229,46,45018,1,2,0:2:0:0:
381,136,45197,6,0,P|315:128|357:68,1,135,0|0,3:2|3:2,0:2:0:0:
375,15,45557,1,8,0:2:0:0:
482,174,45736,2,0,P|479:116|467:70,1,90,0|2,3:2|0:2,0:0:0:0:
422,219,46096,1,2,3:2:0:0:
512,0,46275,2,0,L|466:8,1,45,10|0,0:2|0:0,0:2:0:0:
471,85,46455,2,0,L|426:93,1,45,2|0,0:2|0:0,0:0:0:0:
280,0,46635,6,0,P|333:25|342:117,1,135,0|0,3:2|3:2,0:2:0:0:
333,169,46994,1,10,0:2:0:0:
225,62,47173,2,0,P|184:57|180:132,1,135,2|0,3:2|0:0,0:2:0:0:
259,133,47533,1,2,3:2:0:0:
151,228,47712,1,8,0:2:0:0:
104,26,47892,1,2,0:2:0:0:
59,151,48072,6,0,B|98:137|106:106|99:109|108:68|163:56,1,135,0|0,3:2|3:2,0:2:0:0:
178,131,48431,1,10,0:2:0:0:
32,80,48611,2,0,P|53:114|31:219,1,135,2|0,0:2|0:0,0:2:0:0:
6,273,48970,1,2,3:2:0:0:
129,318,49149,2,0,L|173:310,1,45,8|0,0:2|0:0,0:0:0:0:
8,194,49419,1,2,0:0:0:0:
42,204,49509,6,0,P|58:140|32:80,1,135,2|2,3:2|3:2,0:2:0:0:
66,9,49868,1,8,0:2:0:0:
219,60,50048,2,0,L|123:76,1,90,2|0,3:2|0:0,0:2:0:0:
295,48,50407,1,2,3:2:0:0:
112,155,50587,1,8,0:2:0:0:
150,0,50766,1,0,0:2:0:0:
210,200,50946,6,0,P|227:147|312:151,1,135,2|0,3:2|3:2,0:2:0:0:
355,194,51305,1,8,0:2:0:0:
291,321,51485,2,0,P|270:279|225:296,1,90,2|0,3:2|0:0,0:2:0:0:
185,384,51844,1,2,3:2:0:0:
101,293,52024,2,0,P|116:253|158:257,1,90,10|2,3:2|0:2,0:0:0:0:
362,254,52383,6,0,B|310:261|310:261|285:277|285:277|224:286,1,135,6|0,3:2|3:2,0:2:0:0:
158,257,52742,1,8,0:0:0:0:
298,139,52922,2,0,P|234:140|210:200,1,135,0|0,3:0|0:0,0:0:0:0:
232,284,53281,1,0,3:2:0:0:
132,176,53461,1,10,0:2:0:0:
95,356,53641,1,2,0:2:0:0:
232,284,53820,6,0,B|285:277|285:277|310:261|310:261|362:254,1,135,2|0,3:2|3:2,0:2:0:0:
430,294,54179,1,8,0:2:0:0:
459,129,54359,2,0,L|442:223,1,90,0|0,3:2|0:2,0:2:0:0:
418,369,54718,1,2,3:2:0:0:
361,254,54898,1,10,0:2:0:0:
309,340,55078,1,2,0:0:0:0:
301,166,55257,6,0,L|201:192,1,90,0|0,3:0|0:0,0:0:0:0:
204,212,55527,1,0,3:2:0:0:
196,235,55617,1,10,0:2:0:0:
242,94,55796,2,0,B|292:95|308:126|299:130|315:159|386:164,1,135,2|0,0:2|0:0,0:2:0:0:
375,81,56155,1,0,3:2:0:0:
213,188,56335,1,10,0:2:0:0:
361,254,56515,6,0,P|413:240|433:173,1,90,0|0,0:0|3:0,0:0:0:0:
375,81,56874,1,0,0:0:0:0:
301,166,57054,1,8,0:2:0:0:
249,14,57233,2,0,L|147:31,1,90,0|2,3:2|0:2,0:0:0:0:
52,50,57593,1,2,3:2:0:0:
173,160,57772,1,10,0:2:0:0:
0,209,57952,1,2,0:2:0:0:
13,219,58041,1,8,0:2:0:0:
24,227,58132,6,0,P|69:172|28:123,1,135,4|0,3:2|3:2,0:2:0:0:
52,50,58491,2,0,L|97:57,1,45,8|0,0:0|0:0,0:0:0:0:
235,80,58670,2,0,P|174:98|174:161,1,135,2|0,0:2|0:0,0:2:0:0:
224,219,59030,1,2,3:2:0:0:
312,136,59209,1,8,0:2:0:0:
160,28,59389,1,2,0:2:0:0:
85,176,59569,6,0,L|179:159,1,90,2|0,3:2|0:2,0:2:0:0:
312,136,59928,1,10,0:2:0:0:
234,0,60108,2,0,B|213:31|217:63|217:63|197:37|158:29,1,135,2|0,0:2|0:0,0:2:0:0:
155,106,60467,1,0,3:2:0:0:
224,219,60646,1,10,0:2:0:0:
85,176,60826,1,2,0:2:0:0:
292,50,61006,6,0,P|217:33|150:29,1,135,2|0,3:2|3:2,0:2:0:0:
86,59,61365,1,8,0:2:0:0:
234,0,61545,2,0,B|213:31|217:63|217:63|197:37|158:29,1,135,2|0,3:2|0:0,0:2:0:0:
155,106,61904,1,2,3:2:0:0:
312,136,62084,1,10,0:2:0:0:
85,176,62263,1,2,0:2:0:0:
292,50,62443,6,0,P|217:33|150:29,1,135,4|0,3:2|3:2,0:0:0:0:
86,59,62802,2,0,P|77:32|82:7,1,45,8|0,0:2|0:0,0:0:0:0:
155,106,62982,2,0,P|147:147|81:153,1,90,4|0,3:2|0:2,0:0:0:0:
27,166,63251,1,0,3:2:0:0:
9,182,63341,5,10,3:2:0:0:
0,229,63430,1,8,3:2:0:0:
21,272,63520,1,10,3:2:0:0:
62,298,63610,1,8,3:2:0:0:
112,294,63700,1,10,3:2:0:0:
149,265,63790,1,8,3:2:0:0:
164,220,63880,6,0,P|172:281|259:267,1,148.50000453186,6|0,3:2|0:2,0:2:0:0:
326,298,64239,2,0,P|320:246|306:229,1,49.5000015106202,2|0,3:2|0:0,0:0:0:0:
304,155,64419,2,0,P|249:174|241:227,1,99.0000030212403,2|0,0:2|3:2,0:2:0:0:
301,369,64778,1,2,0:2:0:0:
470,338,64958,1,2,3:2:0:0:
382,198,65138,6,0,B|398:250|398:250|477:286,1,99.0000030212403,2|0,0:2|3:2,0:2:0:0:
500,146,65497,2,0,B|479:166|479:166|466:200,1,49.5000015106202,2|0,0:2|0:0,0:0:0:0:
372,77,65676,2,0,B|363:104|363:104|369:140,1,49.5000015106202,2|0,3:2|0:0,0:0:0:0:
229,154,65856,2,0,B|240:180|243:204|243:204|253:179|272:157,1,99.0000030212403,2|0,0:2|3:2,0:2:0:0:
288,41,66215,1,2,0:2:0:0:
145,105,66395,1,2,3:2:0:0:
169,242,66575,5,8,0:0:0:0:
145,205,66664,1,8,0:0:0:0:
100,214,66754,1,4,3:2:0:0:
42,333,66934,1,0,0:0:0:0:
100,214,67114,6,0,P|84:179|65:170,1,49.5000015106202,2|0,3:2|0:0,0:0:0:0:
0,207,67293,2,0,P|38:210|55:198,1,49.5000015106202,2|0,0:2|0:0,0:0:0:0:
61,123,67473,2,0,P|38:154|40:175,1,49.5000015106202,2|0,3:2|0:0,0:0:0:0:
56,278,67652,2,0,P|87:300|108:298,1,49.5000015106202,2|0,0:2|0:0,0:0:0:0:
216,290,67832,2,0,P|238:258|236:237,1,49.5000015106202,2|0,3:2|0:0,0:0:0:0:
229,83,68012,2,0,P|177:75|205:158,1,148.50000453186,2|0,0:2|0:0,0:2:0:0:
251,172,68371,5,8,0:2:0:0:
372,52,68551,1,0,3:2:0:0:
313,225,68730,5,8,0:2:0:0:
297,36,68910,1,2,3:2:0:0:
238,248,69090,5,10,0:2:0:0:
406,119,69269,1,2,3:2:0:0:
219,37,69449,1,2,3:2:0:0:
224,61,69539,1,0,3:2:0:0:
229,83,69629,6,0,B|293:74|293:74|313:60|313:60|372:52,1,148.50000453186,6|0,3:2|0:2,0:2:0:0:
406,119,69988,1,2,3:2:0:0:
251,172,70167,2,0,P|316:162|280:235,1,148.50000453186,2|0,0:2|0:0,0:2:0:0:
238,248,70527,1,2,0:2:0:0:
381,345,70706,1,2,3:2:0:0:
433,213,70886,6,0,P|368:203|404:276,1,148.50000453186,2|0,0:2|0:0,0:2:0:0:
447,296,71245,1,10,0:2:0:0:
250,346,71425,1,0,3:2:0:0:
313,226,71605,2,0,P|315:161|251:172,1,148.50000453186,14|0,3:2|0:0,0:2:0:0:
238,248,71964,1,10,3:2:0:0:
241,272,72053,1,8,3:2:0:0:
244,297,72143,1,8,3:2:0:0:
247,321,72233,1,8,3:2:0:0:
250,346,72323,6,0,B|215:366|184:339|191:335|158:306|111:334,1,148.50000453186,6|0,3:2|0:2,0:2:0:0:
51,383,72682,1,10,3:2:0:0:
129,231,72862,1,10,3:2:0:0:
8,214,73042,1,10,3:2:0:0:
111,333,73221,1,8,3:2:0:0:
149,118,73401,1,10,3:2:0:0:
28,297,73581,1,10,3:2:0:0:
247,247,73760,2,0,P|294:223|279:131,1,148.50000453186,14|0,0:2|0:2,0:2:0:0:
232,86,74120,5,10,3:2:0:0:
274,62,74209,1,8,3:2:0:0:
322,67,74299,1,10,3:2:0:0:
359,98,74389,1,8,3:2:0:0:
371,146,74479,1,10,3:2:0:0:
408,177,74569,1,0,3:2:0:0:
455,182,74658,5,8,3:2:0:0:
419,148,74747,1,8,3:2:0:0:
371,146,74837,1,10,3:2:0:0:
333,176,74927,1,8,3:2:0:0:
323,224,75017,1,10,3:2:0:0:
347,266,75107,1,8,3:2:0:0:
392,290,75197,6,0,P|408:226|413:106,1,161.999995056153,6|0,3:2|0:0,0:2:0:0:
399,45,75557,1,0,0:2:0:0:
512,133,75736,1,8,3:2:0:0:
323,224,75916,1,2,0:2:0:0:
414,130,76096,1,2,3:2:0:0:
392,290,76275,1,2,0:2:0:0:
215,223,76455,1,10,3:2:0:0:
296,40,76635,6,0,P|304:105|208:131,1,161.999995056153,2|0,0:2|0:0,0:2:0:0:
163,88,76994,1,2,0:2:0:0:
323,224,77173,1,10,3:2:0:0:
153,333,77353,2,0,L|262:313,1,107.999996704102,2|0,0:2|3:2,0:2:0:0:
392,290,77712,1,2,0:2:0:0:
251,154,77892,1,8,3:2:0:0:
456,114,78072,6,0,P|399:115|431:22,1,161.999995056153,2|0,0:2|0:0,0:2:0:0:
479,18,78431,1,0,0:2:0:0:
434,215,78611,1,8,3:2:0:0:
332,70,78790,1,2,0:2:0:0:
456,114,78970,1,2,3:2:0:0:
323,224,79149,1,2,0:2:0:0:
399,29,79329,1,10,3:2:0:0:
434,215,79509,6,0,P|372:202|389:288,1,161.999995056153,14|0,0:2|0:0,0:2:0:0:
443,322,79868,1,2,0:2:0:0:
456,114,80048,1,10,3:2:0:0:
258,159,80227,2,0,P|320:146|303:232,1,161.999995056153,14|0,0:2|0:0,0:2:0:0:
238,245,80587,1,10,3:2:0:0:
243,271,80676,1,8,3:2:0:0:
247,298,80766,1,8,3:2:0:0:
252,324,80856,1,8,3:2:0:0:
256,351,80946,6,8,B|268:335|290:329|290:329|251:323|237:345|229:348|215:374|167:367,1,161.999995056153,14|0,3:2|0:0,0:2:0:0:
111,325,81305,1,0,0:2:0:0:
258,159,81485,1,8,3:2:0:0:
110,203,81664,1,2,0:2:0:0:
180,295,81844,1,2,3:2:0:0:
149,132,82024,1,2,0:2:0:0:
39,358,82203,1,10,3:2:0:0:
110,203,82383,6,0,P|106:125|35:136,1,161.999995056153,2|0,0:2|0:2,0:2:0:0:
0,202,82742,1,2,0:2:0:0:
111,325,82922,1,10,3:2:0:0:
255,112,83102,2,0,L|148:131,1,107.999996704102,2|0,0:2|3:2,0:2:0:0:
22,50,83461,2,0,P|75:33|96:81,1,107.999996704102,2|8,0:2|3:2,0:2:0:0:
65,234,83820,6,0,P|47:160|125:168,1,161.999995056153,2|0,0:2|0:0,0:2:0:0:
157,222,84179,1,2,0:2:0:0:
241,26,84359,1,10,3:2:0:0:
148,131,84539,2,0,L|255:112,1,107.999996704102,2|0,0:2|3:2,0:2:0:0:
369,92,84898,1,10,0:2:0:0:
158,42,85078,1,2,3:2:0:0:
301,180,85257,6,0,B|243:164|243:164|215:147|215:147|147:130,1,161.999995056153,14|0,0:2|0:2,0:2:0:0:
86,181,85617,1,10,3:2:0:0:
91,207,85706,1,8,3:2:0:0:
95,234,85796,1,10,3:2:0:0:
100,260,85886,1,8,3:2:0:0:
105,286,85976,6,0,L|164:275,1,53.9999983520508,10|0,0:2|0:0,0:0:0:0:
290,254,86155,1,2,3:2:0:0:
212,365,86335,6,0,P|231:344|266:346,1,54,10|0,3:2|0:0,0:0:0:0:
357,348,86694,6,0,P|321:277|253:296,1,161.999995056153,14|0,0:2|0:0,0:2:0:0:
212,365,87054,1,0,0:2:0:0:
91,207,87233,1,8,3:2:0:0:
191,234,87413,1,2,0:2:0:0:
116,331,87593,1,2,3:2:0:0:
1,177,87772,1,2,0:2:0:0:
173,105,87952,1,10,3:2:0:0:
91,207,88132,6,0,P|66:126|54:33,1,161.999995056153,2|0,0:2|0:0,0:2:0:0:
117,0,88491,1,0,0:2:0:0:
1,177,88670,1,10,3:2:0:0:
173,105,88850,2,0,L|66:86,1,107.999996704102,2|0,0:2|3:2,0:2:0:0:
230,199,89209,1,2,0:2:0:0:
188,30,89389,1,8,3:2:0:0:
91,207,89569,6,0,B|137:200|162:166|154:158|176:119|234:116,1,161.999995056153,2|0,0:2|0:0,0:2:0:0:
296,153,89928,1,0,0:2:0:0:
85,125,90108,1,8,3:2:0:0:
188,30,90287,1,2,0:2:0:0:
230,199,90467,1,2,3:2:0:0:
107,46,90646,1,2,0:2:0:0:
269,13,90826,1,10,3:2:0:0:
230,199,91006,6,0,P|272:230|277:145,1,161.999995056153,6|0,0:2|0:0,0:2:0:0:
220,117,91365,1,0,0:2:0:0:
374,237,91545,1,10,3:2:0:0:
448,76,91724,2,0,P|406:45|401:130,1,161.999995056153,12|0,0:2|0:0,0:2:0:0:
453,158,92084,1,10,3:2:0:0:
458,184,92173,1,8,3:2:0:0:
462,211,92263,1,8,3:2:0:0:
467,237,92353,1,8,3:2:0:0:
458,309,92443,6,0,L|482:137,1,161.999995056153,14|0,0:2|0:0,0:2:0:0:
448,76,92802,1,0,0:2:0:0:
318,181,92982,1,8,3:2:0:0:
412,0,93161,1,2,0:2:0:0:
400,216,93341,1,2,3:2:0:0:
238,141,93521,1,2,0:2:0:0:
480,148,93700,1,10,3:2:0:0:
317,289,93880,6,0,B|305:273|283:267|283:267|322:261|336:283|344:286|358:312|406:305,1,161.999995056153,2|0,0:2|0:0,0:2:0:0:
474,278,94239,1,2,0:2:0:0:
264,346,94419,1,10,3:2:0:0:
400,216,94599,2,0,P|391:159|338:162,1,107.999996704102,2|0,0:2|3:2,0:2:0:0:
197,201,94958,2,0,P|250:221|274:174,1,107.999996704102,2|8,0:2|3:2,0:2:0:0:
330,48,95317,6,0,P|255:87|318:104,1,161.999995056153,2|0,0:2|0:0,0:2:0:0:
349,154,95676,1,2,0:2:0:0:
449,62,95856,1,10,0:2:0:0:
400,215,96036,2,0,P|418:148|349:153,1,161.999995056153,2|0,0:2|0:0,0:2:0:0:
310,232,96395,2,0,P|375:233|468:282,1,161.999995056153,2|0,0:2|0:0,0:2:0:0:
428,362,96754,6,0,P|358:360|382:295,1,161.999995056153,14|0,0:2|0:0,0:2:0:0:
460,275,97114,2,0,L|474:218,1,53.9999983520508,10|8,0:2|0:2,0:0:0:0:
497,126,97293,1,10,3:2:0:0:
348,153,97473,2,0,P|418:148|400:215,1,161.999995056153,14|0,0:2|0:2,0:2:0:0:
322,229,97832,5,10,3:2:0:0:
283,210,97921,1,8,3:2:0:0:
240,209,98011,1,8,3:2:0:0:
200,226,98101,1,8,3:2:0:0:
171,257,98191,1,10,3:2:0:0:
157,298,98281,1,8,3:2:0:0:
161,340,98371,6,0,L|229:352,1,53.9999983520508,6|0,3:2|0:0,0:2:0:0:
321,367,98551,1,2,0:2:0:0:
240,209,98730,2,0,L|263:257,1,53.9999983520508,10|0,3:2|0:0,0:0:0:0:
321,367,98910,5,2,3:2:0:0:
342,350,99000,1,2,3:2:0:0:
363,333,99089,1,2,3:2:0:0:
348,136,99269,1,2,0:2:0:0:
512,227,99449,1,10,3:2:0:0:
316,269,99629,6,0,P|369:250|373:182,1,107.999996704102,2|0,0:2|0:0,0:2:0:0:
431,371,99988,1,2,0:2:0:0:
381,204,100167,2,0,L|434:213,1,53.9999983520508,10|0,3:2|0:0,0:0:0:0:
263,257,100347,5,2,3:2:0:0:
251,231,100437,1,2,3:2:0:0:
240,207,100526,1,2,3:2:0:0:
321,367,100706,1,2,0:2:0:0:
349,128,100886,1,10,3:2:0:0:
178,84,101066,6,0,P|192:59|245:127,1,161.999995056153,2|0,0:2|0:0,0:2:0:0:
178,162,101425,1,2,0:2:0:0:
381,204,101605,1,10,3:2:0:0:
374,23,101784,2,0,P|357:81|346:153,1,107.999996704102,2|0,0:2|3:2,0:2:0:0:
439,245,102144,2,0,P|416:191|372:220,1,107.999996704102,2|8,0:2|3:2,0:2:0:0:
347,337,102503,5,2,3:2:0:0:
359,311,102593,1,0,3:2:0:0:
370,287,102682,2,0,L|300:299,1,53.9999983520508
225,193,102862,2,0,L|270:247,1,53.9999983520508,2|0,0:2|0:0,0:0:0:0:
215,365,103042,2,0,L|239:298,1,53.9999983520508,10|0,3:2|0:0,0:0:0:0:
292,146,103221,1,2,3:2:0:0:
439,245,103401,6,0,P|416:191|372:220,1,107.999996704102,6|0,3:2|0:2,0:2:0:0:
331,263,103670,1,8,3:2:0:0:
289,268,103759,1,8,3:2:0:0:
253,245,103849,1,8,3:2:0:0:
239,205,103939,1,8,3:2:0:0:
254,166,104029,1,8,3:2:0:0:
292,146,104120,5,6,3:2:0:0:
347,337,104299,1,2,0:2:0:0:
188,307,104479,1,2,3:2:0:0:
208,111,104658,2,0,L|226:217,1,107.999996704102,2|0,0:2|3:2,0:2:0:0:
254,364,105018,1,2,0:2:0:0:
118,246,105197,1,2,3:2:0:0:
51,371,105377,6,0,P|113:352|39:300,1,161.999995056153,2|0,0:2|0:0,0:2:0:0:
0,302,105736,1,2,0:2:0:0:
116,155,105916,1,2,3:2:0:0:
188,307,106096,2,0,P|152:252|242:260,1,161.999995056153,10|0,0:2|0:0,0:2:0:0:
264,293,106455,1,10,0:2:0:0:
165,92,106635,1,0,3:2:0:0:
330,106,106814,1,2,3:2:0:0:
303,111,106903,1,0,3:2:0:0:
276,116,106994,6,0,B|319:109|319:109|338:98|338:98|382:90,1,107.999996704102,6|2,3:2|3:2,0:0:0:0:
451,129,107263,1,8,0:2:0:0:
461,162,107353,2,0,L|472:92,1,53.9999983520508,10|0,3:2|0:0,0:0:0:0:
371,220,107533,2,0,L|382:150,1,53.9999983520508,10|0,0:2|0:0,0:2:0:0:
481,255,107712,5,8,3:2:0:0:
434,230,107801,1,0,3:2:0:0:
383,243,107891,1,10,3:2:0:0:
354,287,107981,1,8,3:2:0:0:
347,335,108071,1,10,3:2:0:0:
316,373,108162,1,8,3:2:0:0:
265,384,108252,1,10,3:2:0:0:
220,355,108342,1,8,3:2:0:0:
217,305,108431,6,0,L|147:316,1,53.9999983520508,8|0,3:2|0:0,0:0:0:0:
275,214,108611,2,0,L|205:225,1,53.9999983520508,10|0,0:2|0:0,0:0:0:0:
81,179,108790,5,8,3:2:0:0:
148,210,108880,1,8,3:2:0:0:
142,134,108970,1,8,3:2:0:0:
56,351,109329,6,0,L|49:314,2,26.9999991760254,2|2|2,0:0|0:0|0:0,0:0:0:0:
25,176,109868,1,4,3:2:0:0:
510,140,121365,6,0,P|456:133|431:218,1,135,4|0,3:2|3:0,0:2:0:0:
457,265,121724,1,8,0:2:0:0:
331,181,121904,2,0,P|340:222|300:244,1,90,2|2,3:2|0:2,0:0:0:0:
356,112,122263,1,2,3:2:0:0:
278,313,122443,1,10,0:2:0:0:
421,196,122623,1,2,0:2:0:0:
390,384,122802,6,0,B|385:345|405:317|405:317|430:342|464:337,1,135,2|0,3:2|3:2,0:2:0:0:
457,265,123161,1,10,0:2:0:0:
436,107,123341,2,0,L|416:215,1,90,2|0,3:2|0:0,0:2:0:0:
303,244,123700,1,0,3:2:0:0:
436,107,123880,2,0,P|458:109|478:121,1,45,10|0,0:2|0:0,0:0:0:0:
433,227,124149,1,8,0:2:0:0:
419,195,124239,6,0,P|444:136|508:139,1,135,2|0,3:2|3:2,0:2:0:0:
512,213,124599,1,8,0:2:0:0:
485,22,124778,2,0,L|376:41,1,90,0|0,3:2|0:0,0:2:0:0:
249,64,125138,1,2,3:2:0:0:
378,149,125317,1,10,0:2:0:0:
386,0,125497,1,2,0:2:0:0:
263,139,125676,6,0,B|302:138|318:109|309:105|325:74|375:73,1,135,0|0,3:2|3:2,0:2:0:0:
441,104,126036,2,0,P|421:141|370:145,1,90,8|2,2:2|3:2,0:0:0:0:
249,64,126395,1,0,0:2:0:0:
388,191,126575,2,0,L|372:134,2,45,2|0|10,3:2|0:0|0:2,0:0:0:0:
416,292,126934,1,2,0:2:0:0:
239,296,127114,6,0,B|284:299|284:299|314:266,1,90,6|0,3:2|0:0,0:2:0:0:
184,233,127473,1,10,0:2:0:0:
215,381,127652,2,0,P|221:333|145:336,1,135,2|2,3:2|0:0,0:2:0:0:
99,384,128012,1,2,3:2:0:0:
0,292,128191,1,8,0:2:0:0:
184,233,128371,1,2,0:2:0:0:
19,368,128551,6,0,P|38:303|31:206,1,135,0|0,3:2|3:2,0:2:0:0:
3,170,128910,1,10,0:2:0:0:
183,232,129090,2,0,P|123:238|119:178,1,135,2|0,3:2|0:0,0:0:0:0:
190,141,129449,1,2,3:2:0:0:
35,102,129629,2,0,P|36:61|74:72,1,90,10|2,0:2|0:0,0:0:0:0:
37,236,129988,6,0,P|37:303|19:368,1,135,0|0,3:2|3:2,0:2:0:0:
99,384,130347,1,8,0:2:0:0:
196,334,130527,2,0,B|175:294|175:294|131:285,1,90,0|0,3:2|0:2,0:2:0:0:
18,368,130886,1,0,3:2:0:0:
115,189,131066,1,8,0:2:0:0:
196,334,131245,1,0,0:2:0:0:
4,227,131425,6,0,B|72:239|72:239|122:182,1,135,0|0,3:2|3:2,0:2:0:0:
102,115,131784,1,8,0:2:0:0:
131,285,131964,2,0,B|160:250|160:250|205:251,1,90,0|0,3:2|0:0,0:2:0:0:
4,227,132323,1,0,3:2:0:0:
102,115,132503,1,10,0:2:0:0:
131,285,132682,1,2,0:2:0:0:
282,241,132862,6,0,P|264:190|178:182,1,135,6|0,3:2|3:2,0:2:0:0:
204,250,133221,1,10,0:2:0:0:
65,167,133401,2,0,B|114:167|130:136|121:132|137:103|176:102,1,135,2|0,3:2|0:0,0:2:0:0:
190,174,133760,1,0,3:2:0:0:
58,94,133940,1,10,0:2:0:0:
131,285,134120,1,2,0:2:0:0:
190,174,134299,6,0,P|255:182|282:241,1,135,2|0,3:2|3:2,0:2:0:0:
260,311,134658,1,8,0:2:0:0:
305,154,134838,2,0,L|278:251,1,90,0|0,3:2|0:2,0:2:0:0:
240,384,135197,1,2,3:2:0:0:
345,290,135377,1,10,0:2:0:0:
204,250,135557,1,2,0:0:0:0:
341,376,135736,6,0,B|368:372|368:372|389:360|389:360|427:354,1,90,2|0,3:2|0:0,0:2:0:0:
450,360,136006,1,0,3:2:0:0:
472,365,136096,1,10,0:2:0:0:
428,223,136275,2,0,P|491:225|499:287,1,135,2|0,3:2|0:0,0:2:0:0:
472,365,136635,1,2,3:2:0:0:
351,208,136814,1,10,0:2:0:0:
319,369,136994,6,0,P|317:328|350:288,1,90,2|0,0:2|3:2,0:0:0:0:
500,287,137353,1,0,0:0:0:0:
430,139,137533,1,8,0:2:0:0:
345,290,137712,2,0,P|381:232|346:158,1,135,0|0,3:2|0:0,0:0:0:0:
310,117,138072,1,0,3:2:0:0:
459,65,138251,1,10,0:2:0:0:
487,222,138431,1,2,0:2:0:0:
483,199,138520,1,0,0:0:0:0:
479,177,138611,6,0,B|487:227|487:227|484:255|484:255|494:313,1,135,4|0,3:2|3:2,0:2:0:0:
507,384,138970,1,10,0:2:0:0:
338,306,139149,2,0,P|338:255|417:250,1,135,2|0,3:2|0:0,0:2:0:0:
494,310,139509,1,2,3:2:0:0:
479,177,139688,1,8,0:2:0:0:
427,367,139868,1,2,0:2:0:0:
302,244,140048,6,0,P|352:253|351:295,1,90,2|0,3:2|0:0,0:2:0:0:
250,302,140407,1,10,0:2:0:0:
430,267,140587,2,0,P|367:269|359:331,1,135,2|0,3:2|0:2,0:2:0:0:
427,367,140946,1,0,3:2:0:0:
479,177,141126,1,10,0:2:0:0:
494,310,141305,1,2,0:2:0:0:
359,331,141485,6,0,P|367:269|430:267,1,135,0|0,3:2|3:2,0:2:0:0:
494,310,141844,1,8,0:2:0:0:
479,177,142024,2,0,B|430:223|430:223|330:207,1,135,4|0,3:2|0:0,0:2:0:0:
385,132,142383,1,8,3:2:0:0:
381,104,142473,1,8,0:2:0:0:
377,78,142563,6,0,B|369:128|369:128|372:156|372:156|362:214,1,135,8|8,0:2|0:2,0:0:0:0:
306,262,142922,2,0,L|326:144,1,90,4|0,3:2|0:2,0:2:0:0:
272,114,143191,1,8,3:2:0:0:
249,97,143281,2,0,L|200:105,1,45,8|0,3:2|0:0,0:0:0:0:
132,194,143461,2,0,L|176:186,1,45,8|0,0:2|0:0,0:0:0:0:
125,37,143641,5,10,3:2:0:0:
111,55,143730,1,8,3:2:0:0:
98,74,143820,2,0,L|106:123,1,45,10|0,0:2|0:0,0:0:0:0:
61,234,144000,2,0,L|53:189,1,45,2|0,3:2|0:0,0:0:0:0:
29,83,144179,1,10,3:2:0:0:
25,55,144269,1,8,3:2:0:0:
19,27,144359,6,0,B|74:17|74:17|102:20|102:20|166:12,1,148.50000453186,6|0,3:2|0:0,0:2:0:0:
245,30,144718,2,0,L|164:43,1,49.5000015106202,2|0,3:2|0:0,0:0:0:0:
71,97,144898,2,0,P|107:136|146:105,1,99.0000030212403,2|0,0:2|3:2,0:2:0:0:
308,99,145257,2,0,L|321:179,1,49.5000015106202,2|0,0:2|0:0,0:0:0:0:
198,251,145437,2,0,L|278:237,1,49.5000015106202,2|0,3:2|0:0,0:0:0:0:
369,214,145617,6,0,B|305:222|305:222|277:218|277:218|222:228,1,148.50000453186,2|0,0:2|0:0,0:2:0:0:
149,166,145976,2,0,L|140:117,1,49.5000015106202,2|0,0:2|0:0,0:2:0:0:
245,30,146155,2,0,L|164:43,1,49.5000015106202,2|0,3:2|0:0,0:0:0:0:
71,97,146335,2,0,P|107:136|146:105,1,99.0000030212403,10|0,0:2|3:2,0:0:0:0:
308,99,146694,2,0,L|321:179,1,49.5000015106202,2|0,0:2|0:0,0:0:0:0:
198,251,146874,2,0,L|278:237,1,49.5000015106202,2|0,3:2|0:0,0:0:0:0:
369,214,147054,6,0,B|305:222|305:222|277:218|277:218|222:228,1,148.50000453186,2|0,0:2|0:0,0:2:0:0:
149,166,147413,2,0,L|140:117,1,49.5000015106202,2|0,0:2|0:0,0:0:0:0:
218,66,147593,2,0,L|210:18,1,49.5000015106202,2|0,3:2|0:0,0:0:0:0:
315,147,147772,6,0,L|306:98,1,49.5000015106202,2|0,0:2|0:0,0:2:0:0:
384,47,147952,2,0,L|376:-1,1,49.5000015106202,2|0,3:2|0:0,0:0:0:0:
315,147,148132,2,0,L|306:98,1,49.5000015106202,2|0,0:2|0:0,0:0:0:0:
218,66,148311,2,0,L|210:18,1,49.5000015106202,2|0,3:2|0:0,0:0:0:0:
149,166,148491,2,0,P|160:107|249:121,1,148.50000453186,2|0,0:2|0:0,0:0:0:0:
315,147,148850,5,0,0:0:0:0:
183,237,149030,1,0,3:2:0:0:
358,255,149209,2,0,B|341:218|300:221|303:229|260:233|238:183,1,148.50000453186,12|0,0:2|0:0,0:0:0:0:
236,104,149569,1,10,0:2:0:0:
301,305,149748,1,10,3:2:0:0:
265,314,149837,1,8,3:2:0:0:
230,323,149927,1,10,3:2:0:0:
195,332,150017,1,8,3:2:0:0:
160,341,150108,6,0,P|193:298|124:285,1,148.50000453186,6|0,3:2|0:0,0:2:0:0:
59,245,150467,1,2,3:2:0:0:
28,380,150646,2,0,P|29:308|16:219,1,148.50000453186,2|0,0:2|0:0,0:2:0:0:
48,160,151006,1,2,0:2:0:0:
125,282,151185,1,2,3:2:0:0:
206,168,151365,6,0,P|173:211|242:224,1,148.50000453186,14|0,0:2|0:2,0:2:0:0:
284,166,151724,1,2,0:2:0:0:
301,305,151904,1,2,3:2:0:0:
125,282,152084,2,0,P|187:284|159:340,1,148.50000453186,10|0,0:2|0:0,0:2:0:0:
129,254,152443,1,10,3:2:0:0:
136,224,152532,1,8,3:2:0:0:
143,196,152622,1,8,3:2:0:0:
150,168,152712,1,8,3:2:0:0:
155,139,152802,6,0,B|194:128|218:161|210:164|234:199|287:184,1,148.50000453186,6|0,0:2|0:2,0:2:0:0:
355,141,153161,2,0,L|345:87,1,49.5000015106202,10|0,0:2|0:0,0:0:0:0:
436,257,153341,2,0,P|381:227|349:276,1,99.0000030212403,10|10,3:2|0:2,0:0:0:0:
335,315,153611,1,8,3:2:0:0:
314,344,153700,1,8,3:2:0:0:
282,362,153790,1,8,3:2:0:0:
245,361,153880,1,10,3:2:0:0:
214,342,153970,1,8,3:2:0:0:
200,310,154060,6,0,L|249:300,1,49.5000015106202,10|0,3:2|0:0,0:0:0:0:
436,257,154239,2,0,P|381:227|350:271,1,101.250003862381,6|0,0:2|0:0,0:2:0:0:
346,319,154599,1,10,3:2:0:0:
322,356,154688,1,8,3:2:0:0:
284,377,154778,1,10,3:2:0:0:
240,376,154868,1,8,3:2:0:0:
202,353,154958,1,10,3:2:0:0:
186,314,155048,1,8,3:2:0:0:
182,271,155138,5,0,3:2:0:0:
192,228,155227,1,8,3:2:0:0:
209,186,155317,1,10,3:2:0:0:
207,141,155407,1,8,3:2:0:0:
179,104,155497,1,10,3:2:0:0:
134,100,155587,1,8,3:2:0:0:
85,137,155676,6,0,P|76:193|73:316,1,161.999995056153,6|0,3:2|0:0,0:2:0:0:
117,363,156036,1,0,0:2:0:0:
0,223,156215,1,8,3:2:0:0:
147,262,156395,1,2,0:2:0:0:
0,336,156575,1,2,3:2:0:0:
85,137,156754,1,2,0:2:0:0:
72,298,156934,1,10,3:2:0:0:
8,138,157114,6,0,P|29:84|127:74,1,161.999995056153,2|0,0:2|0:0,0:2:0:0:
173,133,157473,1,2,0:2:0:0:
221,0,157652,1,10,3:2:0:0:
148,201,157832,2,0,P|234:172|236:115,1,107.999996704102,2|0,0:2|3:2,0:2:0:0:
123,71,158191,1,2,0:2:0:0:
148,201,158371,1,10,3:2:0:0:
251,90,158551,6,0,B|296:92|318:131|310:139|335:173|379:179,1,161.999995056153,2|0,0:2|0:0,0:2:0:0:
391,105,158910,1,0,0:2:0:0:
237,164,159090,1,8,3:2:0:0:
311,25,159269,1,2,0:2:0:0:
378,178,159449,1,2,3:2:0:0:
222,238,159629,1,2,0:2:0:0:
251,90,159808,1,10,3:2:0:0:
345,281,159988,6,0,P|322:218|392:223,1,161.999995056153,6|0,0:2|0:0,0:2:0:0:
466,239,160347,1,2,0:2:0:0:
271,349,160527,1,10,3:2:0:0:
478,362,160706,2,0,P|501:299|431:304,1,161.999995056153,6|0,0:2|0:0,0:2:0:0:
399,374,161066,1,10,3:2:0:0:
367,367,161155,1,8,3:2:0:0:
335,361,161245,1,8,3:2:0:0:
303,355,161335,1,8,3:2:0:0:
271,349,161425,6,0,B|251:347|231:359|231:359|253:326|279:330|286:326|315:333|342:293,1,161.999995056153,14|0,3:2|0:0,0:2:0:0:
280,249,161784,1,0,0:2:0:0:
431,303,161964,1,8,3:2:0:0:
304,173,162144,1,2,0:2:0:0:
333,303,162323,1,2,3:2:0:0:
431,201,162503,1,2,0:2:0:0:
287,99,162682,1,10,3:2:0:0:
258,324,162862,6,0,P|186:331|209:273,1,161.999995056153,2|0,0:2|0:2,0:2:0:0:
280,249,163221,1,2,0:2:0:0:
180,155,163401,1,10,3:2:0:0:
125,287,163581,2,0,P|143:262|87:264,1,107.999996704102,2|0,0:2|3:2,0:2:0:0:
31,378,163940,2,0,P|54:320|47:259,1,107.999996704102,2|8,0:2|3:2,0:2:0:0:
15,142,164299,6,0,P|61:179|39:123,1,161.999995056153,2|0,0:2|0:0,0:2:0:0:
0,60,164658,1,2,0:2:0:0:
155,0,164838,1,10,3:2:0:0:
120,135,165018,2,0,P|107:101|146:126,1,107.999996704102,2|0,0:2|3:2,0:2:0:0:
55,196,165377,1,2,0:2:0:0:
74,27,165557,1,10,3:2:0:0:
153,202,165736,6,0,B|211:186|211:186|239:169|239:169|307:152,1,161.999995056153,14|0,0:2|0:2,0:2:0:0:
385,164,166096,1,10,3:2:0:0:
413,188,166185,1,8,3:2:0:0:
417,224,166275,1,10,3:2:0:0:
395,254,166365,1,8,3:2:0:0:
359,260,166455,6,0,L|306:246,1,53.9999983520508,10|0,3:2|0:0,0:0:0:0:
153,202,166635,1,0,3:2:0:0:
306,152,166814,6,0,P|332:144|348:121,1,54,10|0,3:2|0:2,0:2:0:0:
439,161,167173,6,0,B|395:155|370:121|378:113|356:74|311:72,1,161.999995056153,4|0,3:2|0:0,0:2:0:0:
238,110,167533,1,0,0:2:0:0:
453,87,167712,1,8,3:2:0:0:
359,260,167892,1,2,0:2:0:0:
305,151,168072,1,2,3:2:0:0:
439,161,168251,1,2,0:2:0:0:
228,247,168431,1,10,3:2:0:0:
311,72,168611,6,0,B|356:74|378:113|370:121|395:155|439:161,1,161.999995056153,2|0,0:2|0:0,0:2:0:0:
453,87,168970,1,0,0:2:0:0:
305,151,169149,1,10,3:2:0:0:
500,233,169329,2,0,P|486:183|433:161,1,107.999996704102,2|0,0:2|3:2,0:2:0:0:
359,260,169688,1,2,0:2:0:0:
512,336,169868,1,8,3:2:0:0:
429,234,170048,6,0,B|384:236|362:275|370:283|345:317|301:323,1,161.999995056153,2|0,0:2|0:0,0:2:0:0:
225,306,170407,1,0,0:2:0:0:
305,151,170587,5,8,3:2:0:0:
354,383,170766,1,2,0:2:0:0:
293,244,170946,1,2,3:2:0:0:
439,313,171126,1,2,0:2:0:0:
243,384,171305,1,10,3:2:0:0:
169,226,171485,6,0,P|190:293|120:292,1,161.999995056153,6|0,0:2|0:0,0:2:0:0:
42,290,171844,1,0,0:2:0:0:
174,146,172024,1,10,0:2:0:0:
14,183,172203,2,0,P|74:148|90:216,1,161.999995056153,14|0,0:2|0:0,0:2:0:0:
42,290,172563,1,10,3:2:0:0:
61,258,172652,1,8,3:2:0:0:
98,252,172742,1,8,3:2:0:0:
126,274,172832,1,8,3:2:0:0:
115,346,172922,6,0,P|117:266|96:158,1,161.999995056153,14|0,3:2|0:0,0:2:0:0:
67,115,173281,1,0,0:2:0:0:
205,172,173461,1,8,3:2:0:0:
42,290,173641,1,2,0:2:0:0:
165,91,173820,1,2,3:2:0:0:
250,255,174000,1,2,0:2:0:0:
56,204,174179,1,10,3:2:0:0:
272,132,174359,6,0,B|278:113|297:100|297:100|258:106|252:132|245:137|240:166|192:174,1,161.999995056153,2|0,0:2|0:0,0:2:0:0:
129,163,174718,1,2,0:2:0:0:
250,255,174898,1,10,3:2:0:0:
165,91,175078,2,0,L|56:71,1,107.999996704102,2|0,0:2|3:2,0:2:0:0:
203,27,175437,2,0,P|241:82|222:135,1,107.999996704102,2|8,0:2|3:2,0:0:0:0:
142,154,175796,6,0,B|136:135|117:122|117:122|156:128|162:154|169:159|174:188|222:196,1,161.999995056153,6|0,3:2|0:0,0:2:0:0:
288,207,176155,1,2,0:2:0:0:
191,299,176335,1,10,3:2:0:0:
233,118,176515,2,0,P|163:128|135:201,1,107.999996704102,2|0,0:2|3:2,0:2:0:0:
191,299,176874,2,0,L|217:148,1,107.999996704102,10|0,0:2|0:0,0:2:0:0:
241,39,177233,6,0,B|286:41|308:80|300:88|325:122|369:128,1,161.999995056153,6|0,0:2|0:0,0:2:0:0:
384,52,177593,1,10,3:2:0:0:
317,69,177682,1,8,3:2:0:0:
289,115,177772,1,10,3:2:0:0:
287,152,177862,1,8,3:2:0:0:
302,174,177952,1,10,3:2:0:0:
67,50,178132,5,8,3:2:0:0:
53,35,178221,2,0,L|107:25,1,53.9999983520508,8|10,0:0|0:2,0:0:0:0:
202,94,178401,1,8,0:2:0:0:
216,109,178491,2,0,L|122:126,1,53.9999983520508,10|0,3:2|0:0,0:0:0:0:
17,145,178670,1,10,3:2:0:0:
23,173,178759,1,8,3:2:0:0:
30,203,178850,6,0,P|88:205|82:255,1,107.999996704102,6|0,3:2|0:0,0:2:0:0:
68,321,179120,1,2,3:2:0:0:
45,327,179209,2,0,P|19:314|15:274,1,53.9999983520508,10|0,3:2|0:0,0:0:0:0:
143,318,179389,2,0,P|144:347|112:370,1,53.9999983520508,2|0,0:2|0:0,0:2:0:0:
176,234,179569,5,2,3:2:0:0:
204,228,179658,1,2,3:2:0:0:
232,222,179748,2,0,L|304:209,1,53.9999983520508,2|0,0:2|0:0,0:0:0:0:
340,356,179928,1,10,3:2:0:0:
312,350,180017,1,2,3:2:0:0:
284,344,180107,2,0,L|212:331,1,53.9999983520508,2|0,0:2|0:0,0:2:0:0:
143,318,180287,5,2,3:2:0:0:
340,356,180467,1,2,0:2:0:0:
176,234,180646,1,10,3:2:0:0:
204,228,180735,1,2,3:2:0:0:
232,222,180826,2,0,L|327:202,1,53.9999983520508,2|0,0:2|0:0,0:0:0:0:
393,297,181006,6,0,B|367:283|367:283|360:254,1,53.9999983520508,2|0,3:2|0:2,0:2:0:0:
414,186,181185,2,0,B|439:199|439:199|446:228,1,53.9999983520508,2|0,0:2|0:0,0:2:0:0:
468,322,181365,1,10,3:2:0:0:
475,284,181454,1,2,3:2:0:0:
482,247,181544,1,2,3:2:0:0:
488,210,181634,1,2,3:2:0:0:
495,173,181724,6,0,P|437:181|434:130,1,107.999996704102,2|0,3:2|0:0,0:2:0:0:
437,63,181994,1,2,3:2:0:0:
458,53,182083,2,0,P|485:61|496:99,1,53.9999983520508,10|0,3:2|0:0,0:0:0:0:
363,79,182263,2,0,P|356:50|384:22,1,53.9999983520508,2|0,0:2|0:0,0:2:0:0:
353,158,182443,5,2,3:2:0:0:
343,185,182532,1,2,3:2:0:0:
318,201,182623,2,0,P|288:205|263:175,1,53.9999983520508,2|0,0:2|0:2,0:0:0:0:
191,62,182802,1,10,3:2:0:0:
219,57,182891,1,2,3:2:0:0:
245,70,182982,2,0,P|263:93|250:130,1,53.9999983520508,2|0,0:2|0:0,0:0:0:0:
175,241,183161,6,0,L|197:111,1,107.999996704102,2|2,3:2|0:2,0:2:0:0:
147,335,183521,1,10,3:2:0:0:
144,314,183610,1,2,3:2:0:0:
141,296,183700,2,0,L|131:244,1,53.9999983520508,2|0,0:2|0:0,0:0:0:0:
28,172,183880,6,0,L|78:189,1,53.9999983520508,2|0,3:2|0:0,0:0:0:0:
193,134,184060,2,0,L|152:168,1,53.9999983520508,2|0,0:2|0:0,0:0:0:0:
141,296,184239,2,0,L|131:244,1,53.9999983520508,10|0,3:2|0:0,0:2:0:0:
107,55,184419,2,0,L|96:108,1,53.9999983520508,2|0,0:2|0:0,0:0:0:0:
31,246,184599,6,0,P|44:186|96:216,1,107.999996704102,6|0,3:2|0:2,0:0:0:0:
141,296,184958,1,10,3:2:0:0:
240,191,185138,2,0,P|227:131|175:161,1,107.999996704102,2|0,0:2|0:0,0:2:0:0:
222,274,185497,2,0,L|348:251,1,107.999996704102,2|8,0:2|3:2,0:0:0:0:
147,335,185856,1,2,0:2:0:0:
144,314,185945,1,2,0:2:0:0:
141,296,186036,6,0,L|125:215,1,53.9999983520508,2|0,3:2|0:0,0:2:0:0:
192,133,186215,2,0,P|241:141|240:191,1,107.999996704102,2|8,0:2|3:2,0:0:0:0:
78,188,186575,2,0,P|29:196|31:246,1,107.999996704102,2|0,0:2|0:0,0:2:0:0:
147,335,186934,1,2,0:2:0:0:
192,133,187114,1,10,3:2:0:0:
230,317,187293,1,2,3:2:0:0:
227,296,187382,1,2,3:2:0:0:
222,274,187473,6,0,L|348:251,1,107.999996704102,6|0,3:2|0:0,0:2:0:0:
498,353,187832,1,10,3:2:0:0:
482,339,187922,2,0,L|494:268,1,53.9999983520508,0|0,0:0|0:2,0:0:0:0:
389,294,188102,1,10,3:2:0:0:
405,280,188192,2,0,L|392:209,1,53.9999983520508,2|0,3:2|0:0,0:0:0:0:
481,161,188371,2,0,L|427:151,1,53.9999983520508,10|0,0:2|0:0,0:0:0:0:
260,164,188551,5,10,3:2:0:0:
297,134,188640,1,10,3:2:0:0:
342,144,188730,1,10,3:2:0:0:
363,187,188820,1,10,3:2:0:0:
346,231,188910,6,0,L|292:240,1,53.9999983520508,14|0,3:2|0:2,0:2:0:0:
158,305,189090,1,10,3:2:0:0:
178,326,189179,1,10,3:2:0:0:
207,326,189270,2,0,P|231:310|232:271,1,53.9999983520508,10|0,3:2|0:2,0:2:0:0:
185,171,189449,2,0,L|175:224,1,53.9999983520508,10|0,0:2|0:2,0:2:0:0:
51,323,189629,6,0,L|184:299,1,107.999996704102,10|8,3:2|0:2,0:2:0:0:
163,278,189898,1,10,3:2:0:0:
169,251,189987,1,10,3:2:0:0:
174,224,190077,1,10,3:2:0:0:
180,198,190167,1,10,3:2:0:0:
186,171,190256,1,10,3:2:0:0:
191,144,190347,6,0,B|183:114|201:88|201:88|206:88|206:88|224:60|211:29|211:29|142:25|123:74|123:74|126:83|126:83|77:71|46:117|46:117|74:129|87:152|87:152|78:128|87:94,1,432,4|0,3:2|0:2,0:2:0:0:
14,201,191605,5,0,3:2:0:0:
14,201,191694,1,0,3:2:0:0:
14,201,191784,2,0,B|12:237|36:253|36:253|69:221|110:246|110:246|106:251|106:251|120:283|87:324,1,216,4|0,0:2|0:0,0:2:0:0:
243,355,192503,6,0,P|218:333|178:336,1,72,2|0,0:2|0:0,0:0:0:0:
190,235,193042,5,8,3:2:0:0:
190,235,193132,1,8,3:2:0:0:
190,235,193221,2,0,B|229:214|221:160|221:160|188:128|224:77|224:77|223:85|223:85|273:100|291:126|291:126|295:151|278:176|278:176|321:151|347:156|347:156|344:164|344:164|381:172,1,432,4|0,3:2|0:0,0:2:0:0:
341,264,194479,5,8,0:2:0:0:
341,264,194569,1,8,0:2:0:0:
341,264,194658,2,0,B|373:248|387:261|387:261|424:260|444:215,1,108,4|0,3:2|0:0,0:2:0:0:
447,155,195018,1,8,0:2:0:0:
485,309,195197,2,0,P|452:294|393:376,1,144,0|0,3:2|0:0,0:0:0:0:
303,221,195736,2,0,P|341:238|326:278,1,72,0|0,3:2|0:0,0:0:0:0:
251,368,196096,6,0,B|246:342|246:342|250:336|250:336|253:307|218:230|226:195|226:195|231:189|231:189|225:143,1,216,4|0,3:2|0:2,0:2:0:0:
136,207,196814,2,0,P|154:156|74:174,1,144,4|0,0:2|0:2,0:2:0:0:
18,274,197353,1,0,3:2:0:0:
235,302,197533,6,0,B|200:306|178:345|187:348|166:383|113:385,1,144,4|0,0:2|0:0,0:2:0:0:
120,373,198251,2,0,B|163:371|184:336|175:333|197:295|232:290,1,144,4|0,3:2|0:0,0:2:0:0:
235,302,198970,6,0,P|171:284|203:217,1,144,4|0,3:2|0:0,0:0:0:0:
329,243,199509,2,0,L|343:158,1,72,8|0,0:2|0:0,0:0:0:0:
297,67,199868,1,0,3:2:0:0:
254,174,200048,1,0,3:2:0:0:
415,123,200227,1,0,3:2:0:0:
361,2,200407,1,12,0:2:0:0:
361,2,200946,6,0,L|431:14,1,72,8|0,0:2|3:2,0:2:0:0:
512,76,201485,2,0,P|474:77|452:118,1,72,8|2,0:2|0:2,0:0:0:0:
502,205,201754,1,8,0:2:0:0:
512,176,201844,2,0,B|470:176|457:213|462:223|451:252|404:250,1,135,6|8,3:2|0:2,0:2:0:0:
322,245,202203,6,0,L|278:253,1,45,10|0,3:2|0:2,0:2:0:0:
331,110,202383,2,0,L|338:154,1,45,2|0,0:2|0:2,0:0:0:0:
192,183,202563,2,0,L|236:175,1,45,8|0,3:2|0:2,0:2:0:0:
257,20,202742,1,10,3:2:0:0:
247,32,202832,1,8,3:2:0:0:
238,44,202922,2,0,L|245:88,1,45,8|0,3:2|0:0,0:2:0:0:
96,110,203102,2,0,L|140:103,1,45,2|8,0:0|0:2,0:0:0:0:
177,271,203281,6,0,L|194:170,1,90,12|0,3:2|0:0,0:2:0:0:
334,251,203551,1,10,3:2:0:0:
322,260,203641,2,0,L|278:253,1,45,10|0,3:2|0:2,0:2:0:0:
330,110,203820,2,0,L|323:154,1,45,10|0,0:2|0:2,0:0:0:0:
462,176,204000,2,0,L|418:169,1,45,8|0,3:2|0:2,0:2:0:0:
433,15,204179,1,10,3:2:0:0:
443,27,204269,1,8,3:2:0:0:
452,39,204359,2,0,L|445:83,1,45,8|0,3:2|0:0,0:0:0:0:
393,187,204539,1,10,3:2:0:0:
405,177,204629,1,8,3:2:0:0:
417,168,204719,6,0,L|512:184,1,90,14|0,3:2|0:0,0:2:0:0:
475,318,205078,2,0,L|468:274,1,45,10|0,3:2|0:0,0:0:0:0:
354,366,205257,2,0,L|398:359,1,45,10|0,0:2|0:0,0:2:0:0:
323,198,205437,2,0,L|337:286,1,90,2|8,0:0|0:2,0:0:0:0:
251,360,205706,1,0,3:2:0:0:
260,348,205796,2,0,L|243:257,1,90,10|10,3:2|0:2,0:0:0:0:
127,191,206066,1,0,0:0:0:0:
139,200,206156,6,0,L|230:183,1,90,12|0,3:2|0:0,0:2:0:0:
376,177,206425,1,8,3:2:0:0:
367,189,206515,2,0,L|323:197,1,45,8|8,3:2|0:2,0:2:0:0:
277,74,206694,2,0,L|285:117,1,45,8|8,0:2|0:2,0:0:0:0:
243,259,206874,5,10,3:2:0:0:
252,212,206963,1,8,3:2:0:0:
261,166,207053,1,8,3:2:0:0:
270,120,207143,1,10,3:2:0:0:
277,74,207233,2,0,L|214:63,1,45,8|8,3:2|0:2,0:0:0:0:
44,93,207413,1,10,3:2:0:0:
83,100,207502,1,8,3:2:0:0:
123,107,207593,6,0,P|66:133|103:190,1,107.999996704102,6|0,3:2|3:2,0:2:0:0:
163,328,207952,1,10,0:2:0:0:
252,212,208132,2,0,L|189:222,1,53.9999983520508,2|8,0:2|0:2,0:0:0:0:
84,264,208311,2,0,L|194:244,1,107.999996704102,0|2,3:2|3:2,0:0:0:0:
368,218,208670,1,10,0:2:0:0:
347,71,208850,1,2,3:2:0:0:
351,97,208939,1,8,3:2:0:0:
356,124,209030,6,0,B|348:79|348:79|353:63|353:63|343:8,1,107.999996704102,0|0,3:2|3:2,0:0:0:0:
368,218,209389,1,10,0:2:0:0:
198,221,209569,2,0,L|252:212,1,53.9999983520508,2|8,0:2|0:2,0:0:0:0:
368,218,209748,2,0,L|261:236,1,107.999996704102,2|0,3:2|3:2,0:2:0:0:
198,296,210018,2,0,P|231:345|295:298,1,107.999996704102,2|0,0:0|0:0,0:0:0:0:
358,328,210287,2,0,P|376:360|384:385,1,53.9999983520508,2|0,0:0|0:0,0:0:0:0:
251,212,210467,6,0,P|259:133|282:27,1,175.499991966248,6|0,0:2|0:2,0:2:0:0:
351,0,210826,1,10,0:2:0:0:
130,61,211006,2,0,L|190:71,1,58.4999973220826,2|0,0:2|0:0,0:2:0:0:
369,97,211185,1,0,3:2:0:0:
405,291,211365,1,0,3:2:0:0:
166,223,211545,2,0,P|162:165|140:57,1,116.999994644165,10|0,0:0|0:0,0:0:0:0:
144,84,211814,1,0,0:0:0:0:
130,61,211904,5,6,3:2:0:0:
109,309,212084,2,0,L|172:297,1,58.4999973220826
369,97,212263,2,0,P|309:102|292:164,1,116.999994644165,8|2,0:2|0:2,0:0:0:0:
304,222,212533,1,0,3:2:0:0:
316,270,212623,5,10,3:2:0:0:
297,318,212712,1,8,3:2:0:0:
254,344,212802,1,8,3:2:0:0:
201,337,212892,1,8,3:2:0:0:
167,299,212982,1,8,3:2:0:0:
133,261,213072,1,0,3:2:0:0:
82,254,213162,1,10,3:2:0:0:
38,280,213252,1,8,3:2:0:0:
20,329,213341,6,0,L|3:222,1,108,2|0,0:2|0:0,0:2:0:0:
28,115,215676,5,0,3:2:0:0:
119,202,215856,2,0,L|172:192,1,53.9999983520508,8|8,0:2|0:2,0:0:0:0:
3,222,216036,1,0,3:2:0:0:
132,213,216215,6,0,B|191:202|191:202|220:187|220:187|289:176,1,161.999995056153,4|8,3:2|0:2,0:2:0:0:
350,253,216575,1,8,0:2:0:0:
346,283,216664,1,0,0:0:0:0:
341,318,216754,6,0,B|282:307|282:307|253:292|253:292|184:281,1,161.999995056153,4|8,3:2|0:2,0:2:0:0:
120,346,217114,1,8,0:2:0:0:
78,319,217203,1,8,0:2:0:0:
64,272,217293,1,8,3:2:0:0:
87,229,217383,1,8,0:2:0:0:
132,213,217473,6,0,B|191:202|191:202|220:187|220:187|289:176,1,161.999995056153,4|0,3:2|0:2,0:2:0:0:
362,213,217832,1,8,3:2:0:0:
279,60,218012,1,8,3:2:0:0:
236,286,218191,1,8,3:2:0:0:
393,101,218371,2,0,L|446:110,1,53.9999983520508,8|0,3:2|0:0,0:0:0:0:
279,60,218551,5,8,0:2:0:0:
274,86,218640,1,8,0:2:0:0:
269,113,218730,1,8,0:2:0:0:
264,139,218820,1,8,0:2:0:0:
260,166,218910,1,8,0:2:0:0:
256,193,219000,1,8,0:2:0:0:
256,193,224120,6,0,L|349:176,1,94.4999971160889,8|0,0:2|0:0,0:0:0:0:
417,231,224838,5,4,3:2:0:0:
409,273,225197,1,0,0:0:0:0:
401,316,225557,1,2,0:2:0:0:
394,359,225916,1,2,0:2:0:0:
486,326,226275,5,2,3:2:0:0:
465,247,226634,1,2,0:2:0:0:
443,168,226994,2,0,L|388:158,1,53.9999983520508,8|0,0:2|0:2,0:2:0:0:
275,133,227173,1,8,3:2:0:0:
252,129,227263,1,8,3:2:0:0:
229,125,227353,1,8,3:2:0:0:
206,121,227442,1,8,3:2:0:0:
183,116,227533,6,0,B|245:104|245:104|273:108|273:108|345:94,1,161.999995056153,6|0,3:2|0:0,0:2:0:0:
263,17,227892,2,0,L|272:70,1,53.9999983520508,10|8,3:2|0:2,0:0:0:0:
296,233,228072,1,10,3:2:0:0:
260,226,228162,1,8,3:2:0:0:
224,220,228251,2,0,L|160:208,1,53.9999983520508,10|8,3:2|0:2,0:2:0:0:
57,292,228431,6,0,L|66:238,1,53.9999983520508,6|0,0:2|0:2,0:2:0:0:
79,40,228611,1,10,3:2:0:0:
86,76,228701,1,8,3:2:0:0:
92,112,228790,2,0,L|103:175,1,53.9999983520508,10|0,3:2|0:0,0:0:0:0:
169,301,228970,6,0,P|131:279|99:369,1,161.999995056153,14|0,0:2|0:2,0:2:0:0:
170,384,229329,1,10,3:2:0:0:
206,377,229418,1,8,3:2:0:0:
237,355,229508,1,10,3:2:0:0:
255,323,229598,1,8,3:2:0:0:
258,285,229688,1,10,3:2:0:0:
245,250,229778,1,8,3:2:0:0:
217,225,229868,5,10,3:2:0:0:
217,277,229957,1,10,3:2:0:0:
245,322,230047,1,10,3:2:0:0:
293,346,230137,1,10,3:2:0:0:
346,341,230227,1,8,3:2:0:0:
388,310,230317,1,8,3:2:0:0:
408,259,230407,6,0,P|414:192|390:87,1,161.999995056153,6|0,3:2|0:0,0:2:0:0:
324,56,230766,1,0,0:2:0:0:
328,236,230946,1,8,3:2:0:0:
478,87,231126,1,2,0:2:0:0:
296,158,231305,1,2,3:2:0:0:
408,259,231485,1,2,0:2:0:0:
395,99,231664,1,10,0:2:0:0:
169,182,231844,6,0,P|234:156|244:226,1,161.999995056153,2|0,0:2|0:0,0:2:0:0:
164,264,232203,1,0,0:2:0:0:
273,347,232383,1,10,3:2:0:0:
350,208,232563,2,0,L|243:226,1,107.999996704102,2|0,0:2|3:2,0:2:0:0:
61,344,232922,1,2,0:2:0:0:
170,183,233102,1,8,3:2:0:0:
200,358,233281,6,0,B|154:351|129:317|137:309|115:270|57:267,1,161.999995056153,2|0,0:2|0:0,0:2:0:0:
0,301,233641,1,0,0:2:0:0:
204,281,233820,1,8,3:2:0:0:
35,157,234000,1,2,0:2:0:0:
61,344,234179,1,2,3:2:0:0:
170,183,234359,1,2,0:2:0:0:
70,268,234539,1,10,3:2:0:0:
246,227,234718,6,0,P|236:158|170:183,1,161.999995056153,14|0,0:2|0:0,0:2:0:0:
156,262,235078,1,0,0:2:0:0:
202,82,235257,1,10,3:2:0:0:
30,178,235437,2,0,P|39:108|105:133,1,161.999995056153,14|0,0:2|0:0,0:2:0:0:
170,183,235796,1,10,3:2:0:0:
165,209,235885,1,8,3:2:0:0:
161,236,235975,1,8,3:2:0:0:
156,262,236065,1,8,3:2:0:0:
165,332,236155,6,0,L|141:160,1,161.999995056153,14|0,3:2|0:0,0:2:0:0:
132,92,236515,1,0,0:2:0:0:
66,258,236694,1,8,3:2:0:0:
255,151,236874,1,2,0:2:0:0:
97,179,237054,1,2,3:2:0:0:
292,251,237233,1,2,0:2:0:0:
224,50,237413,1,10,3:2:0:0:
29,139,237593,6,0,B|23:120|4:107|4:107|43:113|49:139|56:144|61:173|109:181,1,161.999995056153,2|0,0:2|0:0,0:2:0:0:
176,169,237952,1,0,0:2:0:0:
66,258,238132,1,10,3:2:0:0:
132,91,238311,2,0,P|110:44|59:40,1,107.999996704102,2|0,0:2|3:2,0:2:0:0:
69,188,238670,2,0,L|189:166,1,107.999996704102,2|8,0:2|3:2,0:2:0:0:
272,204,239030,6,0,B|278:185|297:172|297:172|258:178|252:204|245:209|240:238|192:246,1,161.999995056153,6|0,0:2|0:0,0:2:0:0:
125,255,239389,1,2,0:2:0:0:
211,345,239569,1,10,3:2:0:0:
177,169,239748,2,0,P|247:179|286:246,1,107.999996704102,2|0,0:2|3:2,0:2:0:0:
307,343,240108,1,10,3:2:0:0:
334,354,240197,1,8,3:2:0:0:
360,341,240288,2,0,P|378:318|365:281,1,53.9999983520508,8|0,3:2|0:0,0:0:0:0:
271,203,240467,6,0,B|333:191|333:191|361:195|361:195|433:181,1,161.999995056153,6|0,0:2|0:0,0:2:0:0:
465,255,240826,1,10,3:2:0:0:
481,215,240915,1,8,3:2:0:0:
475,173,241005,1,10,3:2:0:0:
447,141,241095,1,8,3:2:0:0:
407,128,241185,1,10,3:2:0:0:
366,138,241275,1,8,3:2:0:0:
336,168,241365,6,0,L|355:278,1,107.999996704102,10|10,3:2|0:2,0:0:0:0:
326,343,241635,1,8,3:2:0:0:
330,321,241725,1,8,3:2:0:0:
333,300,241815,1,8,3:2:0:0:
337,279,241905,1,10,3:2:0:0:
341,257,241995,1,8,3:2:0:0:
345,237,242084,6,0,L|356:172,1,53.9999983520508,6|0,3:2|0:0,0:2:0:0:
375,67,242263,1,2,0:2:0:0:
512,149,242443,2,0,L|455:116,1,53.9999983520508,10|0,3:2|0:0,0:0:0:0:
375,67,242623,5,2,3:2:0:0:
354,84,242712,1,2,3:2:0:0:
333,101,242802,1,2,3:2:0:0:
445,15,242982,1,2,0:2:0:0:
228,57,243161,1,10,3:2:0:0:
354,183,243341,6,0,L|244:163,1,107.999996704102,2|0,0:2|0:0,0:2:0:0:
139,144,243700,1,2,0:2:0:0:
219,4,243880,2,0,L|228:57,1,53.9999983520508,10|0,3:2|0:0,0:0:0:0:
257,218,244060,5,2,3:2:0:0:
252,191,244149,1,2,3:2:0:0:
247,164,244239,1,2,3:2:0:0:
276,315,244419,1,2,0:2:0:0:
122,261,244599,1,10,3:2:0:0:
178,108,244778,6,0,P|191:171|113:142,1,161.999995056153,2|0,0:2|0:0,0:2:0:0:
90,89,245138,1,2,0:2:0:0:
122,261,245317,1,10,3:2:0:0:
10,182,245497,2,0,L|134:160,1,107.999996704102,2|0,0:2|3:2,0:2:0:0:
161,24,245856,2,0,P|107:46|93:110,1,107.999996704102,2|10,0:2|3:2,0:2:0:0:
233,103,246215,5,2,3:2:0:0:
204,105,246305,1,0,3:2:0:0:
178,108,246395,2,0,L|232:176,1,53.9999983520508
169,280,246574,2,0,L|193:214,1,53.9999983520508,2|0,0:2|0:0,0:0:0:0:
323,203,246754,2,0,L|252:215,1,53.9999983520508,10|0,3:2|0:2,0:2:0:0:
95,246,246933,1,14,0:2:0:0:
287,221,247114,6,0,B|331:213|331:213|346:200|346:200|392:192,1,107.999996704102,2|0,0:2|0:2,0:0:0:0:
452,243,247383,1,8,3:2:0:0:
461,284,247472,1,8,3:2:0:0:
444,323,247562,1,8,3:2:0:0:
407,344,247652,1,8,3:2:0:0:
365,338,247742,1,8,3:2:0:0:
334,309,247832,5,6,3:2:0:0:
388,192,248012,1,2,0:2:0:0:
433,373,248191,1,2,3:2:0:0:
287,221,248371,2,0,B|331:213|331:213|346:200|346:200|392:192,1,107.999996704102,2|0,0:2|0:0,0:2:0:0:
512,174,248730,1,2,0:2:0:0:
423,283,248910,1,2,3:2:0:0:
371,82,249090,6,0,P|444:67|410:144,1,161.999995056153,2|0,0:2|0:0,0:2:0:0:
388,192,249449,1,2,0:2:0:0:
310,32,249629,1,0,3:2:0:0:
229,202,249808,2,0,P|232:131|300:151,1,161.999995056153,10|0,0:2|0:0,0:2:0:0:
294,244,250167,1,10,0:2:0:0:
423,283,250347,1,0,3:2:0:0:
483,142,250527,1,2,3:2:0:0:
487,168,250616,1,0,3:2:0:0:
492,195,250707,6,0,B|484:150|484:150|489:134|489:134|479:79,1,107.999996704102,6|2,3:2|0:2,0:0:0:0:
502,274,251066,1,2,3:2:0:0:
371,82,251245,2,0,P|444:67|410:144,1,161.999995056153,2|0,0:2|0:2,0:0:0:0:
388,192,251605,1,2,0:2:0:0:
310,32,251784,1,2,3:2:0:0:
229,202,251964,6,0,P|232:131|300:151,1,161.999995056153,14|0,0:2|0:2,0:2:0:0:
294,244,252323,2,0,B|267:287|227:284|227:278|177:274|145:330,1,161.999995056153,10|0,0:2|0:0,0:0:0:0:
219,362,252682,2,0,P|228:291|125:244,1,161.999995056153,10|0,0:2|0:0,0:2:0:0:
67,260,253042,1,10,3:2:0:0:
73,298,253131,1,8,3:2:0:0:
80,336,253221,1,8,3:2:0:0:
162,239,253401,1,10,3:2:0:0:
169,201,253491,1,8,3:2:0:0:
175,163,253580,5,10,3:2:0:0:
233,250,253760,1,10,3:2:0:0:
319,210,253940,5,10,3:2:0:0:
287,328,254120,1,10,3:2:0:0:
175,163,254299,5,8,3:2:0:0:
354,90,254479,1,10,3:2:0:0:
319,210,254658,5,10,3:2:0:0:
116,65,254838,1,10,3:2:0:0:
47,272,255018,5,8,3:2:0:0:
57,299,255107,1,8,3:2:0:0:
87,323,255197,1,10,3:2:0:0:
132,326,255287,1,8,3:2:0:0:
181,299,255377,1,10,3:2:0:0:
203,232,255467,1,8,3:2:0:0:
175,163,255557,5,8,3:2:0:0:
175,163,256455,6,0,B|214:155|214:155|238:157|238:157|312:143,1,107.999996704102,6|2,3:2|0:2,0:2:0:0:
421,124,256814,1,10,0:2:0:0:
315,243,256994,2,0,P|354:231|374:291,1,107.999996704102,2|0,0:2|0:0,0:2:0:0:
290,365,257353,1,2,3:2:0:0:
485,256,257533,1,10,0:2:0:0:
334,137,257712,6,0,L|314:246,1,107.999996704102,2|0,0:2|3:2,0:0:0:0:
290,365,258072,1,0,2:2:0:0:
217,229,258251,1,8,0:2:0:0:
378,282,258431,2,0,P|364:235|315:243,1,107.999996704102,0|0,0:2|3:0,0:2:0:0:
212,337,258790,1,0,3:2:0:0:
222,119,258970,1,8,0:2:0:0:
314,243,259149,1,0,0:2:0:0:
175,163,259329,6,0,B|214:155|214:155|238:157|238:157|312:143,1,107.999996704102,2|2,3:2|3:2,0:0:0:0:
421,124,259688,1,10,0:2:0:0:
286,21,259868,2,0,P|335:13|349:60,1,107.999996704102,2|0,0:2|0:0,0:2:0:0:
281,148,260227,1,2,3:2:0:0:
196,63,260407,2,0,L|142:53,1,53.9999983520508,14|0,0:2|0:2,0:2:0:0:
64,165,260587,1,10,0:2:0:0:
59,138,260677,1,8,0:2:0:0:
55,112,260766,6,0,L|45:58,1,53.9999983520508,0|0,3:2|0:0,0:0:0:0:
154,141,260946,2,0,L|164:195,1,53.9999983520508,12|0,0:2|0:0,0:0:0:0:
30,298,261126,1,8,3:2:0:0:
57,293,261216,1,8,3:2:0:0:
83,289,261305,2,0,L|137:279,1,53.9999983520508,8|0,0:2|0:0,0:0:0:0:
268,213,261485,6,0,P|240:223|232:256,1,53.9999983520508,8|0,3:2|0:2,0:2:0:0:
351,336,261664,1,8,3:2:0:0:
367,321,261754,2,0,P|372:291|347:268,1,53.9999983520508,8|0,0:2|3:2,0:2:0:0:
224,331,261934,1,8,3:2:0:0:
228,352,262024,2,0,P|251:371|283:361,1,53.9999983520508,8|8,0:2|0:2,0:0:0:0:
465,259,262203,6,0,B|421:267|421:267|397:265|397:265|358:273,1,107.999996704102,6|2,3:2|0:2,0:2:0:0:
230,243,262563,1,10,0:2:0:0:
359,146,262742,2,0,P|419:152|415:199,1,107.999996704102,2|0,0:2|0:0,0:2:0:0:
284,298,263102,1,2,0:2:0:0:
301,97,263281,1,10,0:2:0:0:
358,273,263461,6,0,B|397:265|397:265|421:267|421:267|465:259,1,107.999996704102,2|0,0:2|3:2,0:2:0:0:
284,298,263820,1,2,0:2:0:0:
421,189,264000,1,10,0:2:0:0:
229,242,264179,2,0,P|242:194|292:199,1,107.999996704102,2|0,0:2|3:0,0:2:0:0:
421,189,264539,2,0,P|408:141|359:146,1,107.999996704102,2|8,0:2|3:2,0:0:0:0:
284,298,264898,6,0,B|240:290|240:290|216:292|216:292|177:284,1,107.999996704102,14|0,0:2|3:2,0:2:0:0:
51,265,265257,1,2,0:2:0:0:
134,384,265437,1,10,3:2:0:0:
152,169,265617,2,0,P|201:164|214:212,1,107.999996704102,2|0,0:2|3:0,0:2:0:0:
56,343,265976,1,2,0:2:0:0:
230,293,266155,2,0,L|176:283,1,53.9999983520508,8|8,0:2|0:2,0:2:0:0:
51,265,266335,6,0,P|59:182|51:101,1,161.999995056153,6|0,0:2|0:2,0:2:0:0:
34,29,266694,2,0,P|67:31|106:48,1,53.9999983520508,10|0,0:2|0:0,0:0:0:0:
247,128,266874,1,10,3:2:0:0:
221,120,266964,1,8,3:2:0:0:
195,117,267054,2,0,P|162:119|122:136,1,53.9999983520508,10|0,0:2|0:0,0:0:0:0:
51,265,267233,6,0,B|83:259|96:238|91:232|104:205|141:200,1,107.999996704102,8|0,0:2|0:2,0:2:0:0:
176,283,267503,2,0,L|230:293,1,53.9999983520508,8|8,0:2|3:2,0:0:0:0:
97,384,267772,1,6,3:2:0:0:
92,357,267862,1,8,3:2:0:0:
88,331,267951,5,8,3:2:0:0:
133,201,268132,1,0,0:0:0:0:
263,349,268311,1,8,3:2:0:0:
267,323,268400,1,8,3:2:0:0:
272,296,268491,6,0,B|318:284|340:312|334:315|361:348|424:335,1,144,2|0,0:2|0:0,0:0:0:0:
393,246,269030,1,2,3:2:0:0:
497,301,269209,2,0,L|504:248,2,36,10|8|8,0:2|0:2|3:2,0:0:0:0:
403,337,269569,2,0,L|407:372,2,36,0|0|0,0:0|0:2|3:2,0:0:0:0:
393,246,269928,2,0,P|396:176|459:215,1,144,8|0,0:2|0:2,0:0:0:0:
506,240,270377,1,8,3:2:0:0:
502,266,270466,1,8,3:2:0:0:
441,134,270646,1,8,3:2:0:0:
445,160,270735,1,8,3:2:0:0:
450,187,270825,5,2,3:2:0:0:
425,54,271006,1,0,0:0:0:0:
295,121,271185,1,10,3:2:0:0:
320,125,271274,1,8,3:2:0:0:
348,130,271365,2,0,L|334:208,1,72,10|0,0:2|3:2,0:0:0:0:
268,263,271634,1,8,3:2:0:0:
263,236,271724,1,10,3:2:0:0:
259,210,271813,1,8,3:2:0:0:
254,183,271905,5,10,3:2:0:0:
283,342,272084,1,2,0:2:0:0:
164,258,272263,2,0,P|161:328|98:289,1,144,2|0,3:2|3:2,0:2:0:0:
35,268,272712,1,8,3:2:0:0:
49,243,272802,2,0,L|14:239,1,36,8|0,0:2|0:0,0:0:0:0:
164,258,272982,1,0,3:2:0:0:
78,40,273161,1,8,0:2:0:0:
207,155,273341,1,8,3:2:0:0:
13,238,273521,1,0,3:2:0:0:
17,212,273610,1,8,3:2:0:0:
22,185,273700,5,6,3:2:0:0:
164,258,273880,1,0,0:0:0:0:
207,155,274060,1,10,3:2:0:0:
203,129,274149,1,8,3:2:0:0:
198,102,274239,6,0,B|244:90|266:118|260:121|287:154|350:141,1,144,10|2,0:2|0:2,0:0:0:0:
333,116,274689,1,8,3:2:0:0:
337,90,274778,1,10,3:2:0:0:
442,141,274958,2,0,L|449:176,2,36,10|0|2,0:2|0:0|3:2,0:0:0:0:
491,57,275317,2,0,L|496:21,2,36,0|0|8,0:0|0:0|3:2,0:0:0:0:
503,207,275676,2,0,P|464:173|432:187,1,72,8|0,0:2|3:2,0:0:0:0:
391,254,276036,1,8,3:2:0:0:
387,280,276127,1,8,3:2:0:0:
382,307,276215,5,8,3:2:0:0:
485,296,276395,1,8,3:2:0:0:
490,323,276485,1,0,3:2:0:0:
494,349,276576,1,2,3:2:0:0:
503,207,276754,1,2,0:2:0:0:
387,280,276934,1,10,3:2:0:0:
391,254,277023,1,0,3:2:0:0:
396,227,277114,6,0,P|415:193|342:187,1,144,2|2,0:2|0:2,0:2:0:0:
288,249,277563,1,0,3:2:0:0:
261,254,277652,1,10,3:2:0:0:
396,227,277832,1,2,0:2:0:0:
190,196,278012,6,0,P|189:156|247:153,1,108,2|0,3:2|0:2,0:2:0:0:
267,223,278371,1,8,3:2:0:0:
261,254,278460,1,8,3:2:0:0:
255,286,278550,1,8,3:2:0:0:
250,318,278640,1,8,3:2:0:0:
244,350,278730,1,8,3:2:0:0:
343,183,278910,5,10,0:2:0:0:
326,383,279090,1,10,0:2:0:0:
137,288,279269,1,10,0:2:0:0:
