osu file format v14

[General]
AudioFilename: audio.mp3
AudioLeadIn: 0
PreviewTime: 54134
Countdown: 0
SampleSet: Soft
StackLeniency: 0.7
Mode: 2
LetterboxInBreaks: 0
WidescreenStoryboard: 1

[Editor]
DistanceSpacing: 0.1
BeatDivisor: 4
GridSize: 8
TimelineZoom: 2

[Metadata]
Title:Yume to Iro de Dekiteiru
TitleUnicode:夢と色でできている
Artist:Sasaki Sayaka
ArtistUnicode:佐咲紗花
Creator:-Luminate
Version:Rain
Source:夢と色でできている
Tags:feng eroge opening visual novel Our times made of dreams and colors Yumeiro ajamez
BeatmapID:2010384
BeatmapSetID:960202

[Difficulty]
HPDrainRate:6
CircleSize:4
OverallDifficulty:9
ApproachRate:9
SliderMultiplier:1.87
SliderTickRate:2

[Events]
//Background and Video events
0,0,"bgyeaa.png",0,0
//Break Periods
//Storyboard Layer 0 (Background)
//Storyboard Layer 1 (Fail)
//Storyboard Layer 2 (Pass)
//Storyboard Layer 3 (Foreground)
//Storyboard Sound Samples

[TimingPoints]
2039,359.281437125748,4,2,2,55,1,0
7787,-100,4,2,1,60,0,0
51260,-100,4,2,1,65,0,0
51619,-100,4,2,1,70,0,0
51799,-100,4,2,1,75,0,0
51979,-100,4,2,1,80,0,0
52158,-83.3333333333333,4,2,1,80,0,0
52697,-83.3333333333333,4,2,1,70,0,0
53595,-90.9090909090909,4,2,1,80,0,1
64643,-90.9090909090909,4,2,1,10,0,1
64733,-90.9090909090909,4,2,1,80,0,1
65003,-90.9090909090909,4,2,1,10,0,1
65093,-90.9090909090909,4,2,1,80,0,1
79464,-90.9090909090909,4,2,2,80,0,1
79823,-90.9090909090909,4,2,1,80,0,1
87368,-100,4,2,1,80,0,0
87727,-100,4,2,1,50,0,0
88266,-100,4,2,1,70,0,0
99763,-100,4,2,1,60,0,0
110721,-100,4,2,1,70,0,0

[Colours]
Combo1 : 80,189,231
Combo2 : 155,157,183

[HitObjects]
184,248,2039,6,0,L|96:184,2,93.5,4|0|0,0:0|0:0|0:0,0:0:0:0:
320,248,2577,2,0,P|368:144|296:112,1,187,2|0,0:0|0:0,0:0:0:0:
216,112,3116,1,0,0:0:0:0:
104,112,3296,1,8,0:0:0:0:
336,304,3835,6,0,L|344:176,1,93.5,0|0,0:0|0:0,0:0:0:0:
128,192,4553,2,0,L|120:72,1,93.5,2|0,0:0|0:0,0:0:0:0:
272,72,4913,6,0,L|392:72,2,93.5,8|0|0,0:0|0:0|0:0,0:0:0:0:
136,256,5452,2,0,P|216:160|304:160,1,187,2|0,0:0|0:0,0:0:0:0:
384,144,5991,1,0,0:0:0:0:
200,96,6170,1,8,0:0:0:0:
432,296,6709,6,0,L|440:176,1,93.5,0|0,0:0|0:0,0:0:0:0:
256,168,7248,2,0,L|368:168,2,93.5,0|0|0,0:0|0:0|0:0,0:0:0:0:
88,288,7787,6,0,P|32:224|104:160,1,187,2|0,0:0|0:0,0:0:0:0:
208,168,8326,2,0,P|264:112|200:32,1,187,8|4,0:3|0:3,0:0:0:0:
96,32,8865,1,2,0:0:0:0:
336,296,9044,6,0,L|344:160,1,93.5,4|0,0:0|0:0,0:0:0:0:
216,168,9404,1,2,0:0:0:0:
344,128,9583,1,2,0:0:0:0:
64,296,9763,2,0,L|56:160,1,93.5,4|0,0:0|0:0,0:0:0:0:
176,176,10122,1,2,0:0:0:0:
56,112,10302,2,0,L|136:112,1,46.75,8|8,0:0|0:0,0:0:0:0:
320,112,10482,6,0,P|368:136|288:232,1,187,4|2,0:0|0:0,0:0:0:0:
192,248,11021,2,0,L|80:248,1,93.5,8|2,0:0|0:0,0:0:0:0:
160,224,11290,1,2,0:0:0:0:
224,216,11380,2,0,L|344:216,1,93.5,2|0,0:0|0:0,0:0:0:0:
184,136,11739,2,0,L|176:24,1,93.5,8|0,0:0|0:0,0:0:0:0:
448,336,12098,6,0,L|456:208,1,93.5,2|0,0:0|0:0,0:0:0:0:
328,200,12458,2,0,L|224:200,1,93.5,10|2,0:0|0:0,0:0:0:0:
168,160,12727,1,2,0:0:0:0:
232,112,12817,2,0,L|344:112,1,93.5,2|0,0:0|0:0,0:0:0:0:
80,304,13176,2,0,L|72:176,1,93.5,12|0,0:0|0:0,0:0:0:0:
136,208,13446,1,0,0:0:0:0:
328,208,13536,6,0,L|440:208,2,93.5,4|0|0,1:0|1:0|1:0,1:0:0:0:
176,152,14074,1,8,1:2:0:0:
304,96,14254,2,0,L|368:96,2,46.75,0|0|0,1:0|1:0|1:0,1:0:0:0:
128,208,14613,1,8,1:2:0:0:
32,144,14793,2,0,L|96:144,1,46.75,0|0,1:0|1:0,1:0:0:0:
296,320,14973,6,0,L|304:200,1,93.5,8|0,1:2|1:0,1:0:0:0:
240,224,15242,1,0,1:0:0:0:
184,224,15332,1,0,1:0:0:0:
328,144,15512,2,0,L|424:144,1,93.5,8|0,1:2|1:0,1:0:0:0:
312,312,15871,2,0,L|304:232,1,46.75,0|0,1:0|1:0,1:0:0:0:
376,240,16050,2,0,L|472:240,1,93.5,8|0,1:2|1:0,1:0:0:0:
216,144,16410,6,0,L|88:144,2,93.5,8|0|0,1:2|1:0|1:0,1:0:0:0:
288,144,16859,1,0,1:0:0:0:
352,208,16949,2,0,P|400:160|328:72,1,187,8|0,1:2|1:0,1:0:0:0:
208,64,17488,2,0,L|328:64,1,93.5,8|0,1:2|1:0,1:0:0:0:
248,104,17757,1,0,1:0:0:0:
56,256,17847,5,4,0:0:0:0:
184,256,18027,2,0,L|264:256,1,46.75,8|2,0:0|0:0,0:0:0:0:
96,112,18296,2,0,L|24:112,1,46.75,8|2,0:0|0:0,0:0:0:0:
320,304,18565,2,0,L|464:304,1,140.25,8|8,0:0|0:0,0:0:0:0:
400,280,18925,1,8,0:0:0:0:
360,232,19015,1,8,0:0:0:0:
368,176,19104,1,8,0:0:0:0:
424,160,19194,1,8,0:0:0:0:
176,112,19284,6,0,L|24:112,1,140.25,4|2,0:0|0:0,0:0:0:0:
104,88,19643,1,8,0:0:0:0:
280,304,19823,2,0,P|312:232|216:184,1,187,2|2,0:0|0:0,0:0:0:0:
96,168,20362,2,0,L|88:56,1,93.5,8|2,0:0|0:0,0:0:0:0:
368,232,20721,6,0,P|456:200|488:128,1,140.25,0|2,0:0|0:0,0:0:0:0:
416,160,21080,1,8,0:0:0:0:
256,152,21260,2,0,P|208:104|288:32,1,187,2|2,0:0|0:0,0:0:0:0:
448,200,21799,2,0,L|336:200,1,93.5,8|2,0:0|0:0,0:0:0:0:
80,280,22158,6,0,L|248:280,1,140.25,8|2,0:3|0:0,0:0:0:0:
272,280,22518,1,8,0:0:0:0:
136,232,22697,2,0,P|80:184|168:104,1,187,2|2,0:0|0:0,0:0:0:0:
264,80,23236,1,8,0:0:0:0:
128,56,23416,1,2,0:0:0:0:
432,320,23595,6,0,P|456:288|384:216,1,140.25,2|2,0:0|0:0,0:0:0:0:
336,200,23955,1,8,0:0:0:0:
176,160,24134,2,0,P|288:112|368:104,1,187,2|2,0:0|0:0,0:0:0:0:
480,312,24673,2,0,L|360:312,1,93.5,8|2,0:0|0:0,0:0:0:0:
120,296,25033,6,0,P|88:200|128:168,1,140.25,4|2,0:0|0:0,0:0:0:0:
176,176,25392,1,8,0:0:0:0:
328,168,25571,2,0,L|344:56,1,93.5,2|0,0:0|0:0,0:0:0:0:
192,320,25931,2,0,L|184:200,1,93.5,2|8,0:0|0:0,0:0:0:0:
328,224,26290,1,2,0:0:0:0:
64,144,26470,6,0,L|248:128,1,140.25,8|2,0:3|0:0,0:0:0:0:
272,120,26829,1,8,0:0:0:0:
128,264,27009,2,0,L|16:264,1,93.5,2|0,0:0|0:0,0:0:0:0:
168,112,27368,2,0,L|48:112,1,93.5,2|8,0:0|0:0,0:0:0:0:
184,48,27727,1,2,0:0:0:0:
456,304,27907,6,0,P|384:232|336:232,1,140.25,2|2,0:0|0:0,0:0:0:0:
288,224,28266,1,8,0:0:0:0:
145,179,28446,2,0,P|113:139|201:51,1,187,2|2,0:0|0:0,0:0:0:0:
328,40,28985,2,0,L|424:40,1,93.5,8|2,0:0|0:0,0:0:0:0:
160,304,29344,6,0,P|48:264|24:216,1,140.25,8|2,0:3|0:0,0:0:0:0:
104,240,29703,1,8,0:0:0:0:
256,224,29883,2,0,P|288:152|192:104,1,187,2|2,0:0|0:0,0:0:0:0:
72,184,30422,2,0,L|64:80,1,93.5,8|0,0:0|0:0,0:0:0:0:
328,72,30781,6,0,P|384:96|448:160,1,140.25,4|2,0:0|0:0,0:0:0:0:
368,160,31140,1,8,0:0:0:0:
240,248,31320,2,0,L|448:240,1,187,2|0,0:0|0:0,0:0:0:0:
312,168,31859,1,8,0:0:0:0:
432,120,32038,1,2,0:0:0:0:
152,312,32218,6,0,P|104:248|160:200,1,140.25,8|2,0:3|0:0,0:0:0:0:
192,208,32577,1,8,0:0:0:0:
336,208,32757,2,0,P|384:152|288:80,1,187,2|2,0:0|0:0,0:0:0:0:
176,80,33296,2,0,L|56:80,1,93.5,8|2,0:0|0:0,0:0:0:0:
336,344,33655,6,0,P|432:304|472:248,1,140.25,8|2,0:3|0:0,0:0:0:0:
384,272,34015,1,8,0:0:0:0:
248,232,34194,2,0,P|208:160|288:104,1,187,2|2,0:0|0:0,0:0:0:0:
424,72,34733,2,0,L|320:72,1,93.5,8|2,0:0|0:0,0:0:0:0:
88,320,35092,6,0,P|40:232|88:192,1,140.25,4|2,0:3|0:0,0:0:0:0:
120,200,35452,1,8,0:0:0:0:
248,176,35631,1,2,0:0:0:0:
112,128,35811,2,0,L|104:16,1,93.5,0|2,0:0|0:0,0:0:0:0:
232,32,36170,1,8,0:0:0:0:
104,16,36350,1,2,0:0:0:0:
392,336,36530,6,0,P|432:272|376:208,1,140.25,4|2,0:0|0:0,0:0:0:0:
344,216,36889,1,8,0:0:0:0:
200,168,37068,2,0,L|320:168,1,93.5,2|0,0:0|0:0,0:0:0:0:
440,176,37428,2,0,L|448:64,1,93.5,2|8,0:0|0:0,0:0:0:0:
328,80,37787,1,2,0:0:0:0:
80,304,37967,6,0,P|40:248|112:184,1,140.25,8|2,0:3|0:0,0:0:0:0:
144,192,38326,1,8,0:0:0:0:
280,144,38506,2,0,L|80:144,1,187,2|0,0:0|0:0,0:0:0:0:
192,72,39044,1,8,0:0:0:0:
88,40,39224,1,2,0:0:0:0:
352,336,39404,6,0,P|376:264|328:224,1,140.25,4|2,0:0|0:0,0:0:0:0:
272,224,39763,1,8,0:0:0:0:
120,216,39943,2,0,P|32:160|48:80,1,187,2|2,0:0|0:0,0:0:0:0:
104,88,40392,1,2,0:0:0:0:
168,88,40482,1,8,0:0:0:0:
24,304,40661,1,0,0:0:0:0:
328,304,40841,6,0,L|448:304,2,93.5,4|2|8,0:0|0:0|0:0,0:0:0:0:
88,240,41380,2,0,P|64:120|96:112,1,187,4|2,0:0|0:0,0:0:0:0:
160,112,41829,1,2,0:0:0:0:
328,272,41919,1,8,0:0:0:0:
384,256,42008,1,8,0:0:0:0:
384,200,42098,1,8,0:0:0:0:
328,176,42188,1,8,0:0:0:0:
160,168,42278,6,0,L|48:168,1,93.5,4|0,0:0|0:0,0:0:0:0:
192,96,42637,1,2,0:0:0:0:
72,288,42817,2,0,L|64:160,1,93.5,0|2,0:0|0:0,0:0:0:0:
184,160,43176,1,0,0:0:0:0:
64,128,43356,1,2,0:0:0:0:
232,288,43536,6,0,L|368:288,1,93.5,0|2,0:0|0:0,0:0:0:0:
432,224,43895,1,8,0:3:0:0:
328,168,44074,1,2,0:0:0:0:
456,152,44254,2,0,L|464:40,1,93.5,8|2,0:3|0:0,0:0:0:0:
336,48,44613,1,2,0:0:0:0:
456,32,44793,1,2,0:0:0:0:
312,264,44973,2,0,L|248:264,1,46.75,8|8,0:0|0:0,0:0:0:0:
72,248,45152,6,0,P|56:184|72:160,1,93.5,4|0,0:0|0:0,0:0:0:0:
192,336,45512,1,2,0:0:0:0:
296,296,45691,1,0,0:0:0:0:
336,200,45871,1,2,0:0:0:0:
280,120,46050,1,0,0:0:0:0:
184,88,46230,1,2,0:0:0:0:
328,56,46410,1,8,0:0:0:0:
80,296,46589,5,2,0:0:0:0:
208,240,46769,1,8,0:0:0:0:
72,200,46949,2,0,L|64:72,1,93.5,2|8,0:0|0:0,0:0:0:0:
328,88,47308,1,8,0:3:0:0:
448,152,47488,1,2,0:0:0:0:
328,216,47667,1,4,0:3:0:0:
456,296,47847,2,0,L|384:296,1,46.75,2|2,0:0|0:0,0:0:0:0:
176,328,48027,6,0,L|168:216,1,93.5,4|0,0:0|0:0,0:0:0:0:
296,208,48386,1,2,0:0:0:0:
168,160,48565,2,0,L|48:160,1,93.5,0|2,0:0|0:0,0:0:0:0:
184,56,48925,1,0,0:0:0:0:
72,32,49104,1,2,0:0:0:0:
360,288,49284,6,0,L|368:168,1,93.5,0|2,0:0|0:0,0:0:0:0:
248,152,49643,1,8,0:3:0:0:
376,120,49823,1,2,0:0:0:0:
136,304,50003,2,0,L|8:304,1,93.5,8|2,0:3|0:0,0:0:0:0:
168,216,50362,1,8,0:0:0:0:
40,144,50541,2,0,L|120:144,1,46.75,8|8,0:0|0:0,0:0:0:0:
288,144,50721,6,0,L|416:144,2,93.5,4|0|2,0:0|0:0|0:0,0:0:0:0:
144,144,51260,1,2,0:0:0:0:
272,200,51440,1,2,0:0:0:0:
400,248,51619,1,2,0:0:0:0:
272,296,51799,1,2,0:0:0:0:
400,336,51979,1,2,0:0:0:0:
88,320,52158,6,0,P|24:272|104:160,1,224.399993151856,4|2,0:0|0:0,0:0:0:0:
144,160,52607,1,2,0:0:0:0:
296,264,52697,1,2,0:0:0:0:
336,216,52786,1,2,0:0:0:0:
336,152,52876,1,8,0:0:0:0:
304,104,52966,1,8,0:0:0:0:
247,81,53056,1,8,0:3:0:0:
192,80,53146,1,8,0:3:0:0:
344,152,53236,2,0,L|416:144,1,56.0999982879639,8|8,0:0|0:0,0:0:0:0:
200,312,53416,2,0,L|128:296,1,56.0999982879639,8|8,0:0|0:0,0:0:0:0:
388,312,53595,6,0,P|428:272|348:168,1,205.700006277466,4|2,0:0|0:0,0:0:0:0:
216,160,54134,2,0,L|112:160,1,102.850003138733,8|0,0:0|0:0,0:0:0:0:
360,344,54494,2,0,L|464:336,2,102.850003138733,2|0|8,0:0|0:0|0:0,0:0:0:0:
112,296,55033,6,0,P|56:232|144:176,1,205.700006277466,2|2,0:0|0:0,0:0:0:0:
256,176,55571,1,8,0:0:0:0:
96,176,55751,2,0,L|80:24,1,102.850003138733,0|2,0:0|0:0,0:0:0:0:
216,288,56110,2,0,L|96:288,1,102.850003138733,2|8,0:0|0:0,0:0:0:0:
400,232,56470,6,0,P|448:176|344:96,1,205.700006277466,2|2,0:0|0:0,0:0:0:0:
232,80,57009,2,0,L|120:48,1,102.850003138733,8|0,0:0|0:0,0:0:0:0:
320,272,57368,2,0,L|440:256,2,102.850003138733,2|0|8,0:0|0:0|0:0,0:0:0:0:
56,280,57907,6,0,P|24:192|136:128,1,205.700006277466,6|2,0:0|0:0,0:0:0:0:
216,120,58446,1,8,0:0:0:0:
464,248,58625,2,0,L|224:240,1,205.700006277466,4|8,0:0|0:0,0:0:0:0:
376,200,59164,1,8,0:3:0:0:
112,288,59344,6,0,P|56:200|144:144,1,205.700006277466,4|2,0:0|0:0,0:0:0:0:
272,200,59883,2,0,L|288:64,1,102.850003138733,8|0,0:0|0:0,0:0:0:0:
144,72,60242,2,0,L|24:64,2,102.850003138733,2|0|8,0:0|0:0|0:0,0:0:0:0:
392,320,60781,6,0,P|448:280|368:200,1,205.700006277466,2|2,0:0|0:0,0:0:0:0:
240,192,61320,1,8,0:0:0:0:
96,168,61500,2,0,L|112:48,1,102.850003138733,0|2,0:0|0:0,0:0:0:0:
248,48,61859,2,0,L|376:48,1,102.850003138733,2|8,0:0|0:0,0:0:0:0:
96,336,62218,6,0,P|40:280|120:208,1,205.700006277466,2|2,0:0|0:0,0:0:0:0:
240,200,62757,1,8,0:0:0:0:
104,144,62937,2,0,L|96:32,1,102.850003138733,2|0,0:0|0:0,0:0:0:0:
336,40,63296,1,8,0:0:0:0:
200,32,63476,1,2,0:0:0:0:
464,328,63655,6,0,P|480:264|360:184,1,205.700006277466,4|2,0:0|0:0,0:0:0:0:
312,168,64104,1,2,0:0:0:0:
240,152,64194,2,0,L|248:72,1,51.4250015693665,8|8,0:0|0:0,0:0:0:0:
320,88,64374,1,2,0:0:0:0:
448,80,64553,1,0,0:0:0:0:
96,328,64733,2,0,L|88:192,1,102.850003138733,8|0,0:0|0:0,0:0:0:0:
424,224,65092,6,0,P|480:144|392:88,1,205.700006277466,4|2,0:0|0:0,0:0:0:0:
272,72,65631,2,0,L|168:72,1,102.850003138733,8|0,0:0|0:0,0:0:0:0:
48,200,65991,2,0,L|176:200,2,102.850003138733,2|0|8,0:0|0:0|0:0,0:0:0:0:
304,320,66530,6,0,P|416:288|464:192,1,205.700006277466,2|2,0:0|0:0,0:0:0:0:
320,200,67068,1,8,0:0:0:0:
184,136,67248,2,0,L|304:128,1,102.850003138733,0|2,0:0|0:0,0:0:0:0:
440,48,67607,2,0,L|320:56,1,102.850003138733,2|8,0:0|0:0,0:0:0:0:
64,312,67967,6,0,L|288:304,1,205.700006277466,2|2,0:0|0:0,0:0:0:0:
144,240,68506,2,0,L|136:112,1,102.850003138733,8|0,0:0|0:0,0:0:0:0:
272,88,68865,1,2,0:0:0:0:
136,80,69044,2,0,L|32:48,1,102.850003138733,0|8,0:0|0:0,0:0:0:0:
384,328,69404,6,0,P|464:280|400:184,1,205.700006277466,4|0,0:0|0:0,0:0:0:0:
296,200,69943,1,8,0:0:0:0:
48,136,70122,2,0,L|200:136,1,102.850003138733,4|0,0:0|0:0,0:0:0:0:
280,128,70482,1,8,0:3:0:0:
128,80,70661,1,2,0:0:0:0:
416,336,70841,6,0,P|464:272|376:200,1,205.700006277466,4|2,0:0|0:0,0:0:0:0:
248,224,71380,2,0,L|232:80,1,102.850003138733,8|0,0:0|0:0,0:0:0:0:
384,88,71739,2,0,L|280:88,2,102.850003138733,2|0|8,0:0|0:0|0:0,0:0:0:0:
120,320,72278,6,0,P|64:240|144:192,1,205.700006277466,2|2,0:0|0:0,0:0:0:0:
272,176,72817,1,8,0:0:0:0:
136,112,72997,2,0,L|256:112,1,102.850003138733,0|2,0:0|0:0,0:0:0:0:
80,272,73356,2,0,L|72:160,1,102.850003138733,2|8,0:0|0:0,0:0:0:0:
384,296,73715,6,0,P|432:184|352:152,1,205.700006277466,2|2,0:0|0:0,0:0:0:0:
248,136,74254,1,8,0:0:0:0:
392,312,74434,2,0,L|400:192,1,102.850003138733,0|2,0:0|0:0,0:0:0:0:
248,168,74793,2,0,L|352:168,1,102.850003138733,2|8,0:0|0:0,0:0:0:0:
104,344,75152,6,0,L|96:224,1,102.850003138733,4|0,0:0|0:0,0:0:0:0:
240,200,75512,1,2,0:0:0:0:
96,176,75691,1,8,0:0:0:0:
392,272,75871,2,0,L|408:144,1,102.850003138733,4|0,0:0|0:0,0:0:0:0:
152,216,76230,1,8,0:0:0:0:
96,176,76319,1,2,0:0:0:0:
152,144,76409,1,2,0:0:0:0:
216,120,76499,1,2,0:0:0:0:
256,64,76589,1,8,0:0:0:0:
216,16,76679,1,8,0:0:0:0:
48,24,76769,6,0,L|40:160,1,102.850003138733,4|2,0:0|0:0,0:0:0:0:
176,176,77128,1,8,0:0:0:0:
40,288,77308,1,2,0:0:0:0:
88,288,77398,1,2,0:0:0:0:
136,288,77488,1,2,0:0:0:0:
264,248,77667,1,2,0:0:0:0:
136,208,77847,1,8,0:0:0:0:
400,216,78027,6,0,P|440:168|328:88,1,205.700006277466,2|2,0:0|0:0,0:0:0:0:
208,80,78565,1,8,0:0:0:0:
336,168,78745,2,0,L|408:168,2,51.4250015693665,2|2|2,0:0|0:0|0:0,0:0:0:0:
200,240,79104,1,2,0:0:0:0:
336,288,79284,1,8,0:0:0:0:
56,288,79464,6,0,P|8:232|104:152,1,205.700006277466,2|2,0:0|0:0,0:0:0:0:
208,144,80003,1,8,0:0:0:0:
344,96,80182,2,0,L|200:96,1,102.850003138733,0|2,0:0|0:0,0:0:0:0:
384,32,80541,2,0,L|496:32,2,102.850003138733,2|8|2,0:0|0:0|0:0,0:0:0:0:
128,176,81080,6,0,L|0:176,2,102.850003138733,8|0|8,0:3|0:0|0:0,0:0:0:0:
296,176,81619,1,2,0:0:0:0:
40,328,81799,2,0,P|48:248|128:224,1,154.2750047081,4|2,0:0|0:0,0:0:0:0:
304,280,82158,1,2,0:0:0:0:
360,272,82247,1,2,0:0:0:0:
408,232,82337,1,2,0:0:0:0:
432,176,82427,1,2,0:0:0:0:
240,72,82518,6,0,L|120:72,2,102.850003138733,4|0|8,0:0|0:0|0:0,0:0:0:0:
96,304,83056,2,0,P|40:256|136:176,1,205.700006277466,2|2,0:0|0:0,0:0:0:0:
240,168,83595,1,8,0:0:0:0:
384,120,83775,6,0,L|160:112,1,205.700006277466,2|2,0:0|0:0,0:0:0:0:
328,184,84314,1,8,0:0:0:0:
184,296,84494,2,0,L|176:160,1,102.850003138733,8|2,0:3|0:0,0:0:0:0:
320,280,84853,2,0,L|328:152,1,102.850003138733,8|4,0:0|0:3,0:0:0:0:
176,80,85212,2,0,L|104:80,1,51.4250015693665,2|2,0:0|0:0,0:0:0:0:
312,320,85392,5,4,0:0:0:0:
440,264,85571,2,0,L|496:264,2,51.4250015693665,0|0|8,1:0|1:0|1:2,0:0:0:0:
168,256,85931,2,0,L|24:256,1,102.850003138733,2|8,1:2|1:2,0:0:0:0:
208,112,86290,1,2,0:0:0:0:
152,112,86380,1,2,0:0:0:0:
96,112,86470,1,8,1:2:0:0:
368,328,86649,6,0,L|376:192,1,102.850003138733,2|8,0:0|1:2,0:0:0:0:
208,208,87009,2,0,L|112:208,1,51.4250015693665,0|2,0:0|0:0,0:0:0:0:
328,96,87188,2,0,L|400:96,1,51.4250015693665,8|8,1:2|0:0,0:0:0:0:
152,88,87368,1,4,0:3:0:0:
328,208,87727,5,0,0:0:0:0:
328,208,87907,1,0,0:0:0:0:
328,208,88086,1,0,0:0:0:0:
80,312,88266,6,0,L|72:176,1,93.5,4|0,0:0|0:0,0:0:0:0:
200,208,88625,1,8,0:0:0:0:
440,144,88805,2,0,L|216:144,1,187,2|2,0:0|0:0,0:0:0:0:
376,72,89344,2,0,L|488:72,1,93.5,8|0,0:0|0:0,0:0:0:0:
184,320,89703,6,0,L|88:320,2,93.5,2|0|8,0:0|0:0|0:0,0:0:0:0:
320,296,90242,2,0,P|344:248|240:160,1,187,2|2,0:0|0:0,0:0:0:0:
128,144,90781,2,0,L|112:16,1,93.5,8|0,0:0|0:0,0:0:0:0:
360,48,91140,6,0,L|456:48,2,93.5,2|0|8,0:0|0:0|0:0,0:0:0:0:
224,304,91679,2,0,P|136:280|72:168,1,187,2|2,0:0|0:0,0:0:0:0:
328,152,92218,2,0,L|464:152,1,93.5,8|2,0:0|0:0,0:0:0:0:
368,120,92488,1,8,0:0:0:0:
144,96,92577,5,2,0:0:0:0:
280,296,92757,2,0,L|288:176,1,93.5,4|2,0:0|0:0,0:0:0:0:
224,200,93027,1,8,0:0:0:0:
160,192,93116,1,2,0:0:0:0:
432,128,93296,1,4,0:0:0:0:
296,64,93476,2,0,L|232:64,1,46.75,2|8,0:0|0:0,0:0:0:0:
400,24,93745,2,0,L|464:24,1,46.75,2|8,0:0|0:0,0:0:0:0:
192,256,94015,6,0,L|72:256,2,93.5,4|0|8,0:0|0:0|0:0,0:0:0:0:
352,256,94553,2,0,P|424:240|488:128,1,187,2|2,0:0|0:0,0:0:0:0:
352,120,95092,1,8,0:0:0:0:
96,288,95272,6,0,P|56:232|152:160,1,187,0|2,0:0|0:0,0:0:0:0:
248,144,95811,1,8,0:0:0:0:
392,96,95991,2,0,L|256:96,1,93.5,4|0,0:0|0:0,0:0:0:0:
160,56,96350,1,2,0:0:0:0:
312,32,96530,1,8,0:0:0:0:
72,320,96709,6,0,P|32:232|112:192,1,187,4|0,0:0|0:0,0:0:0:0:
232,184,97248,1,8,0:0:0:0:
80,120,97428,2,0,L|72:16,1,93.5,2|0,0:0|0:0,0:0:0:0:
224,32,97787,1,2,0:0:0:0:
80,200,97967,2,0,L|160:200,1,46.75,8|8,0:0|0:0,0:0:0:0:
352,304,98146,6,0,P|400:264|320:184,1,187,4|8,0:0|0:0,0:0:0:0:
192,120,98685,2,0,L|128:120,2,46.75,2|8|2,0:0|0:0|0:0,0:0:0:0:
464,320,99044,2,0,L|296:312,1,140.25,4|2,0:0|0:0,0:0:0:0:
392,288,99404,1,8,0:0:0:0:
440,256,99493,1,8,0:0:0:0:
432,200,99583,1,8,0:0:0:0:
378,184,99673,1,8,0:0:0:0:
160,192,99763,6,0,L|152:72,1,93.5,4|0,1:2|1:0,1:0:0:0:
288,80,100122,1,2,1:2:0:0:
152,312,100302,2,0,P|104:256|208:208,1,187,0|0,1:0|1:0,1:0:0:0:
296,144,100841,2,0,L|176:144,1,93.5,2|0,1:2|1:0,1:0:0:0:
360,296,101200,5,2,1:2:0:0:
240,248,101380,2,0,L|224:176,2,46.75,0|0|2,1:0|1:0|1:2,1:0:0:0:
408,224,101739,2,0,P|448:160|360:96,1,187,2|0,1:2|1:0,1:0:0:0:
272,304,102278,2,0,L|392:304,1,93.5,2|0,1:2|1:0,1:0:0:0:
176,224,102637,5,2,1:2:0:0:
304,160,102817,2,0,L|328:88,2,46.75,0|0|0,1:0|1:0|1:0,1:0:0:0:
152,336,103176,2,0,P|104:280|200:216,1,187,2|0,1:2|1:0,1:0:0:0:
304,200,103715,2,0,L|312:80,1,93.5,2|0,1:2|1:0,1:0:0:0:
112,224,104074,5,2,1:2:0:0:
232,160,104254,2,0,L|248:80,2,46.75,0|0|0,1:0|1:0|1:0,1:0:0:0:
80,320,104613,2,0,L|280:320,1,187,2|0,1:2|1:2,1:0:0:0:
144,232,105152,2,0,L|136:120,1,93.5,2|0,1:2|1:0,1:0:0:0:
320,88,105512,6,0,L|416:88,2,93.5,4|0|0,1:2|1:0|1:0,1:0:0:0:
160,296,106050,2,0,P|112:248|184:168,1,187,2|0,1:2|1:0,1:0:0:0:
296,168,106589,2,0,L|416:168,1,93.5,2|0,1:2|1:0,1:0:0:0:
216,320,106949,5,2,1:2:0:0:
344,272,107128,2,0,L|368:200,2,46.75,0|0|0,1:0|1:0|1:0,1:0:0:0:
200,280,107488,2,0,P|104:248|48:160,1,187,2|0,1:2|1:0,1:0:0:0:
104,152,107937,1,0,1:0:0:0:
152,128,108027,1,2,1:2:0:0:
280,80,108206,1,0,1:0:0:0:
104,48,108386,5,2,1:2:0:0:
232,240,108565,2,0,L|256:168,2,46.75,0|0|0,1:0|1:0|1:0,1:0:0:0:
80,312,108925,2,0,L|280:336,1,187,2|0,1:2|1:0,1:0:0:0:
144,216,109464,2,0,L|272:208,1,93.5,2|0,1:2|1:0,1:0:0:0:
480,88,109823,6,0,L|368:88,1,93.5,8|0,1:2|1:0,1:0:0:0:
128,288,110182,1,8,1:3:0:0:
80,264,110272,1,0,1:0:0:0:
80,208,110362,1,0,1:0:0:0:
128,192,110452,1,0,1:0:0:0:
184,184,110541,5,4,1:3:0:0:
336,136,110721,1,4,1:0:0:0:
184,88,110901,1,4,1:0:0:0:
464,56,111080,1,4,1:2:0:0:
