osu file format v14

[General]
AudioFilename: audio.mp3
AudioLeadIn: 0
PreviewTime: 54134
Countdown: 0
SampleSet: Soft
StackLeniency: 0.7
Mode: 2
LetterboxInBreaks: 0
WidescreenStoryboard: 1

[Editor]
DistanceSpacing: 0.1
BeatDivisor: 4
GridSize: 8
TimelineZoom: 2

[Metadata]
Title:Yume to Iro de Dekiteiru
TitleUnicode:夢と色でできている
Artist:Sasaki Sayaka
ArtistUnicode:佐咲紗花
Creator:-Luminate
Version:Platter
Source:夢と色でできている
Tags:feng eroge opening visual novel Our times made of dreams and colors Yumeiro ajamez
BeatmapID:2011388
BeatmapSetID:960202

[Difficulty]
HPDrainRate:5
CircleSize:3.5
OverallDifficulty:8
ApproachRate:8
SliderMultiplier:1.72
SliderTickRate:1

[Events]
//Background and Video events
0,0,"bgyeaa.png",0,0
//Break Periods
//Storyboard Layer 0 (Background)
//Storyboard Layer 1 (Fail)
//Storyboard Layer 2 (Pass)
//Storyboard Layer 3 (Foreground)
//Storyboard Sound Samples

[TimingPoints]
2039,359.281437125748,4,2,2,55,1,0
7787,-100,4,2,1,60,0,0
51260,-100,4,2,1,65,0,0
51619,-100,4,2,1,70,0,0
51799,-100,4,2,1,75,0,0
51979,-100,4,2,1,80,0,0
52158,-83.3333333333333,4,2,1,80,0,0
52697,-83.3333333333333,4,2,1,70,0,0
53595,-95.2380952380952,4,2,1,80,0,1
64643,-95.2380952380952,4,2,1,10,0,1
64733,-95.2380952380952,4,2,1,80,0,1
65003,-95.2380952380952,4,2,1,10,0,1
65093,-95.2380952380952,4,2,1,80,0,1
79464,-95.2380952380952,4,2,2,80,0,1
79823,-95.2380952380952,4,2,1,80,0,1
87368,-100,4,2,1,80,0,0
87727,-100,4,2,1,50,0,0
88266,-100,4,2,1,70,0,0
99763,-100,4,2,1,60,0,0
110721,-100,4,2,1,70,0,0

[Colours]
Combo1 : 80,189,231
Combo2 : 155,157,183

[HitObjects]
272,224,2039,6,0,L|360:176,2,86,4|0|0,0:0|0:0|0:0,0:0:0:0:
160,224,2577,1,2,0:0:0:0:
344,104,2937,2,0,L|432:48,2,86,0|0|8,0:0|0:0|0:0,0:0:0:0:
160,112,3835,5,0,0:0:0:0:
160,112,4015,1,0,0:0:0:0:
320,112,4553,1,2,0:0:0:0:
320,112,4733,1,0,0:0:0:0:
136,264,4913,6,0,L|48:200,2,86,8|0|0,0:0|0:0|0:0,0:0:0:0:
240,264,5452,1,2,0:0:0:0:
416,168,5811,2,0,L|336:112,2,86,0|0|8,0:0|0:0|0:0,0:0:0:0:
176,240,6709,5,0,0:0:0:0:
176,240,6889,1,0,0:0:0:0:
344,240,7248,2,0,L|440:168,2,86,0|0|0,0:0|0:0|0:0,0:0:0:0:
152,256,7787,5,2,0:0:0:0:
64,232,7967,2,0,L|56:128,1,86,0|0,0:0|0:0,0:0:0:0:
152,128,8326,1,8,0:3:0:0:
320,48,8685,1,4,0:3:0:0:
408,88,8864,1,2,0:0:0:0:
408,168,9044,1,4,0:0:0:0:
152,296,9404,6,0,L|144:184,1,86,2|2,0:0|0:0,0:0:0:0:
424,320,9763,2,0,P|472:264|416:200,1,172,4|2,0:0|0:0,0:0:0:0:
320,192,10302,1,8,0:0:0:0:
72,288,10482,6,0,P|24:224|104:168,1,172,4|2,0:0|0:0,0:0:0:0:
248,160,11021,2,0,L|256:48,1,86,8|2,0:0|0:0,0:0:0:0:
152,40,11380,2,0,L|264:40,1,86,2|0,0:0|0:0,0:0:0:0:
400,200,11739,2,0,L|296:200,1,86,8|0,0:0|0:0,0:0:0:0:
64,288,12098,6,0,L|56:176,1,86,2|0,0:0|0:0,0:0:0:0:
224,192,12458,2,0,L|232:96,1,86,10|2,0:0|0:0,0:0:0:0:
136,120,12817,2,0,L|128:24,1,86,2|0,0:0|0:0,0:0:0:0:
296,32,13176,2,0,L|408:32,1,86,12|0,0:0|0:0,0:0:0:0:
136,304,13536,6,0,L|40:304,2,86,4|0|0,0:0|1:0|1:0,0:0:0:0:
304,280,14074,1,8,1:2:0:0:
216,240,14254,2,0,L|200:160,2,43,0|0|0,1:0|1:0|1:0,0:0:0:0:
376,168,14613,2,0,L|384:48,1,86,8|0,1:2|1:0,0:0:0:0:
136,240,14973,6,0,L|32:240,1,86,8|0,1:2|1:0,0:0:0:0:
96,208,15242,1,0,1:0:0:0:
144,200,15332,1,0,1:0:0:0:
312,160,15512,1,8,1:2:0:0:
416,104,15691,2,0,L|472:104,2,43,0|0|0,1:0|1:0|1:0,0:0:0:0:
256,96,16050,2,0,L|144:96,1,86,8|0,1:2|1:0,0:0:0:0:
416,304,16410,6,0,L|424:200,1,86,8|0,1:2|1:0,0:0:0:0:
296,208,16769,2,0,L|224:208,1,43,0|0,1:0|1:0,0:0:0:0:
296,144,16949,2,0,L|384:144,1,86,8|0,1:2|1:0,0:0:0:0:
296,72,17308,1,0,1:0:0:0:
144,72,17488,2,0,L|56:72,1,86,8|0,1:2|1:0,0:0:0:0:
304,304,17847,5,4,0:0:0:0:
416,248,18027,2,0,L|360:248,1,43,8|2,0:0|0:0,0:0:0:0:
240,248,18296,2,0,L|168:248,1,43,8|2,0:0|0:0,0:0:0:0:
352,192,18565,2,0,P|432:176|480:88,1,172,8|8,0:0|0:0,0:0:0:0:
424,96,19015,1,8,0:0:0:0:
368,96,19104,1,8,0:0:0:0:
120,248,19284,6,0,P|72:200|144:136,1,172,4|8,0:0|0:0,0:0:0:0:
248,208,19823,2,0,P|296:160|224:96,1,172,2|2,0:0|0:0,0:0:0:0:
128,88,20362,1,8,0:0:0:0:
392,312,20541,6,0,P|440:240|368:192,1,172,2|2,0:0|0:0,0:0:0:0:
288,184,21080,1,8,0:0:0:0:
120,176,21260,2,0,P|72:112|160:48,1,172,2|2,0:0|0:0,0:0:0:0:
272,40,21799,1,8,0:0:0:0:
376,64,21979,1,2,0:0:0:0:
128,160,22158,6,0,P|64:192|40:304,1,172,8|8,0:3|0:0,0:0:0:0:
136,352,22697,2,0,L|304:320,1,172,2|2,0:0|0:0,0:0:0:0:
200,288,23236,1,8,0:0:0:0:
192,200,23416,1,2,0:0:0:0:
368,224,23595,6,0,P|416:144|360:112,1,172,2|8,0:0|0:0,0:0:0:0:
232,96,24134,2,0,L|416:72,1,172,2|2,0:0|0:0,0:0:0:0:
480,152,24673,1,8,0:0:0:0:
400,216,24853,1,2,0:0:0:0:
152,312,25033,6,0,P|104:264|176:200,1,172,4|8,0:0|0:0,0:0:0:0:
328,176,25571,2,0,L|504:112,2,172,2|2|2,0:0|0:0|0:0,0:0:0:0:
224,176,26470,5,8,0:3:0:0:
64,176,26829,1,8,0:0:0:0:
184,336,27009,2,0,L|352:240,2,172,2|2|2,0:0|0:0|0:0,0:0:0:0:
432,240,27907,6,0,P|480:184|408:112,1,172,2|8,0:0|0:0,0:0:0:0:
320,232,28446,2,0,L|144:192,1,172,2|2,0:0|0:0,0:0:0:0:
256,168,28985,1,8,0:0:0:0:
256,72,29164,1,2,0:0:0:0:
152,320,29344,5,8,0:3:0:0:
320,320,29703,1,8,0:0:0:0:
408,288,29883,2,0,P|424:224|336:160,1,172,2|2,0:0|0:0,0:0:0:0:
176,184,30422,2,0,L|168:80,1,86,8|0,0:0|0:0,0:0:0:0:
424,312,30781,6,0,P|472:248|408:200,1,172,4|8,0:0|0:0,0:0:0:0:
256,224,31320,2,0,P|208:144|280:112,1,172,2|0,0:0|0:0,0:0:0:0:
416,96,31859,2,0,L|512:96,1,86,8|2,0:0|0:0,0:0:0:0:
256,312,32218,6,0,P|136:280|88:224,1,172,8|8,0:3|0:0,0:0:0:0:
208,216,32757,2,0,L|392:184,1,172,2|2,0:0|0:0,0:0:0:0:
280,152,33296,1,8,0:0:0:0:
120,168,33476,6,0,P|88:88|168:40,1,172,2|2,0:0|0:0,0:0:0:0:
240,40,34015,1,8,0:0:0:0:
328,128,34194,2,0,L|120:144,1,172,2|2,0:0|0:0,0:0:0:0:
72,144,34733,1,8,0:0:0:0:
328,336,34913,6,0,P|392:288|296:176,1,258,2|8,0:0|0:0,0:0:0:0:
208,176,35631,1,2,0:0:0:0:
104,160,35811,2,0,L|96:48,1,86,0|2,0:0|0:0,0:0:0:0:
192,32,36170,1,8,0:0:0:0:
96,24,36350,1,2,0:0:0:0:
344,48,36530,6,0,P|384:152|328:176,1,172,4|8,0:0|0:0,0:0:0:0:
248,192,37068,2,0,P|192:248|248:312,1,172,2|2,0:0|0:0,0:0:0:0:
336,312,37607,2,0,L|432:312,1,86,8|2,0:0|0:0,0:0:0:0:
176,240,37967,6,0,P|136:152|208:128,1,172,8|8,0:3|0:0,0:0:0:0:
320,288,38506,2,0,P|296:216|136:136,1,258,2|8,0:0|0:0,0:0:0:0:
32,144,39224,1,2,0:0:0:0:
280,272,39404,6,0,L|440:192,1,172,4|8,0:0|0:0,0:0:0:0:
256,216,39943,2,0,P|208:144|272:88,1,172,2|2,0:0|0:0,0:0:0:0:
312,88,40392,1,2,0:0:0:0:
368,88,40482,2,0,L|376:200,1,86,8|0,0:0|0:0,0:0:0:0:
104,296,40841,6,0,L|-8:296,2,86,4|2|8,0:0|0:0|0:0,0:0:0:0:
280,320,41380,2,0,P|328:264|240:192,1,172,4|2,0:0|0:0,0:0:0:0:
144,168,41919,1,8,0:0:0:0:
88,128,42009,1,8,0:0:0:0:
144,96,42098,1,8,0:0:0:0:
408,304,42278,6,0,P|456:248|384:176,1,172,4|2,0:0|0:0,0:0:0:0:
296,216,42817,2,0,P|272:96|312:40,1,172,0|0,0:0|0:0,0:0:0:0:
392,48,43356,1,2,0:0:0:0:
224,296,43536,6,0,L|40:240,1,172,0|8,0:0|0:3,0:0:0:0:
144,224,44074,1,2,0:0:0:0:
232,192,44254,2,0,L|240:88,1,86,8|2,0:3|0:0,0:0:0:0:
144,80,44613,2,0,L|48:80,2,86,2|2|8,0:0|0:0|0:0,0:0:0:0:
392,304,45152,6,0,P|432:264|368:176,1,172,4|2,0:0|0:0,0:0:0:0:
288,232,45691,1,0,0:0:0:0:
200,208,45871,1,2,0:0:0:0:
200,128,46050,1,0,0:0:0:0:
288,80,46230,1,2,0:0:0:0:
416,120,46410,6,0,P|312:200|240:184,1,172,8|8,0:0|0:0,0:0:0:0:
168,192,46949,2,0,L|160:88,1,86,2|8,0:0|0:0,0:0:0:0:
280,136,47308,2,0,L|288:16,1,86,8|2,0:3|0:0,0:0:0:0:
168,48,47667,1,4,0:3:0:0:
72,40,47847,1,2,0:0:0:0:
336,312,48027,6,0,P|424:280|472:208,1,172,4|2,0:0|0:0,0:0:0:0:
368,192,48565,2,0,L|200:144,1,172,0|0,0:0|0:0,0:0:0:0:
112,104,49104,1,2,0:0:0:0:
280,256,49284,6,0,P|328:208|248:128,1,172,0|8,0:0|0:3,0:0:0:0:
176,128,49823,1,2,0:0:0:0:
32,56,50003,2,0,L|136:56,1,86,8|2,0:3|0:0,0:0:0:0:
264,80,50362,1,8,0:0:0:0:
160,80,50541,1,8,0:0:0:0:
408,328,50721,6,0,P|456:264|384:192,1,172,4|2,0:0|0:0,0:0:0:0:
312,184,51260,1,2,0:0:0:0:
128,128,51440,2,0,L|328:120,1,172,2|2,0:0|0:0,0:0:0:0:
416,112,51979,1,2,0:0:0:0:
128,320,52158,6,0,P|72:272|144:192,1,206.399993701172,4|2,0:0|0:0,0:0:0:0:
256,184,52697,1,2,0:0:0:0:
80,144,52877,2,0,L|72:32,1,103.199996850586,8|8,0:0|0:3,0:0:0:0:
232,24,53236,1,8,0:0:0:0:
180,24,53325,1,8,0:0:0:0:
128,24,53415,1,8,0:0:0:0:
376,304,53595,6,0,P|432:264|360:184,1,180.599994488526,4|2,0:0|0:0,0:0:0:0:
184,200,54134,2,0,L|176:88,1,90.2999972442628,8|0,0:0|0:0,0:0:0:0:
296,88,54494,2,0,L|392:40,2,90.2999972442628,2|0|8,0:0|0:0|0:0,0:0:0:0:
48,296,55033,6,0,P|24:216|104:176,1,180.599994488526,2|2,0:0|0:0,0:0:0:0:
272,168,55571,1,8,0:0:0:0:
184,144,55751,2,0,L|176:32,1,90.2999972442628,0|2,0:0|0:0,0:0:0:0:
352,304,56110,2,0,L|360:184,1,90.2999972442628,2|8,0:0|0:0,0:0:0:0:
112,200,56470,6,0,P|56:152|144:88,1,180.599994488526,2|2,0:0|0:0,0:0:0:0:
288,128,57009,2,0,L|176:128,1,90.2999972442628,8|0,0:0|0:0,0:0:0:0:
48,224,57368,2,0,L|144:224,2,90.2999972442628,2|0|8,0:0|0:0|0:0,0:0:0:0:
304,336,57907,6,0,P|360:288|288:208,1,180.599994488526,6|2,0:0|0:0,0:0:0:0:
200,208,58446,1,8,0:0:0:0:
448,192,58625,2,0,P|496:136|424:80,1,180.599994488526,4|8,0:0|0:0,0:0:0:0:
320,80,59164,1,8,0:3:0:0:
64,240,59344,6,0,P|16:160|88:120,1,180.599994488526,4|2,0:0|0:0,0:0:0:0:
176,120,59883,2,0,L|288:112,1,90.2999972442628,8|0,0:0|0:0,0:0:0:0:
128,288,60242,2,0,L|16:288,2,90.2999972442628,2|0|8,0:0|0:0|0:0,0:0:0:0:
384,288,60781,6,0,P|432:224|360:160,1,180.599994488526,2|2,0:0|0:0,0:0:0:0:
272,160,61320,1,8,0:0:0:0:
128,136,61500,2,0,L|120:40,1,90.2999972442628,0|2,0:0|0:0,0:0:0:0:
224,40,61859,2,0,L|336:40,1,90.2999972442628,2|8,0:0|0:0,0:0:0:0:
152,264,62218,6,0,L|40:264,1,90.2999972442628,2|0,0:0|0:0,0:0:0:0:
176,192,62577,2,0,L|184:64,1,90.2999972442628,2|8,0:0|0:0,0:0:0:0:
80,96,62937,1,2,0:0:0:0:
248,240,63296,2,0,L|120:240,1,90.2999972442628,8|2,0:0|0:0,0:0:0:0:
416,328,63655,6,0,P|464:272|384:200,1,180.599994488526,4|2,0:0|0:0,0:0:0:0:
288,184,64194,2,0,L|240:184,2,45.1499986221314,8|8|2,0:0|0:0|0:0,0:0:0:0:
408,136,64553,1,0,0:0:0:0:
496,64,64733,2,0,L|376:64,1,90.2999972442628,8|0,0:0|0:0,0:0:0:0:
136,272,65092,6,0,P|80:208|152:144,1,180.599994488526,4|2,0:0|0:0,0:0:0:0:
304,160,65631,2,0,L|312:48,1,90.2999972442628,8|0,0:0|0:0,0:0:0:0:
200,48,65991,2,0,L|96:48,2,90.2999972442628,2|0|8,0:0|0:0|0:0,0:0:0:0:
456,312,66530,6,0,P|416:232|248:144,1,270.899991732788,2|8,0:0|0:0,0:0:0:0:
384,176,67248,2,0,L|392:56,1,90.2999972442628,0|2,0:0|0:0,0:0:0:0:
280,264,67607,2,0,L|392:264,1,90.2999972442628,2|8,0:0|0:0,0:0:0:0:
112,312,67967,6,0,P|56:240|128:176,1,180.599994488526,2|2,0:0|0:0,0:0:0:0:
240,168,68506,2,0,L|352:168,1,90.2999972442628,8|0,0:0|0:0,0:0:0:0:
424,96,68865,2,0,L|320:96,2,90.2999972442628,2|0|8,0:0|0:0|0:0,0:0:0:0:
168,320,69404,6,0,P|72:272|32:176,1,180.599994488526,4|0,0:0|0:0,0:0:0:0:
144,208,69943,1,8,0:0:0:0:
320,208,70122,2,0,P|408:168|464:88,1,180.599994488526,4|8,0:0|0:3,0:0:0:0:
352,104,70661,1,2,0:0:0:0:
96,304,70841,6,0,P|48:232|112:176,1,180.599994488526,4|2,0:0|0:0,0:0:0:0:
216,176,71380,2,0,L|224:72,1,90.2999972442628,8|0,0:0|0:0,0:0:0:0:
104,72,71739,2,0,L|208:72,2,90.2999972442628,2|0|8,0:0|0:0|0:0,0:0:0:0:
360,328,72278,6,0,P|416:280|336:200,1,180.599994488526,2|2,0:0|0:0,0:0:0:0:
264,200,72817,1,8,0:0:0:0:
168,152,72997,2,0,L|288:152,1,90.2999972442628,0|2,0:0|0:0,0:0:0:0:
368,160,73356,2,0,L|376:40,1,90.2999972442628,2|8,0:0|0:0,0:0:0:0:
120,328,73715,6,0,P|72:248|136:200,1,180.599994488526,2|2,0:0|0:0,0:0:0:0:
224,184,74254,1,8,0:0:0:0:
128,144,74434,1,0,0:0:0:0:
416,176,74793,2,0,L|424:72,1,90.2999972442628,2|8,0:0|0:0,0:0:0:0:
168,256,75152,6,0,P|32:200|8:144,1,180.599994488526,4|2,0:0|0:0,0:0:0:0:
120,168,75691,1,8,0:0:0:0:
296,200,75871,2,0,P|328:136|224:80,1,180.599994488526,4|8,0:0|0:0,0:0:0:0:
144,72,76410,2,0,L|88:72,2,45.1499986221314,2|2|8,0:0|0:0|0:0,0:0:0:0:
400,72,76769,6,0,L|488:128,1,90.2999972442628,4|2,0:0|0:0,0:0:0:0:
328,144,77128,1,8,0:0:0:0:
224,144,77308,2,0,L|160:144,2,45.1499986221314,2|2|2,0:0|0:0|0:0,0:0:0:0:
344,216,77667,2,0,L|456:216,1,90.2999972442628,2|8,0:0|0:0,0:0:0:0:
176,352,78027,6,0,P|120:288|184:232,1,180.599994488526,2|2,0:0|0:0,0:0:0:0:
336,224,78565,1,8,0:0:0:0:
416,152,78745,2,0,L|472:152,2,45.1499986221314,2|2|2,0:0|0:0|0:0,0:0:0:0:
312,88,79104,1,2,0:0:0:0:
416,40,79284,1,8,0:0:0:0:
160,312,79464,6,0,P|64:280|8:200,1,180.599994488526,2|2,0:0|0:0,0:0:0:0:
112,208,80003,1,8,0:0:0:0:
208,184,80182,2,0,L|216:80,1,90.2999972442628,0|2,0:0|0:0,0:0:0:0:
120,112,80541,2,0,L|112:8,1,90.2999972442628,2|8,0:0|0:0,0:0:0:0:
280,24,80901,1,2,0:0:0:0:
360,64,81080,5,8,0:3:0:0:
392,152,81260,1,0,0:0:0:0:
344,224,81440,1,8,0:0:0:0:
256,256,81619,1,2,0:0:0:0:
424,336,81799,2,0,P|464:288|400:200,1,180.599994488526,4|2,0:0|0:0,0:0:0:0:
312,192,82338,1,2,0:0:0:0:
56,160,82518,6,0,L|48:64,1,90.2999972442628,4|0,0:0|0:0,0:0:0:0:
152,64,82877,1,8,0:0:0:0:
312,288,83056,2,0,P|352:224|264:160,1,180.599994488526,0|2,0:0|0:0,0:0:0:0:
184,152,83595,1,8,0:0:0:0:
360,192,83775,6,0,P|440:160|464:40,1,180.599994488526,0|2,0:0|0:0,0:0:0:0:
368,72,84314,1,8,0:0:0:0:
272,224,84494,2,0,L|264:104,1,90.2999972442628,8|2,0:3|0:0,0:0:0:0:
368,128,84853,2,0,L|472:128,2,90.2999972442628,8|4|2,0:0|0:3|0:0,0:0:0:0:
112,264,85392,6,0,L|8:264,2,90.2999972442628,4|0|8,0:0|1:0|1:2,0:0:0:0:
368,264,85931,2,0,L|480:264,1,90.2999972442628,2|8,1:2|1:2,0:0:0:0:
352,144,86290,1,2,0:0:0:0:
456,104,86470,1,8,1:2:0:0:
200,288,86649,6,0,P|144:232|216:168,1,180.599994488526,2|0,0:0|0:0,0:0:0:0:
304,168,87188,1,8,1:2:0:0:
56,152,87368,1,4,0:3:0:0:
184,152,87727,5,0,0:0:0:0:
184,152,87907,1,0,0:0:0:0:
184,152,88086,1,0,0:0:0:0:
432,320,88266,6,0,L|504:256,2,86,4|0|8,0:0|0:0|0:0,0:0:0:0:
272,312,88805,2,0,P|232:216|304:176,1,172,2|2,0:0|0:0,0:0:0:0:
376,176,89344,2,0,L|384:64,1,86,8|0,0:0|0:0,0:0:0:0:
136,72,89703,6,0,L|48:72,2,86,2|0|8,0:0|0:0|0:0,0:0:0:0:
296,72,90242,2,0,P|304:152|224:192,1,172,2|2,0:0|0:0,0:0:0:0:
128,200,90781,2,0,L|120:320,1,86,8|0,0:0|0:0,0:0:0:0:
368,328,91140,6,0,L|472:328,2,86,2|0|8,0:0|0:0|0:0,0:0:0:0:
208,328,91679,2,0,P|96:288|56:208,1,172,2|2,0:0|0:0,0:0:0:0:
152,192,92218,1,8,0:0:0:0:
248,136,92398,1,2,0:0:0:0:
200,112,92488,1,8,0:0:0:0:
152,96,92577,5,2,0:0:0:0:
400,304,92757,2,0,P|448:248|384:176,1,172,4|2,0:0|0:0,0:0:0:0:
208,168,93296,1,4,0:0:0:0:
112,104,93476,2,0,L|168:104,1,43,2|8,0:0|0:0,0:0:0:0:
288,104,93745,2,0,L|344:104,1,43,2|8,0:0|0:0,0:0:0:0:
88,312,94015,6,0,L|0:240,2,86,4|0|8,0:0|0:0|0:0,0:0:0:0:
240,320,94553,2,0,P|224:264|104:200,1,172,2|2,0:0|0:0,0:0:0:0:
40,192,95092,1,8,0:0:0:0:
200,192,95272,6,0,P|288:160|336:72,1,172,0|2,0:0|0:0,0:0:0:0:
232,96,95811,1,8,0:0:0:0:
64,240,95991,2,0,L|56:128,1,86,4|0,0:0|0:0,0:0:0:0:
144,104,96350,1,2,0:0:0:0:
56,72,96530,1,8,0:0:0:0:
304,64,96709,6,0,P|408:112|432:176,1,172,4|0,0:0|0:0,0:0:0:0:
336,168,97248,1,8,0:0:0:0:
240,176,97428,2,0,P|192:232|248:304,1,172,2|2,0:0|0:0,0:0:0:0:
328,304,97967,1,8,0:0:0:0:
88,304,98146,6,0,P|40:248|104:184,1,172,4|8,0:0|0:0,0:0:0:0:
200,184,98685,1,2,0:0:0:0:
248,184,98775,1,8,0:0:0:0:
296,184,98865,1,2,0:0:0:0:
176,96,99044,2,0,L|56:96,1,86,4|2,0:0|0:0,0:0:0:0:
48,128,99314,1,2,0:0:0:0:
32,176,99404,1,8,0:0:0:0:
48,224,99494,1,8,0:0:0:0:
96,256,99583,1,8,0:0:0:0:
344,256,99763,6,0,L|456:256,2,86,4|0|2,1:2|1:0|1:2,0:0:0:0:
208,240,100302,2,0,P|160:192|248:128,1,172,0|0,1:0|1:0,0:0:0:0:
312,112,100841,2,0,L|408:112,1,86,2|0,1:2|1:0,0:0:0:0:
240,296,101200,6,0,L|144:296,2,86,2|0|2,1:2|1:0|1:2,0:0:0:0:
352,288,101739,2,0,P|384:232|304:152,1,172,2|0,1:2|1:0,0:0:0:0:
224,144,102278,2,0,L|128:144,1,86,2|0,1:2|1:0,0:0:0:0:
304,48,102637,6,0,L|312:160,1,86,2|0,1:2|1:0,0:0:0:0:
224,144,102997,1,0,1:0:0:0:
80,208,103176,2,0,P|136:288|240:304,1,172,2|0,1:2|1:0,0:0:0:0:
304,304,103715,2,0,L|392:304,1,86,2|0,1:2|1:0,0:0:0:0:
232,48,104074,6,0,L|224:160,1,86,2|0,1:2|1:0,0:0:0:0:
312,144,104434,1,0,1:0:0:0:
456,208,104613,2,0,P|400:288|296:304,1,172,2|0,1:2|1:2,0:0:0:0:
432,320,105152,2,0,L|440:200,1,86,2|0,1:2|1:0,0:0:0:0:
192,176,105512,5,4,1:2:0:0:
104,160,105691,2,0,L|96:64,1,86,0|0,1:0|1:0,0:0:0:0:
248,136,106050,2,0,P|352:96|384:16,1,172,2|0,1:2|1:0,0:0:0:0:
288,40,106589,2,0,L|192:40,1,86,2|0,1:2|1:0,0:0:0:0:
352,240,106949,6,0,L|440:240,2,86,2|0|0,1:2|1:0|1:0,0:0:0:0:
224,240,107488,2,0,P|112:192|64:120,1,172,2|0,1:2|1:0,0:0:0:0:
176,136,108027,2,0,L|288:136,1,86,2|0,1:2|1:0,0:0:0:0:
112,304,108386,6,0,L|104:192,1,86,2|0,1:2|1:0,0:0:0:0:
192,216,108745,1,0,1:0:0:0:
344,208,108925,2,0,P|400:144|320:80,1,172,2|0,1:2|1:0,0:0:0:0:
264,80,109464,2,0,L|152:80,1,86,2|0,1:2|1:0,0:0:0:0:
424,328,109823,6,0,L|432:208,1,86,8|0,1:2|1:0,0:0:0:0:
312,240,110182,1,8,1:3:0:0:
276,218,110271,1,0,1:0:0:0:
256,168,110361,1,0,1:0:0:0:
280,128,110452,1,0,0:0:0:0:
320,104,110541,5,4,1:3:0:0:
448,80,110721,1,4,1:0:0:0:
320,40,110901,1,4,1:0:0:0:
64,48,111080,1,4,1:2:0:0:
