osu file format v14

[General]
AudioFilename: audio.mp3
AudioLeadIn: 0
PreviewTime: 54134
Countdown: 0
SampleSet: Soft
StackLeniency: 0.7
Mode: 2
LetterboxInBreaks: 0
WidescreenStoryboard: 1

[Editor]
DistanceSpacing: 0.1
BeatDivisor: 4
GridSize: 8
TimelineZoom: 2

[Metadata]
Title:Yume to Iro de Dekiteiru
TitleUnicode:夢と色でできている
Artist:Sasaki Sayaka
ArtistUnicode:佐咲紗花
Creator:-Luminate
Version:Cup
Source:夢と色でできている
Tags:feng eroge opening visual novel Our times made of dreams and colors Yumeiro ajamez
BeatmapID:2011496
BeatmapSetID:960202

[Difficulty]
HPDrainRate:3
CircleSize:2.5
OverallDifficulty:6
ApproachRate:6
SliderMultiplier:1.6
SliderTickRate:1

[Events]
//Background and Video events
0,0,"bgyeaa.png",0,0
//Break Periods
//Storyboard Layer 0 (Background)
//Storyboard Layer 1 (Fail)
//Storyboard Layer 2 (Pass)
//Storyboard Layer 3 (Foreground)
//Storyboard Sound Samples

[TimingPoints]
2039,359.281437125748,4,2,2,55,1,0
7787,-100,4,2,1,60,0,0
51260,-100,4,2,1,65,0,0
51619,-100,4,2,1,70,0,0
51799,-100,4,2,1,75,0,0
51979,-100,4,2,1,80,0,0
52697,-100,4,2,1,70,0,0
53595,-95.2380952380952,4,2,1,80,0,1
64643,-95.2380952380952,4,2,1,10,0,1
64733,-95.2380952380952,4,2,1,80,0,1
65003,-95.2380952380952,4,2,1,10,0,1
65093,-95.2380952380952,4,2,1,80,0,1
79464,-95.2380952380952,4,2,2,80,0,1
79823,-95.2380952380952,4,2,1,80,0,1
87368,-100,4,2,1,80,0,0
87727,-100,4,2,1,50,0,0
88266,-100,4,2,1,70,0,0
99763,-100,4,2,1,60,0,0
110721,-100,4,2,1,70,0,0

[Colours]
Combo1 : 80,189,231
Combo2 : 155,157,183

[HitObjects]
168,288,2039,6,0,P|104:176|192:112,1,240,4|2,0:0|0:0,0:0:0:0:
336,200,2937,2,0,L|160:200,1,160,0|8,0:0|0:0,0:0:0:0:
368,56,3835,6,0,L|368:136,1,80,0|0,0:0|0:0,0:0:0:0:
160,136,4553,1,2,0:0:0:0:
328,296,4913,6,0,P|400:232|312:144,1,240,8|2,0:0|0:0,0:0:0:0:
152,208,5811,2,0,P|120:112|176:56,1,160,0|8,0:0|0:0,0:0:0:0:
360,64,6709,6,0,L|360:160,1,80,0|0,0:0|0:0,0:0:0:0:
184,232,7428,2,0,L|184:136,1,80,0|0,0:0|0:0,0:0:0:0:
280,136,7787,6,0,L|360:72,2,80,2|0|0,0:0|0:0|0:0,0:0:0:0:
184,136,8326,1,8,0:3:0:0:
48,312,8685,2,0,L|24:224,2,80,4|2|4,0:3|0:0|0:0,0:0:0:0:
216,328,9404,6,0,L|224:216,1,80,2|2,0:0|0:0,0:0:0:0:
136,248,9763,1,4,0:0:0:0:
288,176,10122,1,2,0:0:0:0:
368,136,10302,1,8,0:0:0:0:
288,88,10482,6,0,L|136:40,1,160,4|2,0:0|0:0,0:0:0:0:
216,40,11021,1,8,0:0:0:0:
376,88,11380,2,0,P|408:168|360:232,1,160,2|8,0:0|0:0,0:0:0:0:
208,336,12098,6,0,L|360:208,2,160,2|10|2,0:0|0:0|0:0,0:0:0:0:
48,232,13176,1,12,0:0:0:0:
224,176,13536,6,0,L|296:112,2,80,4|0|0,0:0|1:0|1:0,0:0:0:0:
136,224,14074,2,0,P|96:144|160:80,1,160,8|0,1:2|1:0,0:0:0:0:
216,88,14613,1,8,1:2:0:0:
384,232,14973,6,0,P|424:168|384:96,1,160,8|0,1:2|1:0,0:0:0:0:
312,96,15512,1,8,1:2:0:0:
120,168,16050,2,0,L|112:88,1,80,8|0,1:2|1:0,0:0:0:0:
192,80,16410,6,0,L|256:16,2,80,8|0|0,1:2|1:0|1:0,0:0:0:0:
112,200,16949,2,0,P|128:280|272:344,1,240,8|8,1:2|1:2,0:0:0:0:
424,328,17847,6,0,L|272:224,2,160,4|0|8,0:0|0:0|0:0,0:0:0:0:
280,336,18925,1,8,0:0:0:0:
136,272,19284,6,0,L|360:120,1,240,4|2,0:0|0:0,0:0:0:0:
168,136,20362,1,8,0:0:0:0:
352,264,20721,6,0,P|392:208|336:128,1,160,0|8,0:0|0:0,0:0:0:0:
280,136,21260,1,2,0:0:0:0:
112,128,21799,2,0,L|104:40,1,80,8|2,0:0|0:0,0:0:0:0:
192,40,22158,6,0,P|296:72|344:192,1,240,8|2,0:3|0:0,0:0:0:0:
192,264,23056,2,0,L|104:200,2,80,2|8|2,0:0|0:0|0:0,0:0:0:0:
272,272,23595,5,2,0:0:0:0:
432,232,23955,2,0,L|440:136,1,80,8|2,0:0|0:0,0:0:0:0:
208,128,24673,1,8,0:0:0:0:
368,264,25033,6,0,P|352:200|192:120,1,240,4|2,0:0|0:0,0:0:0:0:
72,80,25931,1,2,0:0:0:0:
208,48,26290,1,2,0:0:0:0:
432,112,26829,5,8,0:0:0:0:
432,200,27009,2,0,P|408:256|296:288,1,160,2|2,0:0|0:0,0:0:0:0:
152,272,27727,6,0,P|96:216|184:96,1,240,2|8,0:0|0:0,0:0:0:0:
248,96,28446,1,2,0:0:0:0:
432,280,28985,2,0,L|440:184,1,80,8|2,0:0|0:0,0:0:0:0:
352,192,29344,6,0,P|312:104|368:64,1,160,8|8,0:3|0:0,0:0:0:0:
432,72,29883,1,2,0:0:0:0:
224,280,30422,1,8,0:0:0:0:
160,256,30601,2,0,P|144:128|248:80,1,240,0|8,0:0|0:0,0:0:0:0:
296,80,31320,1,2,0:0:0:0:
144,248,31859,1,8,0:0:0:0:
72,208,32038,6,0,P|112:96|240:40,1,240,2|8,0:0|0:0,0:0:0:0:
280,40,32757,1,2,0:0:0:0:
416,272,33116,2,0,L|336:232,1,80,2|8,0:0|0:0,0:0:0:0:
264,208,33476,6,0,P|296:112|448:64,1,240,2|8,0:0|0:0,0:0:0:0:
344,56,34194,1,2,0:0:0:0:
160,232,34733,1,8,0:0:0:0:
88,208,34913,6,0,P|64:112|176:40,1,240,2|8,0:0|0:0,0:0:0:0:
232,32,35631,1,2,0:0:0:0:
80,80,36170,1,8,0:0:0:0:
232,320,36530,6,0,P|336:288|384:160,1,240,4|2,0:0|0:0,0:0:0:0:
200,160,37428,1,2,0:0:0:0:
360,256,37787,1,2,0:0:0:0:
416,208,37967,6,0,L|200:56,1,240,8|2,0:3|0:0,0:0:0:0:
64,304,39044,2,0,L|96:200,1,80,8|2,0:0|0:0,0:0:0:0:
176,224,39404,6,0,P|280:200|352:80,1,240,4|2,0:0|0:0,0:0:0:0:
216,112,40302,2,0,L|208:24,1,80,2|8,0:0|0:0,0:0:0:0:
368,48,40841,6,0,P|408:120|344:184,1,160,4|8,0:0|0:0,0:0:0:0:
280,184,41380,2,0,L|144:312,1,160,4|2,0:0|0:0,0:0:0:0:
248,312,41919,1,8,0:0:0:0:
424,304,42278,6,0,P|440:232|376:160,1,160,4|2,0:0|0:0,0:0:0:0:
320,160,42817,1,0,0:0:0:0:
176,160,43176,1,0,0:0:0:0:
208,96,43356,1,2,0:0:0:0:
248,32,43536,1,0,0:0:0:0:
88,288,43895,6,0,L|24:232,2,80,8|2|8,0:3|0:0|0:3,0:0:0:0:
240,288,44613,2,0,L|248:192,1,80,2|2,0:0|0:0,0:0:0:0:
152,184,44973,6,0,P|120:120|192:56,1,160,4|0,0:0|0:0,0:0:0:0:
256,56,45512,1,2,0:0:0:0:
416,144,45871,1,2,0:0:0:0:
424,224,46050,1,8,0:0:0:0:
352,272,46230,1,2,0:0:0:0:
272,272,46410,6,0,P|168:216|120:160,1,160,8|8,0:0|0:0,0:0:0:0:
88,112,46949,1,2,0:0:0:0:
248,248,47308,1,8,0:3:0:0:
304,200,47488,1,2,0:0:0:0:
248,152,47667,1,4,0:3:0:0:
72,304,48027,6,0,P|72:208|144:160,1,160,4|2,0:0|0:0,0:0:0:0:
176,168,48565,1,0,0:0:0:0:
328,192,48925,1,0,0:0:0:0:
296,120,49104,1,2,0:0:0:0:
264,48,49284,1,0,0:0:0:0:
104,40,49643,6,0,L|136:120,1,80,8|2,0:3|0:0,0:0:0:0:
208,128,50003,2,0,L|392:168,1,160,8|8,0:3|0:0,0:0:0:0:
208,320,50721,6,0,P|176:248|248:192,1,160,4|2,0:0|0:0,0:0:0:0:
304,192,51260,1,2,0:0:0:0:
384,176,51440,2,0,P|400:120|312:48,1,160,2|2,0:0|0:0,0:0:0:0:
264,48,51979,1,2,0:0:0:0:
184,40,52158,1,4,0:0:0:0:
328,280,52518,6,0,L|392:216,1,80,2|2,0:0|0:0,0:0:0:0:
464,192,52877,2,0,L|328:64,1,160,8|8,0:0|0:0,0:0:0:0:
184,320,53595,6,0,P|144:240|192:184,1,167.999994873047,4|2,0:0|0:0,0:0:0:0:
256,184,54134,1,8,0:0:0:0:
400,120,54494,1,2,0:0:0:0:
256,64,54853,1,8,0:0:0:0:
184,64,55033,6,0,P|80:128|80:248,1,251.999992309571,2|8,0:0|0:0,0:0:0:0:
168,256,55751,2,0,L|312:136,2,167.999994873047,0|2|2,0:0|0:0|0:0,0:0:0:0:
384,304,57009,5,8,0:0:0:0:
232,280,57368,2,0,P|184:208|200:128,1,167.999994873047,2|8,0:0|0:0,0:0:0:0:
280,152,57907,6,0,P|376:104|408:32,1,167.999994873047,6|2,0:0|0:0,0:0:0:0:
328,40,58446,1,8,0:0:0:0:
256,24,58625,1,4,0:0:0:0:
400,168,58985,1,8,0:0:0:0:
240,296,59344,6,0,P|144:256|168:112,1,251.999992309571,4|8,0:0|0:0,0:0:0:0:
304,208,60242,2,0,L|312:112,1,83.9999974365235,2|0,0:0|0:0,0:0:0:0:
240,112,60601,1,8,0:0:0:0:
168,80,60781,6,0,P|328:56|352:72,1,167.999994873047,2|2,0:0|0:0,0:0:0:0:
400,104,61320,2,0,L|408:200,1,83.9999974365235,8|0,0:0|0:0,0:0:0:0:
232,248,61859,1,2,0:0:0:0:
384,328,62218,6,0,P|416:272|344:200,1,167.999994873047,2|2,0:0|0:0,0:0:0:0:
288,192,62757,1,8,0:0:0:0:
224,176,62937,1,2,0:0:0:0:
96,112,63296,2,0,L|176:72,1,83.9999974365235,8|2,0:0|0:0,0:0:0:0:
240,72,63655,6,0,P|296:128|208:256,1,251.999992309571,4|8,0:0|0:0,0:0:0:0:
128,272,64374,1,2,0:0:0:0:
272,312,64733,1,8,0:0:0:0:
448,256,65092,6,0,P|464:184|384:88,1,167.999994873047,4|2,0:0|0:0,0:0:0:0:
352,96,65631,1,8,0:0:0:0:
200,80,65991,1,2,0:0:0:0:
344,240,66350,1,8,0:0:0:0:
416,224,66530,6,0,P|456:144|328:56,1,251.999992309571,2|8,0:0|0:0,0:0:0:0:
256,120,67248,2,0,L|112:248,2,167.999994873047,0|2|2,0:0|0:0|0:0,0:0:0:0:
440,96,68506,5,8,0:0:0:0:
288,296,68865,2,0,L|160:184,1,167.999994873047,2|8,0:0|0:0,0:0:0:0:
88,184,69404,6,0,L|240:56,1,167.999994873047,4|0,0:0|0:0,0:0:0:0:
288,80,69943,1,8,0:0:0:0:
360,80,70122,1,4,0:0:0:0:
224,184,70482,1,8,0:3:0:0:
368,320,70841,6,0,P|424:232|312:152,1,251.999992309571,4|8,0:0|0:0,0:0:0:0:
168,224,71739,2,0,P|128:136|168:80,1,167.999994873047,2|8,0:0|0:0,0:0:0:0:
248,64,72278,6,0,P|336:72|416:232,1,251.999992309571,2|8,0:0|0:0,0:0:0:0:
352,232,72997,1,0,0:0:0:0:
216,264,73356,1,2,0:0:0:0:
368,336,73715,6,0,P|448:272|456:192,1,167.999994873047,4|0,0:0|0:0,0:0:0:0:
464,136,74254,1,8,0:0:0:0:
408,88,74434,1,0,0:0:0:0:
272,80,74793,1,2,0:0:0:0:
96,288,75152,6,0,P|64:256|112:144,1,167.999994873047,4|2,0:0|0:0,0:0:0:0:
152,136,75691,1,8,0:0:0:0:
216,136,75871,1,4,0:0:0:0:
360,208,76230,2,0,P|344:144|256:80,1,167.999994873047,8|8,0:0|0:0,0:0:0:0:
176,280,76769,6,0,L|48:160,2,167.999994873047,4|8|2,0:0|0:0|0:0,0:0:0:0:
240,280,77667,1,2,0:0:0:0:
304,280,77847,1,8,0:0:0:0:
184,176,78206,6,0,L|336:48,2,167.999994873047,2|8|2,0:0|0:0|0:0,0:0:0:0:
112,184,79104,1,2,0:0:0:0:
184,232,79284,1,8,0:0:0:0:
256,272,79464,6,0,P|352:248|416:104,1,251.999992309571,2|8,0:0|0:0,0:0:0:0:
344,88,80182,2,0,L|216:200,2,167.999994873047,0|2|2,0:0|0:0|0:0,0:0:0:0:
424,56,81080,5,8,0:3:0:0:
272,40,81440,1,8,0:0:0:0:
128,48,81799,2,0,P|80:112|144:176,1,167.999994873047,4|2,0:0|0:0,0:0:0:0:
192,176,82338,1,2,0:0:0:0:
264,176,82518,6,0,P|352:224|384:304,1,167.999994873047,4|8,0:0|0:0,0:0:0:0:
304,296,83056,1,2,0:0:0:0:
160,256,83416,2,0,L|152:168,1,83.9999974365235,2|8,0:0|0:0,0:0:0:0:
232,160,83775,6,0,P|304:128|344:48,1,167.999994873047,0|2,0:0|0:0,0:0:0:0:
280,40,84314,1,8,0:0:0:0:
216,24,84494,1,8,0:3:0:0:
88,40,84853,1,8,0:0:0:0:
272,152,85392,6,0,L|144:272,1,167.999994873047,4|8,0:0|1:2,0:0:0:0:
232,264,85931,2,0,P|320:288|376:360,1,167.999994873047,2|2,1:2|0:0,0:0:0:0:
288,344,86470,1,8,1:2:0:0:
224,336,86649,1,2,0:0:0:0:
96,256,87009,6,0,L|80:168,1,83.9999974365235,0|8,0:0|1:2,0:0:0:0:
152,168,87368,1,4,0:3:0:0:
432,176,88266,6,0,P|392:120|296:80,1,160,4|8,0:0|0:0,0:0:0:0:
240,80,88805,1,2,0:0:0:0:
368,208,89164,2,0,L|376:304,1,80,2|8,0:0|0:0,0:0:0:0:
304,288,89524,1,0,0:0:0:0:
232,280,89703,6,0,P|184:208|288:112,1,240,2|2,0:0|0:0,0:0:0:0:
432,80,90781,1,8,0:0:0:0:
272,64,91140,6,0,L|144:168,1,160,2|8,0:0|0:0,0:0:0:0:
224,184,91679,2,0,P|272:272|160:344,1,240,2|8,0:0|0:0,0:0:0:0:
32,248,92577,6,0,P|48:160|128:112,1,160,4|2,0:0|0:0,0:0:0:0:
168,112,93116,1,2,0:0:0:0:
232,112,93296,1,4,0:0:0:0:
112,240,93655,1,2,0:0:0:0:
288,288,94015,6,0,P|352:208|264:104,1,240,4|2,0:0|0:0,0:0:0:0:
120,224,94913,2,0,L|184:288,1,80,2|8,0:0|0:0,0:0:0:0:
232,296,95272,6,0,P|336:248|368:200,1,160,0|2,0:0|0:0,0:0:0:0:
352,160,95811,1,8,0:0:0:0:
304,112,95991,1,4,0:0:0:0:
152,104,96350,1,2,0:0:0:0:
320,296,96709,6,0,P|384:224|296:128,1,240,4|8,0:0|0:0,0:0:0:0:
240,128,97428,1,2,0:0:0:0:
88,112,97787,1,2,0:0:0:0:
240,304,98146,6,0,P|208:216|80:152,1,240,4|2,0:0|0:0,0:0:0:0:
152,136,98865,1,2,0:0:0:0:
224,120,99044,1,4,0:0:0:0:
376,96,99404,1,8,0:0:0:0:
224,288,99763,6,0,P|176:192|280:128,1,240,4|0,1:2|1:0,0:0:0:0:
424,232,100661,2,0,L|456:152,2,80,0|2|0,1:0|1:2|1:0,0:0:0:0:
336,256,101200,6,0,P|264:240|168:96,1,240,2|2,1:2|1:2,0:0:0:0:
336,64,102278,1,2,1:2:0:0:
192,232,102637,6,0,L|160:152,2,80,2|0|0,1:2|1:0|1:0,0:0:0:0:
280,256,103176,2,0,P|352:240|448:96,1,240,2|2,1:2|1:2,0:0:0:0:
280,288,104074,6,0,P|224:200|312:120,1,240,2|2,1:2|1:2,0:0:0:0:
160,64,104973,2,0,L|88:120,1,80,0|2,1:2|1:2,0:0:0:0:
264,152,105512,6,0,L|272:248,1,80,4|0,1:2|1:0,0:0:0:0:
200,240,105871,1,0,1:0:0:0:
128,224,106050,2,0,P|72:152|176:72,1,240,2|2,1:2|1:2,0:0:0:0:
336,288,106949,6,0,L|176:176,1,160,2|0,1:2|1:0,0:0:0:0:
144,160,107488,1,2,1:2:0:0:
312,112,108027,1,2,1:2:0:0:
152,280,108386,6,0,L|144:176,1,80,2|0,1:2|1:0,0:0:0:0:
216,200,108745,1,0,1:0:0:0:
288,208,108925,2,0,P|384:160|432:32,1,240,2|2,1:2|1:2,0:0:0:0:
248,56,109823,6,0,L|392:184,2,160,8|8|4,1:2|1:3|1:3,0:0:0:0:
168,56,110721,5,4,1:0:0:0:
96,104,110901,1,4,1:0:0:0:
168,152,111080,1,4,1:2:0:0:
