osu file format v14

[General]
AudioFilename: audio.mp3
AudioLeadIn: 0
PreviewTime: 58883
Countdown: 0
SampleSet: Soft
StackLeniency: 0.7
Mode: 0
LetterboxInBreaks: 0
WidescreenStoryboard: 1

[Editor]
Bookmarks: 20483
DistanceSpacing: 1
BeatDivisor: 4
GridSize: 8
TimelineZoom: 2.899999

[Metadata]
Title:World End
TitleUnicode:ワールドエンド
Artist:Sasaki Sayaka
ArtistUnicode:佐咲紗花
Creator:Shocko
Version:Normal
Source:グリザイアの迷宮 -LE LABYRINTHE DE LA GRISAIA-
Tags:Grisaia no Meikyuu LE LABYRINTHE DE LA GRISAIA Visual Novel Video Game Short Version Opening Japanese Frontwing Hazu- Irohas
BeatmapID:2340016
BeatmapSetID:964002

[Difficulty]
HPDrainRate:4
CircleSize:3.3
OverallDifficulty:5
ApproachRate:5.5
SliderMultiplier:1.15
SliderTickRate:1

[Events]
//Background and Video events
Video,-153,"op.mp4"
0,0,"irohascute.jpg",0,0
//Break Periods
//Storyboard Layer 0 (Background)
//Storyboard Layer 1 (Fail)
//Storyboard Layer 2 (Pass)
//Storyboard Layer 3 (Foreground)
//Storyboard Layer 4 (Overlay)
//Storyboard Sound Samples

[TimingPoints]
1228,400,4,2,1,70,1,0
7628,-100,4,2,1,70,0,0
20428,-100,4,2,1,50,0,0
20628,-100,4,2,2,50,0,0
32828,-100,4,2,1,70,0,0
33228,-100,4,2,1,60,0,0
46028,-117.647058823529,4,2,1,30,0,0
52028,-117.647058823529,4,2,1,50,0,0
52428,-100,4,2,1,70,0,0
58828,-100,4,2,1,70,0,1
86028,-100,4,2,1,70,0,0
87628,-100,4,2,1,50,0,0
89028,-100,4,2,1,70,0,0
98128,-100,4,2,1,40,0,0
98428,-100,4,2,1,30,0,0

[Colours]
Combo1 : 192,192,192
Combo2 : 255,72,72
Combo3 : 255,83,169
Combo4 : 136,136,255
Combo5 : 255,155,205

[HitObjects]
256,192,4428,12,0,6828,0:0:0:0:
0,87,7628,6,0,P|33:80|72:77,1,57.5,4|2,3:2|0:0,0:0:0:0:
104,44,8028,1,10,0:0:0:0:
104,44,8228,2,0,P|99:100|98:175,1,115,2|2,3:2|3:2,0:0:0:0:
72,210,8828,1,10,0:0:0:0:
111,317,9228,2,0,P|166:313|245:302,1,115,2|8,3:2|0:0,0:0:0:0:
276,341,9828,1,2,3:2:0:0:
276,341,10028,2,0,P|332:360|388:335,1,115,2|8,0:0|0:0,0:0:0:0:
455,252,10828,6,0,P|486:256|519:263,2,57.5,0|2|10,3:0|0:0|0:0,0:0:0:0:
405,222,11428,2,0,P|351:232|284:241,1,115,2|2,3:2|3:2,0:0:0:0:
232,225,12028,1,10,0:0:0:0:
308,139,12428,2,0,P|332:97|321:51,1,86.25,6|6,3:2|3:2,0:0:0:0:
242,39,13028,2,0,P|183:57|106:68,1,115,6|0,3:2|3:0,0:0:0:0:
74,55,13628,1,10,0:0:0:0:
13,151,14028,6,0,P|18:208|22:272,1,115,6|8,3:2|0:0,0:0:0:0:
23,323,14628,2,0,P|67:291|138:300,1,115,2|2,3:2|3:2,0:0:0:0:
178,316,15228,1,10,0:0:0:0:
276,376,15628,2,0,P|283:343|293:310,1,57.5,0|2,3:0|0:0,0:0:0:0:
329,278,16028,1,8,0:0:0:0:
329,278,16228,2,0,P|366:311|441:307,1,115,2|2,3:2|3:2,0:0:0:0:
476,280,16828,1,8,0:0:0:0:
452,167,17228,6,0,L|535:177,2,57.5,6|2|10,3:2|3:2|0:0,0:0:0:0:
405,132,17828,2,0,P|353:156|283:150,1,115,6|2,3:2|3:2,0:0:0:0:
264,113,18428,1,10,0:0:0:0:
264,113,18628,2,0,P|255:64|240:4,2,86.25,6|8|8,3:2|0:0|0:0,0:0:0:0:
296,154,19428,2,0,L|276:269,1,115,6|0,3:2|3:0,0:0:0:0:
300,319,20028,1,8,0:0:0:0:
196,369,20428,6,0,P|141:363|61:357,1,115,6|2,3:2|3:2,0:0:0:0:
44,249,21228,2,0,P|99:243|179:237,1,115,0|2,3:2|3:2,0:0:0:0:
245,163,22028,1,2,3:2:0:0:
200,56,22428,1,2,3:2:0:0:
307,16,22828,2,0,P|370:20|409:51,1,115,0|2,3:0|3:2,0:0:0:0:
460,87,23428,1,2,0:0:0:0:
460,87,23628,6,0,P|448:138|435:209,1,115,2|0,3:2|3:0,0:0:0:0:
495,298,24428,2,0,P|443:286|373:273,1,115,2|2,3:2|3:2,0:0:0:0:
330,264,25028,1,2,0:0:0:0:
330,264,25228,2,0,P|339:224|336:168,2,86.25,2|2|2,3:2|0:0|0:0,0:0:0:0:
295,309,26028,2,0,P|238:283|162:292,1,115,0|2,3:0|3:2,0:0:0:0:
88,344,26828,5,2,3:2:0:0:
10,258,27228,1,2,3:2:0:0:
70,160,27628,2,0,P|134:167|206:179,1,115,2|0,3:2|3:2,0:0:0:0:
231,141,28228,1,2,0:0:0:0:
231,141,28428,2,0,P|213:83|261:37,1,115,0|2,3:2|3:2,0:0:0:0:
353,71,29228,2,0,L|367:185,1,115,0|0,3:2|3:0,0:0:0:0:
430,281,30028,6,0,L|502:272,2,57.5,2|2|2,3:2|0:0|3:2,0:0:0:0:
395,328,30628,1,2,0:0:0:0:
395,328,30828,2,0,P|328:303|268:313,1,115,2|0,3:2|3:2,0:0:0:0:
189,370,31628,2,0,P|197:310|208:250,1,115,2|0,3:2|3:0,0:0:0:0:
254,222,32228,1,2,0:0:0:0:
254,222,32428,2,0,P|256:190|242:162,1,57.5,2|2,3:2|0:0,0:0:0:0:
195,138,32828,1,8,0:0:0:0:
123,47,33228,6,0,P|183:43|250:36,1,115,6|10,3:2|0:0,0:0:0:0:
347,5,34028,2,0,P|373:52|340:118,1,115,0|10,3:0|0:0,0:0:0:0:
309,140,34628,1,2,0:0:0:0:
309,140,34828,2,0,P|259:137|193:138,1,115,2|10,3:2|0:0,0:0:0:0:
80,119,35628,2,0,P|86:147|93:193,1,57.5,2|0,3:2|0:0,0:0:0:0:
136,211,36028,2,0,P|129:239|123:285,1,57.5,10|2,0:0|0:0,0:0:0:0:
96,317,36428,6,0,P|150:312|220:307,1,115,2|8,3:2|0:0,0:0:0:0:
301,378,37228,2,0,P|354:358|359:289,1,115,2|10,3:2|0:0,0:0:0:0:
397,258,37828,1,2,0:0:0:0:
397,258,38028,2,0,P|385:201|375:144,1,115,2|10,3:2|0:0,0:0:0:0:
294,62,38828,2,0,P|302:31|309:-1,2,57.5,0|8|8,3:0|0:0|0:0,0:0:0:0:
279,116,39428,1,0,3:0:0:0:
279,116,39628,6,0,B|217:123|217:123|152:95,1,115,4|10,3:2|0:0,0:0:0:0:
133,56,40228,1,6,3:2:0:0:
33,110,40628,1,2,3:2:0:0:
33,110,40828,2,0,P|39:142|44:177,1,57.5,10|2,0:0|3:2,0:0:0:0:
9,220,41228,2,0,B|58:191|58:191|130:201,1,115,6|8,3:2|0:0,0:0:0:0:
169,218,41828,1,6,3:2:0:0:
204,332,42228,1,2,3:2:0:0:
204,332,42428,2,0,L|281:312,1,57.5,10|2,0:0|0:0,0:0:0:0:
306,283,42828,6,0,P|339:321|408:319,1,115,4|10,3:2|0:0,0:0:0:0:
451,295,43428,1,2,3:2:0:0:
410,189,43828,2,0,L|417:124,1,57.5,2|10,3:2|0:0,0:0:0:0:
436,80,44228,1,2,3:2:0:0:
436,80,44428,6,0,P|389:92|338:101,1,86.25,6|6,3:2|3:2,0:0:0:0:
282,149,45028,2,0,P|242:104|117:111,1,172.5,6|8,3:2|0:3,0:0:0:0:
82,181,46028,6,0,P|75:105|67:25,2,146.62500279665,4|0|10,3:2|3:0|0:0,0:0:0:0:
81,233,47428,1,2,3:2:0:0:
81,233,47628,2,0,P|64:265|62:303,1,73.312501398325,2|2,3:0|3:2,0:0:0:0:
110,356,48228,2,0,P|173:341|263:335,1,146.62500279665,2|10,3:2|0:0,0:0:0:0:
317,259,49228,6,0,P|379:302|446:273,2,146.62500279665,0|0|10,3:0|3:0|0:0,0:0:0:0:
295,215,50628,1,0,3:2:0:0:
295,215,50828,2,0,P|303:170|307:126,1,73.312501398325,2|2,3:2|3:2,0:0:0:0:
329,73,51428,2,0,P|278:39|206:73,1,146.62500279665,2|14,3:2|0:0,0:0:0:0:
210,186,52428,5,6,3:2:0:0:
224,271,52728,2,0,P|173:281|121:263,1,86.25,2|2,3:2|3:2,0:0:0:0:
89,245,53228,2,0,P|100:287|104:336,2,86.25,6|2|2,3:2|3:2|0:0,0:0:0:0:
46,206,54028,5,6,3:2:0:0:
113,152,54328,2,0,P|117:104|123:52,1,86.25,2|2,3:2|3:2,0:0:0:0:
155,19,54828,2,0,P|185:18|221:32,1,57.5,2|2,3:2|3:2,0:0:0:0:
259,57,55228,1,8,0:0:0:0:
365,13,55628,6,0,L|356:132,1,115,6|8,3:2|0:0,0:0:0:0:
411,158,56228,1,0,0:0:0:0:
411,158,56428,2,0,P|434:215|399:275,1,115,6|8,3:2|0:0,0:0:0:0:
374,302,57028,2,0,P|316:295|254:294,1,115,6|10,3:2|0:0,0:0:0:0:
202,305,57628,1,2,0:0:0:0:
97,257,58028,2,0,P|87:293|101:350,2,86.25,10|10|10,0:0|0:0|0:0,0:0:0:0:
123,206,58828,5,4,3:2:0:0:
117,91,59228,2,0,L|182:103,1,57.5,10|2,0:0|3:2,0:0:0:0:
232,121,59628,1,2,0:0:0:0:
232,121,59828,2,0,L|221:202,2,57.5,2|10|2,3:2|0:0|3:2,0:0:0:0:
256,68,60428,1,2,3:2:0:0:
350,132,60828,2,0,P|380:122|414:113,1,57.5,10|2,0:0|3:2,0:0:0:0:
462,111,61228,2,0,P|467:67|421:11,1,115,2|10,0:0|0:0,0:0:0:0:
317,52,62028,5,2,3:2:0:0:
245,155,62428,2,0,P|251:189|256:228,1,57.5,10|2,0:0|3:2,0:0:0:0:
304,242,62828,2,0,P|296:301|291:370,1,115,2|10,0:0|0:0,0:0:0:0:
242,380,63428,1,2,3:2:0:0:
242,380,63628,2,0,P|193:371|154:347,1,86.25,6|6,3:2|3:2,0:0:0:0:
75,358,64228,2,0,P|116:302|121:242,1,115,6|0,3:2|3:0,0:0:0:0:
112,201,64828,1,10,0:0:0:0:
67,94,65228,6,0,P|122:100|191:103,1,115,6|8,3:2|0:0,0:0:0:0:
264,23,66028,2,0,P|329:12|374:56,1,115,2|10,3:2|0:0,0:0:0:0:
403,90,66628,1,2,0:0:0:0:
403,90,66828,2,0,P|396:144|390:216,1,115,2|8,3:2|0:0,0:0:0:0:
432,243,67428,2,0,P|379:213|326:224,1,115,2|2,3:2|3:2,0:0:0:0:
283,259,68028,1,8,0:0:0:0:
249,369,68428,6,0,P|194:364|120:358,1,115,6|8,3:2|0:0,0:0:0:0:
85,338,69028,1,2,0:0:0:0:
85,338,69228,2,0,L|79:265,1,57.5,2|2,3:2|3:2,0:0:0:0:
121,241,69628,1,10,0:0:0:0:
58,144,70028,2,0,L|2:161,2,57.5,4|8|8,3:2|0:0|0:0,0:0:0:0:
100,105,70628,1,8,0:3:0:0:
100,105,70828,2,0,L|111:210,2,86.25,2|2|2,0:0|0:0|0:0,0:0:0:0:
118,50,71628,5,6,3:2:0:0:
206,122,72028,2,0,P|240:114|271:108,1,57.5,10|2,0:0|3:2,0:0:0:0:
303,69,72428,1,2,0:0:0:0:
303,69,72628,2,0,L|293:4,2,57.5,2|10|2,3:2|0:0|3:2,0:0:0:0:
354,95,73228,1,2,3:2:0:0:
457,43,73628,2,0,L|456:111,1,57.5,10|2,0:0|3:2,0:0:0:0:
426,149,74028,2,0,P|471:175|489:236,1,115,2|10,0:0|0:0,0:0:0:0:
456,342,74828,5,2,3:2:0:0:
341,352,75228,2,0,P|308:345|259:334,1,57.5,10|2,0:0|3:2,0:0:0:0:
230,321,75628,2,0,L|231:195,1,115,2|10,0:0|0:0,0:0:0:0:
260,158,76228,1,2,3:2:0:0:
260,158,76428,2,0,P|217:164|176:178,1,86.25,6|6,3:2|3:2,0:0:0:0:
111,234,77028,2,0,P|53:212|50:149,1,115,6|0,3:2|3:0,0:0:0:0:
53,107,77628,1,10,0:0:0:0:
132,29,78028,6,0,P|198:34|269:38,1,115,6|8,3:2|0:0,0:0:0:0:
344,98,78828,1,2,3:2:0:0:
454,66,79228,2,0,L|463:130,1,57.5,10|0,0:0|3:0,0:0:0:0:
496,169,79628,2,0,P|489:225|482:287,1,115,2|10,3:2|0:0,0:0:0:0:
450,331,80228,2,0,P|394:329|351:287,1,115,2|2,3:2|3:2,0:0:0:0:
333,235,80828,1,8,0:0:0:0:
221,263,81228,6,0,P|217:321|213:382,1,115,6|8,3:2|0:0,0:0:0:0:
98,380,82028,2,0,P|94:322|90:265,1,115,2|8,3:2|0:0,0:0:0:0:
39,251,82628,1,2,3:2:0:0:
39,251,82828,2,0,P|79:235|121:226,1,86.25,6|6,3:2|3:2,0:0:0:0:
207,225,83428,2,0,P|117:210|93:136,1,172.5,6|8,3:2|0:0,0:0:0:0:
116,91,84228,1,2,0:0:0:0:
116,91,84428,6,0,P|173:101|240:105,1,115,6|8,3:2|0:0,0:0:0:0:
285,83,85028,1,2,3:2:0:0:
285,83,85228,1,2,3:2:0:0:
397,108,85628,2,0,L|399:167,1,57.5,8|8,0:0|0:3,0:0:0:0:
373,216,86028,1,4,0:3:0:0:
443,306,86428,6,0,B|387:279|300:295|381:379|291:386|230:356,1,230,6|2,3:2|0:0,0:0:0:0:
130,374,87628,6,0,P|126:334|114:282,1,86.25,4|0,3:2|3:0,0:0:0:0:
62,228,88228,1,2,3:2:0:0:
62,228,88428,2,0,P|33:239|8:249,2,57.5,2|0|8,0:0|3:0|0:0,0:0:0:0:
104,189,89028,2,0,P|85:131|130:73,1,115,6|2,3:2|3:2,0:0:0:0:
159,55,89628,1,8,0:0:0:0:
159,55,89828,2,0,P|215:62|283:67,1,115,2|2,3:2|3:2,0:0:0:0:
323,38,90428,1,8,0:0:0:0:
425,90,90828,6,0,P|421:130|416:190,1,86.25,6|2,3:2|3:2,0:0:0:0:
478,236,91428,2,0,P|424:235|352:276,1,115,2|2,3:2|3:2,0:0:0:0:
322,293,92028,1,8,0:0:0:0:
217,341,92428,2,0,P|215:284|211:216,1,115,0|10,3:0|0:0,0:0:0:0:
253,186,93028,1,0,3:0:0:0:
253,186,93228,2,0,P|280:193|309:195,2,57.5,2|2|10,0:0|3:2|0:0,0:0:0:0:
176,100,94028,6,0,P|129:102|93:137,1,86.25,6|6,3:2|3:2,0:0:0:0:
51,197,94628,2,0,P|55:137|39:68,1,115,6|8,3:2|0:0,0:0:0:0:
21,36,95228,1,2,3:2:0:0:
21,36,95428,1,6,3:2:0:0:
256,192,95528,12,0,98828,0:0:0:0:
