osu file format v14

[General]
AudioFilename: audio.mp3
AudioLeadIn: 0
PreviewTime: 58883
Countdown: 0
SampleSet: Soft
StackLeniency: 0.3
Mode: 0
LetterboxInBreaks: 0
WidescreenStoryboard: 1

[Editor]
Bookmarks: 20483,33283,52483,55683,71683
DistanceSpacing: 1.1
BeatDivisor: 4
GridSize: 4
TimelineZoom: 2.699998

[Metadata]
Title:World End
TitleUnicode:ワールドエンド
Artist:Sasaki Sayaka
ArtistUnicode:佐咲紗花
Creator:Shocko
Version:Irohas' Insane
Source:グリザイアの迷宮 -LE LABYRINTHE DE LA GRISAIA-
Tags:Grisaia no Meikyuu LE LABYRINTHE DE LA GRISAIA Visual Novel Video Game Short Version Opening Japanese Frontwing Hazu- Irohas
BeatmapID:2348566
BeatmapSetID:964002

[Difficulty]
HPDrainRate:6
CircleSize:4.1
OverallDifficulty:7
ApproachRate:8.7
SliderMultiplier:1.6
SliderTickRate:1

[Events]
//Background and Video events
0,0,"irohascute.jpg",0,0
Video,-153,"op.mp4"
//Break Periods
//Storyboard Layer 0 (Background)
//Storyboard Layer 1 (Fail)
//Storyboard Layer 2 (Pass)
//Storyboard Layer 3 (Foreground)
//Storyboard Layer 4 (Overlay)
//Storyboard Sound Samples

[TimingPoints]
1228,400,4,2,1,70,1,0
1228,-125,4,2,1,15,0,0
4428,-125,4,2,1,30,0,0
6628,-55.5555555555556,4,2,1,50,0,0
6828,-100,4,2,1,50,0,0
7128,-100,4,2,1,5,0,0
7228,-83.3333333333333,4,2,2,70,0,0
7428,-83.3333333333333,4,2,2,5,0,0
7628,-111.111111111111,4,2,1,70,0,0
12361,-111.111111111111,4,2,1,5,0,0
12428,-83.3333333333333,4,2,1,70,0,0
13428,-111.111111111111,4,2,1,70,0,0
13628,-117.647058823529,4,2,1,70,0,0
13928,-117.647058823529,4,2,1,5,0,0
14028,-111.111111111111,4,2,1,70,0,0
17128,-111.111111111111,4,2,1,5,0,0
17228,-111.111111111111,4,2,1,70,0,0
20428,-125,4,2,1,40,0,0
20528,-125,4,2,2,40,0,0
25128,-125,4,2,2,5,0,0
25228,-125,4,2,2,40,0,0
25828,-125,4,2,2,40,0,0
32428,-125,4,2,1,40,0,0
32828,-83.3333333333333,4,2,1,70,0,0
33228,-111.111111111111,4,2,1,60,0,0
33428,-76.9230769230769,4,2,1,60,0,0
33528,-76.9230769230769,4,2,1,5,0,0
33628,-111.111111111111,4,2,1,60,0,0
35828,-111.111111111111,4,2,1,60,0,0
39628,-100,4,2,1,70,0,0
42828,-111.111111111111,4,2,1,70,0,0
44428,-83.3333333333333,4,2,1,70,0,0
44528,-83.3333333333333,4,2,1,5,0,0
44728,-83.3333333333333,4,2,1,70,0,0
44828,-83.3333333333333,4,2,1,70,0,0
45028,-83.3333333333333,4,2,1,70,0,0
46028,-142.857142857143,4,2,1,45,0,0
51828,-125,4,2,1,50,0,0
52428,-66.6666666666667,4,2,1,70,0,0
52628,-66.6666666666667,4,2,1,5,0,0
52728,-66.6666666666667,4,2,1,70,0,0
54028,-66.6666666666667,4,2,1,70,0,0
54228,-66.6666666666667,4,2,1,5,0,0
54328,-66.6666666666667,4,2,1,70,0,0
55028,-66.6666666666667,4,2,1,5,0,0
55128,-66.6666666666667,4,2,1,70,0,0
55328,-66.6666666666667,4,2,1,5,0,0
55428,-66.6666666666667,4,2,1,70,0,0
55628,-105.263157894737,4,2,1,60,0,0
56428,-58.8235294117647,4,2,1,60,0,0
56628,-58.8235294117647,4,2,1,5,0,0
56728,-58.8235294117647,4,2,1,60,0,0
56928,-58.8235294117647,4,2,1,5,0,0
57028,-90.9090909090909,4,2,1,70,0,0
58328,-83.3333333333333,4,2,1,70,0,0
58628,-66.6666666666667,4,2,1,70,0,0
58828,-100,4,2,1,70,0,1
60428,-90.9090909090909,4,2,1,70,0,1
63628,-66.6666666666667,4,2,1,70,0,1
65828,-100,4,2,1,70,0,1
70028,-100,4,2,1,70,0,1
70828,-66.6666666666667,4,2,1,70,0,1
71028,-66.6666666666667,4,2,1,5,0,1
71128,-66.6666666666667,4,2,1,70,0,1
71328,-66.6666666666667,4,2,1,5,0,1
71428,-66.6666666666667,4,2,1,70,0,1
71628,-100,4,2,1,70,0,1
72328,-90.9090909090909,4,2,1,70,0,1
72828,-100,4,2,1,70,0,1
73228,-90.9090909090909,4,2,1,70,0,1
74828,-100,4,2,1,70,0,1
76428,-66.6666666666667,4,2,1,70,0,1
76628,-66.6666666666667,4,2,1,5,0,1
76728,-66.6666666666667,4,2,1,70,0,1
76928,-66.6666666666667,4,2,1,5,0,1
77028,-76.9230769230769,4,2,1,70,0,1
78828,-100,4,2,1,70,0,1
81228,-100,4,2,1,70,0,1
82428,-83.3333333333333,4,2,1,70,0,1
82828,-100,4,2,1,70,0,1
82878,-100,4,2,1,5,0,1
83128,-100,4,2,1,70,0,1
83178,-100,4,2,1,5,0,1
83428,-66.6666666666667,4,2,1,70,0,1
84628,-100,4,2,1,70,0,1
85428,-66.6666666666667,4,2,1,70,0,1
86028,-100,4,2,1,70,0,0
86428,-133.333333333333,4,2,1,70,0,0
87628,-125,4,2,1,50,0,0
89028,-111.111111111111,4,2,1,70,0,0
89728,-111.111111111111,4,2,1,5,0,0
89828,-100,4,2,1,70,0,0
90128,-100,4,2,1,5,0,0
90228,-100,4,2,1,70,0,0
90728,-100,4,2,1,5,0,0
90828,-100,4,2,1,70,0,0
94028,-71.4285714285714,4,2,1,70,0,0
94228,-71.4285714285714,4,2,1,5,0,0
94328,-71.4285714285714,4,2,1,70,0,0
94528,-71.4285714285714,4,2,1,5,0,0
94628,-100,4,2,1,70,0,0
95428,-217.391304347826,4,2,1,70,0,0

[Colours]
Combo1 : 255,192,176
Combo2 : 211,255,172
Combo3 : 124,254,211
Combo4 : 255,198,202

[HitObjects]
82,164,1228,6,0,L|71:235,1,64,2|2,0:0|0:0,0:0:0:0:
1,287,1628,1,2,0:0:0:0:
69,345,1828,2,0,L|103:339,3,21.3333333333333,2|2|2|2,0:0|0:0|0:0|0:0,0:0:0:0:
155,271,2228,6,0,L|233:284,1,64,2|2,0:0|0:0,0:0:0:0:
287,336,2628,2,0,L|365:323,1,64,2|2,0:0|0:0,0:0:0:0:
439,372,3028,2,0,P|443:340|453:305,1,64,2|2,0:0|0:0,0:0:0:0:
371,242,3428,6,0,P|410:208|497:220,1,128,2|2,0:0|0:0,0:0:0:0:
280,329,4028,1,2,0:0:0:0:
256,241,4228,1,2,0:0:0:0:
235,155,4428,5,2,0:0:0:0:
315,82,4628,1,2,0:0:0:0:
311,99,4828,1,2,0:0:0:0:
235,155,5028,2,0,P|181:189|116:175,1,128,2|2,0:0|0:0,0:0:0:0:
42,132,5628,1,2,0:0:0:0:
85,293,5828,1,2,0:0:0:0:
14,237,6228,6,0,L|18:219,9,10.6666666666667,2|2|2|2|2|2|2|2|2|2,0:0|0:0|0:0|0:0|0:0|0:0|0:0|0:0|0:0|0:0,0:0:0:0:
85,293,6628,6,0,L|134:284,3,35.9999989013672,2|0|0|0,0:0|0:0|0:0|0:0,0:0:0:0:
178,224,6828,6,0,P|171:266|155:358,1,120,2|0,3:2|0:0,0:0:0:0:
252,384,7228,6,0,B|271:356|271:356|253:284,1,95.9999970703126,14|0,0:2|0:0,0:0:0:0:
100,162,7628,5,4,3:2:0:0:
191,109,7828,1,2,0:0:0:0:
191,109,7928,1,0,0:0:0:0:
191,109,8028,2,0,P|197:78|205:32,1,71.9999978027344,10|2,0:0|3:2,0:0:0:0:
100,162,8428,1,0,0:0:0:0:
197,217,8628,2,0,P|240:210|283:203,1,71.9999978027344,2|10,3:2|0:0,0:0:0:0:
432,379,9028,1,2,0:0:0:0:
504,323,9228,6,0,P|461:293|369:300,1,143.999995605469,2|8,3:2|0:0,0:0:0:0:
456,121,9828,1,2,3:2:0:0:
456,121,9928,1,2,0:0:0:0:
456,121,10028,2,0,P|464:161|472:202,1,71.9999978027344,2|0,0:0|3:0,0:0:0:0:
335,112,10428,1,8,0:0:0:0:
496,24,10628,1,0,3:0:0:0:
394,181,10828,6,0,B|335:163|335:163|299:200|253:192,1,143.999995605469,0|10,3:0|0:0,0:0:0:0:
132,142,11428,1,2,3:2:0:0:
132,139,11528,1,2,0:0:0:0:
133,135,11628,2,0,P|173:127|216:120,1,71.9999978027344,0|2,0:0|3:2,0:0:0:0:
49,235,12028,1,10,0:0:0:0:
147,317,12228,2,0,P|152:288|142:256,1,47.9999985351563,2|0,0:0|0:0,0:0:0:0:
148,270,12428,6,0,P|99:280|-1:298,1,143.999995605469,6|6,3:2|3:2,0:0:0:0:
49,235,12828,1,8,0:0:0:0:
226,354,13028,6,0,P|275:312|361:327,1,143.999995605469,6|8,3:2|0:0,0:0:0:0:
429,265,13428,1,0,3:0:0:0:
349,128,13628,6,0,L|332:233,1,102.000001945496,10|0,0:0|1:0,0:0:0:0:
429,265,14028,5,6,3:2:0:0:
241,191,14228,1,2,0:0:0:0:
241,194,14328,1,0,3:2:0:0:
240,198,14428,2,0,L|161:214,1,71.9999978027344,8|2,0:0|3:2,0:0:0:0:
48,150,14828,1,2,0:0:0:0:
69,144,14928,1,10,0:0:0:0:
93,140,15028,1,2,3:2:0:0:
92,245,15228,5,10,0:0:0:0:
40,50,15428,1,2,3:2:0:0:
206,130,15628,1,0,3:0:0:0:
291,190,15828,5,2,0:0:0:0:
291,190,15928,1,2,3:2:0:0:
291,190,16028,2,0,L|305:113,1,71.9999978027344,10|2,0:0|3:2,0:0:0:0:
206,130,16428,1,0,0:0:0:0:
395,195,16628,1,2,3:2:0:0:
268,292,16828,2,0,P|215:315|160:305,1,107.999996704102,8|0,0:0|0:0,0:0:0:0:
106,251,17228,6,0,P|114:213|123:166,2,71.9999978027344,6|2|10,3:2|3:2|0:0,0:0:0:0:
11,347,17828,2,0,P|-16:312|19:215,1,143.999995605469,6|2,3:2|3:2,0:0:0:0:
211,90,18428,1,10,0:0:0:0:
134,12,18628,2,4,P|126:60|109:165,1,143.999995605469,6|0,3:2|3:0,0:0:0:0:
8,222,19228,1,8,0:0:0:0:
135,297,19428,6,0,B|241:273|231:362|353:329,1,215.999993408203,6|8,3:2|0:0,0:0:0:0:
425,283,20228,5,4,0:3:0:0:
425,283,20328,1,4,0:3:0:0:
425,283,20428,2,0,L|442:208,1,64,4|0,3:2|0:0,0:0:0:0:
455,75,20828,1,2,3:2:0:0:
509,156,21028,2,0,P|475:128|390:131,1,128,2|2,0:0|0:0,0:0:0:0:
303,88,21628,1,2,3:2:0:0:
332,203,21828,1,2,0:0:0:0:
241,166,22028,6,0,P|204:173|105:192,1,128,2|2,3:2|3:2,0:0:0:0:
24,109,22628,1,2,0:0:0:0:
24,106,22728,1,2,0:0:0:0:
25,102,22828,2,0,P|58:109|102:117,1,64,2|2,3:2|0:0,0:0:0:0:
12,253,23228,2,0,L|-3:177,1,64,2|0,3:2|0:0,0:0:0:0:
88,333,23628,5,2,3:2:0:0:
109,238,23828,1,0,0:0:0:0:
88,333,24028,1,0,3:0:0:0:
109,238,24228,1,0,0:0:0:0:
189,336,24428,6,0,P|230:347|298:293,1,128,0|0,3:0|3:0,0:0:0:0:
390,255,25028,2,0,L|432:265,1,32,2|0,0:0|1:0,0:0:0:0:
422,263,25228,6,0,P|412:211|397:127,1,128,2|0,3:2|3:0,0:0:0:0:
480,0,25828,2,0,B|523:34|523:34|493:116,1,128,2|0,0:0|0:0,0:0:0:0:
398,137,26428,2,0,L|333:126,1,64,2|0,3:2|0:0,0:0:0:0:
171,49,26828,1,2,3:2:0:0:
263,23,27028,2,0,L|248:93,1,64,2|0,0:0|3:0,0:0:0:0:
173,154,27428,5,2,0:0:0:0:
173,154,27528,1,2,0:0:0:0:
173,154,27628,2,0,P|129:143|103:143,1,64,2|2,3:2|0:0,0:0:0:0:
0,57,28028,2,0,P|31:54|62:45,1,64,2|0,3:2|0:0,0:0:0:0:
266,180,28428,6,0,P|336:170|400:161,1,128,2|2,3:2|3:2,0:0:0:0:
512,241,29028,2,0,P|468:274|390:263,1,128,2|0,0:0|0:0,0:0:0:0:
319,197,29628,1,0,3:0:0:0:
255,265,29828,5,2,0:0:0:0:
255,265,29928,1,2,0:0:0:0:
255,265,30028,2,0,L|268:340,1,64,2|2,3:2|0:0,0:0:0:0:
205,381,30328,2,0,B|107:365,1,96,2|2,0:0|0:0,0:0:0:0:
45,317,30728,1,2,0:0:0:0:
38,313,30828,2,0,P|2:321|-33:329,1,64,2|0,3:2|0:0,0:0:0:0:
133,196,31128,1,2,0:0:0:0:
133,196,31228,2,0,L|119:267,1,64,2|0,3:2|0:0,0:0:0:0:
0,114,31628,6,0,P|41:126|115:80,1,128,0|0,3:0|3:0,0:0:0:0:
173,20,32228,1,2,0:0:0:0:
260,67,32428,5,2,3:2:0:0:
282,63,32528,1,2,0:0:0:0:
301,60,32628,1,2,0:0:0:0:
317,57,32728,1,2,3:2:0:0:
338,36,32828,6,0,L|328:-15,1,47.9999985351563,8|0,0:0|0:0,0:0:0:0:
463,90,33028,2,0,L|473:39,1,47.9999985351563,0|10,3:0|0:0,0:0:0:0:
371,132,33228,1,6,3:2:0:0:
490,352,33428,6,0,P|492:321|501:297,1,51.999997619629,2|0,0:0|0:0,0:0:0:0:
498,301,33628,6,0,L|483:224,1,71.9999978027344,10|2,0:0|0:0,0:0:0:0:
376,297,33928,1,2,0:0:0:0:
381,304,34028,2,0,L|366:381,1,71.9999978027344,2|0,3:2|0:0,0:0:0:0:
268,231,34428,1,10,0:0:0:0:
373,174,34628,1,2,0:0:0:0:
371,182,34728,1,2,0:0:0:0:
369,191,34828,1,2,3:2:0:0:
177,281,35028,1,0,0:0:0:0:
256,384,35228,6,0,B|266:369|266:369|267:313,1,71.9999978027344,10|2,0:0|0:0,0:0:0:0:
163,210,35528,2,0,L|178:289,1,71.9999978027344,2|0,0:0|0:0,0:0:0:0:
108,339,35828,5,2,0:0:0:0:
268,231,36028,1,10,0:0:0:0:
112,114,36228,1,2,0:0:0:0:
219,11,36428,6,0,P|213:53|196:171,1,143.999995605469,2|8,3:2|0:0,0:0:0:0:
268,231,37028,1,0,0:0:0:0:
268,231,37128,1,8,0:0:0:0:
268,231,37228,2,0,L|348:220,1,71.9999978027344,2|0,3:2|0:0,0:0:0:0:
432,263,37528,2,0,P|445:222|440:189,1,71.9999978027344,2|0,0:0|0:0,0:0:0:0:
381,125,37828,1,2,0:0:0:0:
492,362,38028,6,0,P|464:317|375:311,1,143.999995605469,0|10,3:0|0:0,0:0:0:0:
295,348,38628,2,0,L|211:335,1,71.9999978027344,2|0,0:0|3:0,0:0:0:0:
135,298,39028,1,4,3:2:0:0:
132,302,39128,1,0,0:0:0:0:
129,306,39228,2,0,L|140:353,1,35.9999989013672,8|8,0:0|0:0,0:0:0:0:
69,383,39428,1,0,3:3:0:0:
28,270,39628,5,4,3:2:0:0:
42,185,39828,1,2,0:0:0:0:
59,97,40028,1,10,0:0:0:0:
170,36,40228,6,0,P|219:26|296:95,1,160,6|2,3:2|3:2,0:0:0:0:
445,173,40828,1,10,0:0:0:0:
393,53,41028,1,2,3:2:0:0:
303,183,41228,6,0,L|175:165,1,120,6|2,3:2|3:2,0:0:0:0:
127,115,41628,1,8,0:0:0:0:
0,303,41828,6,0,B|42:264|85:265|85:265|105:293|145:292,1,160,6|2,3:2|3:2,0:0:0:0:
243,251,42428,2,0,L|226:343,1,80,10|0,0:0|0:0,0:0:0:0:
154,197,42828,5,4,3:2:0:0:
356,285,43028,1,0,0:0:0:0:
356,285,43128,1,0,3:0:0:0:
356,285,43228,2,0,L|435:273,1,71.9999978027344,10|2,0:0|3:2,0:0:0:0:
490,330,43528,2,0,P|455:368|389:358,1,107.999996704102,8|2,0:0|3:2,0:0:0:0:
350,279,44028,1,10,0:0:0:0:
420,119,44228,1,2,3:2:0:0:
345,81,44428,6,0,L|356:26,1,47.9999985351563,6|0,3:2|0:0,0:0:0:0:
167,169,44728,6,0,L|156:114,1,47.9999985351563,6|8,3:2|0:0,0:0:0:0:
290,345,45028,6,0,B|321:223|321:223|253:263,1,191.999994140625,6|8,3:2|0:0,0:0:0:0:
192,299,45528,1,8,0:3:0:0:
192,299,45628,2,8,P|163:292|125:295,1,47.9999985351563,8|8,0:3|0:3,0:0:0:0:
42,224,45828,2,8,P|65:222|89:216,1,47.9999985351563,4|4,0:3|0:3,0:0:0:0:
167,169,46028,5,4,3:2:0:0:
167,169,46228,2,0,P|171:137|177:113,1,55.9999982910157
121,47,46628,1,0,3:0:0:0:
121,47,46728,2,0,L|218:32,1,83.9999974365235
301,12,47228,2,0,P|294:46|292:71,1,55.9999982910157,8|0,0:0|3:0,0:0:0:0:
362,127,47628,6,0,P|405:117|452:113,2,83.9999974365235,0|0|0,3:0|3:0|3:0,0:0:0:0:
304,189,48428,2,0,L|310:225,3,27.9999991455078,2|2|2|2,0:0|0:0|0:0|0:0,0:0:0:0:
259,280,48828,1,8,0:0:0:0:
259,280,49028,1,0,0:0:0:0:
333,321,49228,5,0,3:0:0:0:
259,280,49428,2,0,L|81:314,1,167.999994873047,0|0,0:0|0:0,0:0:0:0:
0,277,50228,1,0,0:0:0:0:
29,378,50428,1,8,0:0:0:0:
0,277,50628,1,0,3:0:0:0:
96,310,50828,5,0,3:0:0:0:
96,310,51128,1,0,3:0:0:0:
96,310,51428,1,0,3:0:0:0:
69,210,51628,6,0,L|76:175,3,27.9999991455078,2|2|2|2,0:0|0:0|3:2|0:0,0:0:0:0:
17,107,52028,2,0,P|-5:101|15:115,1,64,12|0,0:0|3:0,0:0:0:0:
74,182,52428,6,0,P|119:193|172:143,1,120.000004577637,6|0,3:2|0:0,0:0:0:0:
230,47,52728,2,0,B|167:62|98:81|98:81|118:65|118:35,1,180.000006866455,6|2,3:2|3:2,0:0:0:0:
338,264,53228,2,0,P|404:252|473:241,1,120.000004577637,6|0,3:2|3:0,0:0:0:0:
512,185,53528,2,0,P|477:133|363:139,1,180.000006866455,6|2,3:2|3:2,0:0:0:0:
220,384,54028,6,0,P|208:327|222:266,1,120.000004577637,6|0,3:2|0:0,0:0:0:0:
172,200,54328,2,0,B|83:184|93:251|-8:234,1,180.000006866455,6|2,3:2|3:2,0:0:0:0:
283,6,54828,2,0,P|273:75|263:142,1,120.000004577637,6|0,3:2|0:0,0:0:0:0:
371,222,55128,2,0,P|390:165|353:105,1,120.000004577637,2|0,3:2|0:0,0:0:0:0:
275,222,55428,2,0,L|261:291,1,60.0000022888184,2|2,3:2|0:0,0:0:0:0:
335,362,55628,6,0,P|390:324|486:337,1,151.999995941162,4|8,3:2|0:0,0:0:0:0:
284,232,56228,1,2,3:2:0:0:
284,232,56328,1,2,0:0:0:0:
284,232,56428,2,0,L|147:261,1,136.000002593994,6|0,3:2|0:0,0:0:0:0:
70,208,56728,6,0,P|121:165|201:176,1,136.000002593994,2|0,3:2|1:0,0:0:0:0:
217,328,57028,2,0,P|163:363|77:339,1,132.00000402832,6|0,3:2|0:0,0:0:0:0:
284,232,57428,6,8,P|344:242|428:255,1,132.00000402832,10|2,0:0|0:0,0:0:0:0:
490,314,57828,5,10,0:0:0:0:
494,310,57928,1,10,0:0:0:0:
497,305,58028,2,0,B|520:269|520:269|505:206,1,88.000002685547,10|0,0:0|0:0,0:0:0:0:
352,130,58328,2,0,B|328:171|328:171|342:224,1,95.9999970703126,10|0,0:0|0:0,0:0:0:0:
457,140,58628,2,0,L|475:75,1,60.0000022888184,10|0,0:0|0:0,0:0:0:0:
387,17,58828,5,4,3:2:0:0:
362,42,59028,1,2,0:0:0:0:
359,45,59128,1,2,3:2:0:0:
356,48,59228,2,0,L|268:35,1,80,10|2,0:0|3:2,0:0:0:0:
182,0,59528,2,0,P|190:45|205:125,1,120,2|2,0:0|3:2,0:0:0:0:
145,182,59928,1,2,0:0:0:0:
144,188,60028,1,10,0:0:0:0:
302,271,60228,1,2,3:2:0:0:
192,379,60428,6,0,B|177:341|177:341|198:283,1,88.000002685547,2|0,3:2|0:0,0:0:0:0:
432,199,60828,2,0,B|447:237|447:237|426:295,1,88.000002685547,10|0,0:0|3:0,0:0:0:0:
295,140,61228,2,0,L|314:43,1,88.000002685547,2|0,0:0|3:0,0:0:0:0:
397,110,61628,1,10,0:0:0:0:
188,213,61828,1,0,0:0:0:0:
329,362,62028,5,0,3:0:0:0:
351,348,62228,1,2,0:0:0:0:
354,346,62328,1,2,3:2:0:0:
357,344,62428,2,0,P|370:302|356:259,1,88.000002685547,10|2,0:0|3:2,0:0:0:0:
269,242,62728,2,0,L|135:273,1,132.00000402832,2|2,0:0|3:2,0:0:0:0:
70,217,63228,1,10,0:0:0:0:
205,78,63428,1,2,3:2:0:0:
128,0,63628,6,0,P|92:40|103:110,1,120.000004577637,6|0,3:2|0:0,0:0:0:0:
187,170,63928,2,0,P|257:159|317:149,1,120.000004577637,6|0,3:2|0:0,0:0:0:0:
467,95,64228,2,0,B|379:64|379:64|419:219,1,240.000009155274,6|0,3:2|3:0,0:0:0:0:
332,293,64728,1,2,0:0:0:0:
327,286,64828,2,0,L|344:203,2,60.0000022888184,10|0|0,0:0|0:0|0:0,0:0:0:0:
424,359,65228,5,6,3:2:0:0:
229,270,65428,1,2,0:0:0:0:
410,179,65628,1,10,0:0:0:0:
250,372,65828,2,0,B|205:332|150:340|150:340|125:365|88:358,1,160,2|2,0:0|3:2,0:0:0:0:
30,306,66428,1,10,0:0:0:0:
160,223,66628,1,2,0:0:0:0:
79,151,66828,6,0,P|26:162|-15:171,1,80,2|0,3:2|3:0,0:0:0:0:
156,81,67128,1,2,3:2:0:0:
162,76,67228,2,0,P|206:83|252:91,1,80,10|0,0:0|3:0,0:0:0:0:
323,46,67528,1,2,0:0:0:0:
324,39,67628,2,0,L|315:-9,2,40,2|10|2,0:0|0:0|3:2,0:0:0:0:
403,105,68028,1,8,0:0:0:0:
280,195,68228,1,2,0:0:0:0:
389,270,68428,6,0,P|436:292|516:262,1,120,6|2,3:2|0:0,0:0:0:0:
448,202,68828,1,8,0:0:0:0:
338,356,69028,1,2,0:0:0:0:
335,355,69128,1,10,0:0:0:0:
331,352,69228,2,0,P|282:345|239:347,1,80,2|2,0:0|3:2,0:0:0:0:
86,191,69628,1,10,0:0:0:0:
260,262,69828,1,2,3:2:0:0:
91,380,70028,1,4,3:2:0:0:
156,290,70228,5,8,0:0:0:0:
154,281,70328,1,4,3:2:0:0:
152,270,70428,1,8,0:0:0:0:
45,116,70628,1,8,0:3:0:0:
47,107,70728,1,0,0:0:0:0:
26,89,70828,6,0,P|79:51|140:57,1,120.000004577637,2|0,0:0|0:0,0:0:0:0:
161,198,71128,2,0,P|103:229|43:215,1,120.000004577637,2|0,0:0|0:0,0:0:0:0:
240,120,71428,2,0,L|306:129,1,60.0000022888184,4|4,0:3|0:3,0:0:0:0:
430,66,71628,5,4,3:2:0:0:
415,44,71828,1,2,0:0:0:0:
412,41,71928,1,2,3:2:0:0:
409,38,72028,2,0,L|321:51,1,80,10|2,0:0|3:2,0:0:0:0:
406,145,72328,2,0,P|458:154|513:80,1,132.00000402832,2|2,0:0|3:2,0:0:0:0:
340,228,72828,2,0,P|330:273|337:312,1,80,10|2,0:0|3:2,0:0:0:0:
425,370,73228,6,0,P|476:359|525:352,1,88.000002685547,2|0,3:2|0:0,0:0:0:0:
236,256,73628,2,0,P|185:267|137:275,1,88.000002685547,10|0,0:0|3:0,0:0:0:0:
337,161,74028,5,2,0:0:0:0:
298,346,74228,1,0,3:0:0:0:
337,161,74428,1,10,0:0:0:0:
298,346,74628,1,0,0:0:0:0:
149,273,74828,5,0,3:0:0:0:
129,252,75028,1,2,0:0:0:0:
125,249,75128,1,2,3:2:0:0:
122,246,75228,2,0,L|35:266,1,80,10|2,0:0|3:2,0:0:0:0:
0,192,75528,2,0,P|38:148|116:159,1,120,2|2,0:0|3:2,0:0:0:0:
190,56,76028,1,10,0:0:0:0:
157,263,76228,1,2,3:2:0:0:
438,167,76428,6,0,P|370:165|314:149,1,120.000004577637,6|0,3:2|0:0,0:0:0:0:
306,358,76728,2,0,P|367:362|430:376,1,120.000004577637,6|0,3:2|0:0,0:0:0:0:
256,251,77028,2,0,B|148:225|164:314|47:285,1,207.999990478516,6|0,3:2|3:0,0:0:0:0:
9,215,77528,1,2,0:0:0:0:
4,208,77628,2,0,L|19:134,2,51.999997619629,10|0|0,0:0|0:0|0:0,0:0:0:0:
120,149,78028,5,6,3:2:0:0:
0,73,78228,1,0,0:0:0:0:
120,149,78428,1,8,0:0:0:0:
177,87,78628,1,2,0:0:0:0:
177,87,78728,1,10,0:0:0:0:
177,87,78828,2,0,L|163:17,2,40,2|10|2,0:0|0:0|3:2,0:0:0:0:
261,134,79228,5,10,0:2:0:0:
80,67,79428,1,0,3:0:0:0:
168,228,79628,5,2,3:2:0:0:
394,98,79828,1,0,0:0:0:0:
220,22,80028,1,10,0:0:0:0:
336,191,80228,6,0,P|328:230|321:274,1,80,2|0,3:2|0:0,0:0:0:0:
443,383,80628,2,0,P|448:338|421:292,1,80,2|8,3:2|0:0,0:0:0:0:
241,254,81028,5,2,0:0:0:0:
241,254,81128,1,2,0:0:0:0:
241,254,81228,2,0,P|132:278|77:290,1,160,6|8,3:2|0:0,0:0:0:0:
6,235,81828,1,2,0:0:0:0:
29,203,81928,1,10,0:0:0:0:
66,188,82028,1,2,0:0:0:0:
105,194,82128,1,10,0:0:0:0:
128,184,82228,5,2,3:2:0:0:
134,181,82328,1,2,0:0:0:0:
140,177,82428,2,0,L|127:118,1,47.9999985351563,10|0,0:0|0:0,0:0:0:0:
249,206,82628,2,0,L|240:253,1,47.9999985351563,0|8,3:0|0:0,0:0:0:0:
161,361,82828,6,0,L|150:325,1,20,6|0,3:2|0:0,0:0:0:0:
355,172,83128,6,0,L|360:191,1,20,6|0,3:2|0:0,0:0:0:0:
476,384,83428,6,0,B|443:327|368:299|309:341|309:341|335:331|371:336,1,240.000009155274,6|0,3:2|3:0,0:0:0:0:
369,229,84028,1,8,0:0:0:0:
366,216,84128,1,0,0:0:0:0:
363,204,84228,1,2,0:0:0:0:
360,191,84328,1,10,0:0:0:0:
380,159,84428,5,6,3:2:0:0:
428,94,84628,1,2,0:0:0:0:
431,91,84728,1,2,0:0:0:0:
434,88,84828,2,0,P|480:96|520:103,1,80,10|2,0:0|3:2,0:0:0:0:
360,9,85228,5,2,3:2:0:0:
190,175,85428,2,0,P|174:190|195:183,1,60.0000022888184,8|8,0:0|0:0,0:0:0:0:
263,114,85628,5,8,0:0:0:0:
259,98,85728,1,8,0:0:0:0:
274,78,85828,1,4,0:3:0:0:
270,62,85928,1,4,0:3:0:0:
285,34,86028,5,4,0:3:0:0:
0,279,86428,6,0,B|33:402|180:375|202:323|155:264|93:281,1,300.000011444092,6|0,3:2|0:0,0:0:0:0:
101,279,87628,6,0,L|115:203,1,64,6|0,3:2|0:0,0:0:0:0:
206,353,88028,2,0,L|193:290,1,64,0|2,0:0|3:2,0:0:0:0:
285,295,88428,2,0,L|299:219,1,64,2|0,0:0|3:0,0:0:0:0:
377,297,88828,1,8,0:0:0:0:
206,353,89028,1,6,3:2:0:0:
512,160,89428,6,0,P|470:117|414:124,1,107.999996704102,2|0,3:2|0:0,0:0:0:0:
353,86,89828,2,0,L|228:112,1,120,2|0,3:2|0:0,0:0:0:0:
174,166,90228,2,0,P|126:173|59:58,1,200,2|0,3:2|0:0,0:0:0:0:
154,6,90828,6,0,P|148:45|141:84,1,80,6|0,3:2|0:0,0:0:0:0:
283,193,91128,2,0,P|288:151|297:109,1,80,2|0,0:0|0:0,0:0:0:0:
152,181,91428,2,0,L|177:342,1,160,2|2,3:2|3:2,0:0:0:0:
69,288,92028,1,8,0:0:0:0:
265,357,92228,6,4,P|312:320|417:327,1,160,2|0,0:0|0:0,0:0:0:0:
511,213,92728,1,2,3:2:0:0:
507,209,92828,2,0,L|420:225,1,80,10|0,0:0|3:0,0:0:0:0:
488,371,93228,2,0,P|501:333|486:280,1,80,2|2,0:0|3:2,0:0:0:0:
349,200,93528,1,2,0:0:0:0:
347,206,93628,2,0,L|361:290,1,80,10|0,0:0|3:0,0:0:0:0:
512,116,94028,6,0,P|479:79|413:80,1,111.999996582031,6|0,3:2|0:0,0:0:0:0:
344,38,94328,2,0,B|299:47|299:47|292:54|292:54|220:69,1,111.999996582031,6|0,3:2|0:0,0:0:0:0:
147,132,94628,2,0,P|129:101|151:13,1,120,6|0,3:2|0:0,0:0:0:0:
237,65,95028,5,10,0:0:0:0:
33,206,95228,1,2,3:2:0:0:
218,338,95428,6,0,B|265:343|311:300|311:300|364:239|476:236|496:321|380:382|302:347|256:222|267:156|266:22|389:75|366:151|339:198|268:173,1,625.599978999024,6|0,3:2|0:0,0:0:0:0:
