osu file format v14

[General]
AudioFilename: WASTELANDERS.mp3
AudioLeadIn: 1200
PreviewTime: 53607
Countdown: 0
SampleSet: Soft
StackLeniency: 0.7
Mode: 0
LetterboxInBreaks: 0
WidescreenStoryboard: 1

[Editor]
DistanceSpacing: 0.9
BeatDivisor: 2
GridSize: 4
TimelineZoom: 1.8

[Metadata]
Title:WASTELANDERS (TV Size)
TitleUnicode:WASTELANDERS (TV Size)
Artist:Sasaki Sayaka
ArtistUnicode:佐咲紗花
Creator:eINess
Version:Normal
Source:少女たちは荒野を目指す
Tags:Shoujo tachi wa Kouya wo Mezasu Japenese Opening op ~Girls beyond the youth KOYA~ CaffeAmericano Sekai Sekaii Sekai-nyan [_Zzz_] [ Zzz ] Karia lolia
BeatmapID:880187
BeatmapSetID:404770

[Difficulty]
HPDrainRate:4
CircleSize:3.5
OverallDifficulty:4
ApproachRate:5
SliderMultiplier:1.2
SliderTickRate:1

[Events]
//Background and Video events
0,0,"BBB112.jpg",0,0
Video,-350,"video.avi"
//Break Periods
//Storyboard Layer 0 (Background)
//Storyboard Layer 1 (Fail)
//Storyboard Layer 2 (Pass)
//Storyboard Layer 3 (Foreground)
//Storyboard Sound Samples

[TimingPoints]
326,312.5,4,2,2,65,1,0
326,-111.111111111111,4,2,2,65,0,0
7826,-111.111111111111,4,2,1,65,0,0
11576,-111.111111111111,4,2,1,55,0,0
20482,-111.111111111111,4,2,2,55,0,0
20638,-111.111111111111,4,2,1,55,0,0
21107,-111.111111111111,4,2,2,55,0,0
21576,-111.111111111111,4,2,1,65,0,0
31576,-111.111111111111,4,2,1,55,0,0
41576,-111.111111111111,4,2,1,65,0,0
46576,-111.111111111111,4,2,1,75,0,0
50169,-111.111111111111,4,2,2,65,0,0
51107,-111.111111111111,4,2,2,70,0,0
51576,-111.111111111111,4,2,1,75,0,0
53919,-111.111111111111,4,2,1,85,0,1
63763,-111.111111111111,4,2,1,85,0,0
63919,-111.111111111111,4,2,1,85,0,1
74076,-111.111111111111,4,2,1,75,0,0
82982,-111.111111111111,4,2,2,75,0,0
84076,-111.111111111111,4,2,1,85,0,0

[Colours]
Combo1 : 128,64,64
Combo2 : 0,128,128
Combo3 : 255,128,128
Combo4 : 128,0,255

[HitObjects]
144,76,326,5,6,0:0:0:0:
136,172,638,2,0,L|128:292,1,107.999996704102,2|2,0:0|0:0,0:0:0:0:
196,348,1263,1,0,0:0:0:0:
196,348,1419,2,0,P|284:312|364:340,1,161.999995056153,2|2,0:0|0:0,0:0:0:0:
444,332,2201,2,0,P|460:276|444:200,1,107.999996704102,2|0,0:0|0:0,0:0:0:0:
408,140,2826,5,6,0:0:0:0:
312,88,3138,2,0,P|352:44|420:32,2,107.999996704102,2|2|0,0:0|0:0|0:0,0:0:0:0:
284,128,3919,2,0,L|136:120,1,107.999996704102,2|2,0:0|0:0,0:0:0:0:
104,56,4544,1,0,0:0:0:0:
104,56,4701,2,0,P|76:120|108:188,1,107.999996704102,2|2,0:0|0:0,0:0:0:0:
140,236,5326,5,6,0:0:0:0:
80,312,5638,2,0,L|12:308,2,53.9999983520508,2|0|2,0:0|0:0|0:0,0:0:0:0:
164,360,6263,1,0,0:0:0:0:
164,360,6419,2,0,P|260:328|348:340,1,161.999995056153,2|2,0:0|0:0,0:0:0:0:
368,344,7044,1,2,0:0:0:0:
440,280,7357,1,2,0:0:0:0:
440,280,7513,2,0,L|448:212,1,53.9999983520508,2|2,0:0|0:0,0:0:0:0:
432,180,7826,6,0,P|380:136|264:176,1,161.999995056153,4|12,0:0|0:0,0:0:0:0:
224,216,8607,2,0,L|164:204,1,53.9999983520508,2|8,0:0|0:0,0:0:0:0:
124,196,8919,1,6,0:0:0:0:
256,192,9076,12,0,10326,0:0:0:0:
120,60,11576,6,0,L|252:48,1,107.999996704102,6|2,0:0|0:0,0:0:0:0:
320,84,12201,2,0,L|448:96,1,107.999996704102,2|2,0:0|0:0,0:0:0:0:
464,128,12669,1,0,0:0:0:0:
464,128,12826,2,0,P|476:180|467:232,1,107.999996704102,2|2,0:0|0:0,0:0:0:0:
460,328,13451,2,0,P|404:304|368:248,1,107.999996704102,2|8,0:0|0:0,0:0:0:0:
288,228,14076,6,0,P|228:232|148:260,1,107.999996704102,2|2,0:0|0:0,0:0:0:0:
100,296,14701,2,0,L|112:372,2,53.9999983520508,2|0|2,0:0|0:0|0:0,0:0:0:0:
64,264,15169,2,0,L|72:152,1,107.999996704102,0|0,0:0|0:0,0:0:0:0:
36,68,15794,2,0,P|100:44|156:68,1,107.999996704102,0|0,0:0|0:0,0:0:0:0:
180,72,16263,1,8,0:0:0:0:
276,64,16576,6,0,L|408:52,1,107.999996704102,6|2,0:0|0:0,0:0:0:0:
428,140,17201,2,0,L|320:149,1,107.999996704102,2|2,0:0|0:0,0:0:0:0:
248,212,17826,2,0,P|232:280|256:356,1,107.999996704102,2|2,0:0|0:0,0:0:0:0:
268,356,18294,1,0,0:0:0:0:
268,356,18451,2,0,L|112:348,1,107.999996704102,2|8,0:0|0:0,0:0:0:0:
68,324,19076,6,0,L|62:216,1,107.999996704102,2|2,0:0|0:0,0:0:0:0:
60,120,19701,2,0,P|20:128|0:140,2,53.9999983520508,2|0|2,0:0|0:0|0:0,0:0:0:0:
100,96,20169,2,0,L|244:104,1,107.999996704102,6|2,0:0|0:0,0:0:0:0:
244,72,20638,1,2,0:0:0:0:
244,72,20794,2,0,L|384:76,1,107.999996704102,12|2,0:0|0:0,0:0:0:0:
424,204,21576,6,0,L|316:200,1,107.999996704102,6|8,0:0|0:0,0:0:0:0:
284,292,22201,2,0,L|360:296,2,53.9999983520508,2|2|8,0:0|0:0|0:0,0:0:0:0:
244,320,22669,2,0,L|120:328,1,107.999996704102,2|0,0:0|0:0,0:0:0:0:
96,352,23138,1,8,0:0:0:0:
24,288,23451,2,0,P|21:254|24:216,1,53.9999983520508,2|2,0:0|0:0,0:0:0:0:
32,188,23763,1,8,0:0:0:0:
100,116,24076,6,0,L|236:124,1,107.999996704102,2|8,0:0|0:0,0:0:0:0:
288,68,24701,2,0,P|323:57|376:56,1,53.9999983520508,2|2,0:0|0:0,0:0:0:0:
388,60,25013,1,8,0:0:0:0:
432,76,25169,2,0,L|440:220,1,107.999996704102,2|2,0:0|0:0,0:0:0:0:
384,264,25794,1,0,0:0:0:0:
412,304,25951,2,0,P|445:308|484:308,2,53.9999983520508,2|2|8,0:0|0:0|0:0,0:0:0:0:
328,356,26576,6,0,P|240:360|204:352,1,107.999996704102,6|8,0:0|0:0,0:0:0:0:
180,332,27044,1,0,0:0:0:0:
180,332,27201,2,0,P|180:276|156:212,1,107.999996704102,2|8,0:0|0:0,0:0:0:0:
96,156,27826,2,0,L|16:172,2,53.9999983520508,2|2|8,0:0|0:0|0:0,0:0:0:0:
124,116,28294,1,0,0:0:0:0:
148,73,28451,2,0,L|292:65,1,107.999996704102,2|8,0:0|0:0,0:0:0:0:
340,120,29076,6,0,L|480:128,1,107.999996704102,6|8,0:0|0:0,0:0:0:0:
488,216,29701,2,0,L|480:276,1,53.9999983520508,2|2,0:0|0:0,0:0:0:0:
448,304,30013,1,8,0:0:0:0:
448,304,30169,2,0,P|376:288|304:316,1,107.999996704102,6|2,0:0|0:0,0:0:0:0:
300,312,30638,2,0,L|208:304,1,53.9999983520508,8|6,0:0|0:0,0:0:0:0:
148,307,31107,2,0,L|161:368,2,53.9999983520508,2|8|2,0:0|0:3|0:0,0:0:0:0:
108,278,31576,6,0,P|74:227|68:150,1,107.999996704102,6|2,0:0|0:0,0:0:0:0:
127,106,32201,1,8,0:0:0:0:
208,160,32513,1,2,0:0:0:0:
288,104,32826,2,0,L|416:88,1,107.999996704102,0|2,0:0|0:0,0:0:0:0:
436,116,33294,1,0,0:0:0:0:
436,116,33451,2,0,P|452:184|440:244,1,107.999996704102,8|0,0:0|0:0,0:0:0:0:
396,304,34076,6,0,P|332:300|284:336,1,107.999996704102,6|2,0:0|0:0,0:0:0:0:
256,352,34544,1,0,0:0:0:0:
256,352,34701,2,0,L|96:336,1,107.999996704102,8|2,0:0|0:0,0:0:0:0:
60,300,35326,2,0,L|-12:308,2,53.9999983520508,2|2|2,0:0|0:0|0:0,0:0:0:0:
135,238,35951,1,6,0:0:0:0:
135,238,36107,2,0,P|142:182|109:137,1,107.999996704102,2|2,0:0|0:0,0:0:0:0:
70,119,36576,6,0,P|78:47|123:17,1,107.999996704102,6|2,0:0|0:0,0:0:0:0:
200,32,37201,2,0,L|320:48,1,107.999996704102,8|2,0:0|0:0,0:0:0:0:
388,104,37826,2,0,L|456:92,2,53.9999983520508,2|2|2,0:0|0:0|0:0,0:0:0:0:
368,148,38294,1,0,0:0:0:0:
368,148,38451,2,0,P|384:224|416:268,1,107.999996704102,8|0,0:0|0:0,0:0:0:0:
376,344,39076,6,0,P|324:304|300:256,1,107.999996704102,6|2,0:0|0:0,0:0:0:0:
264,252,39544,2,0,L|124:284,1,107.999996704102,6|2,0:0|0:0,0:0:0:0:
112,268,40013,1,0,0:0:0:0:
48,196,40326,2,0,L|32:132,2,53.9999983520508,6|0|8,0:0|0:0|0:0,0:0:0:0:
128,140,40951,2,0,L|112:76,2,53.9999983520508,2|2|8,0:0|0:0|0:0,0:0:0:0:
216,176,41576,6,0,P|296:164|340:124,1,107.999996704102,6|8,0:0|0:0,0:0:0:0:
352,60,42201,2,0,P|396:100|400:184,1,107.999996704102,2|8,0:0|0:0,0:0:0:0:
400,192,42669,2,0,L|412:304,1,107.999996704102,2|2,0:0|0:0,0:0:0:0:
416,348,43138,1,8,0:0:0:0:
324,316,43451,2,0,P|289:320|264:332,1,53.9999983520508,2|2,0:0|0:0,0:0:0:0:
228,348,43763,2,0,P|201:345|175:336,1,53.9999983520508,8|0,0:0|0:0,0:0:0:0:
128,324,44076,6,0,L|116:180,1,107.999996704102,6|8,0:0|0:0,0:0:0:0:
44,152,44701,2,0,P|116:120|184:140,1,107.999996704102,2|8,0:0|0:0,0:0:0:0:
192,136,45169,2,0,L|312:116,1,107.999996704102,6|2,0:0|0:0,0:0:0:0:
344,132,45638,1,0,0:0:0:0:
428,80,45951,2,0,L|424:8,2,53.9999983520508,8|2|8,0:0|0:0|0:0,0:0:0:0:
484,168,46576,6,0,L|472:292,1,107.999996704102,6|8,0:0|0:0,0:0:0:0:
400,340,47201,2,0,P|336:348|276:336,1,107.999996704102,2|8,0:0|0:0,0:0:0:0:
212,288,47826,2,0,L|84:280,1,107.999996704102,6|8,0:0|0:0,0:0:0:0:
36,212,48451,2,0,P|16:240|12:260,2,53.9999983520508,2|2|8,0:0|0:0|0:0,0:0:0:0:
72,180,48919,5,6,0:0:0:0:
140,108,49232,2,0,L|132:20,2,53.9999983520508,2|8|6,0:0|0:0|0:0,0:0:0:0:
224,160,49857,2,0,P|276:152|300:140,1,53.9999983520508,2|8,0:0|0:0,0:0:0:0:
320,128,50169,2,0,P|404:104|480:216,1,215.999993408203,6|0,0:0|0:0,0:0:0:0:
456,284,51107,2,0,L|464:348,2,53.9999983520508,0|2|2,0:0|0:0|0:0,0:0:0:0:
412,264,51576,6,0,P|360:264|348:268,1,53.9999983520508,0|8,0:0|0:0,0:0:0:0:
308,280,51888,1,12,0:0:0:0:
240,348,52201,2,0,P|216:308|224:232,1,107.999996704102,2|8,0:0|0:0,0:0:0:0:
232,204,52669,2,0,P|136:232|144:92,1,269.999991760254,6|2,0:0|0:0,0:0:0:0:
168,72,53607,1,2,0:0:0:0:
264,96,53919,6,0,L|408:68,1,107.999996704102,6|0,0:0|0:0,0:0:0:0:
416,64,54388,1,8,0:0:0:0:
480,136,54701,2,0,P|488:196|464:264,1,107.999996704102,2|8,0:0|0:0,0:0:0:0:
404,308,55326,2,0,L|412:368,2,53.9999983520508,6|0|2,0:0|0:0|0:0,0:0:0:0:
364,284,55794,1,2,0:0:0:0:
276,328,56107,2,0,P|254:327|216:320,1,53.9999983520508,2|8,0:0|0:0,0:0:0:0:
180,300,56419,6,0,L|48:320,1,107.999996704102,6|0,0:0|0:0,0:0:0:0:
24,324,56888,1,8,0:0:0:0:
24,228,57201,2,0,L|130:211,1,107.999996704102,2|8,0:0|0:0,0:0:0:0:
204,144,57826,2,0,P|176:80|176:28,2,107.999996704102,2|8|2,0:0|0:0|0:0,0:0:0:0:
248,168,58607,2,0,P|280:160|312:148,1,53.9999983520508,2|8,0:0|0:0,0:0:0:0:
392,188,59076,6,0,P|420:236|436:296,1,107.999996704102,2|8,0:0|0:0,0:0:0:0:
356,344,59701,2,0,P|300:340|232:324,1,107.999996704102,2|8,0:0|0:0,0:0:0:0:
152,338,60326,2,0,L|129:222,1,107.999996704102,6|8,0:0|0:0,0:0:0:0:
67,158,60951,2,0,P|29:167|5:180,2,53.9999983520508,2|0|8,0:0|0:0|0:0,0:0:0:0:
104,126,61419,1,2,0:0:0:0:
104,126,61576,6,0,P|152:82|218:73,1,107.999996704102,6|8,0:0|0:0,0:0:0:0:
288,88,62201,2,0,P|320:80|356:64,2,53.9999983520508,2|2|8,0:0|0:0|0:0,0:0:0:0:
268,132,62669,2,0,L|284:264,1,107.999996704102,6|6,0:0|0:0,0:0:0:0:
336,320,63294,1,6,0:0:0:0:
248,360,63607,2,0,L|184:352,1,53.9999983520508,2|2,0:0|0:0,0:0:0:0:
160,320,63919,6,0,L|16:336,1,107.999996704102,6|0,0:0|0:0,0:0:0:0:
4,320,64388,1,8,0:0:0:0:
44,232,64701,2,0,P|48:178|36:126,1,107.999996704102,2|8,0:0|0:0,0:0:0:0:
121,80,65326,1,6,0:0:0:0:
121,80,65482,2,0,P|184:66|257:72,1,107.999996704102
321,97,66107,2,0,P|358:92|395:78,1,53.9999983520508,2|8,0:0|0:0,0:0:0:0:
415,60,66419,6,0,L|429:167,1,107.999996704102,0|2,0:0|0:0,0:0:0:0:
433,215,66888,1,8,0:0:0:0:
340,244,67201,2,0,P|384:296|460:304,2,107.999996704102,2|8|0,0:0|0:0|0:0,0:0:0:0:
248,208,68138,1,8,0:0:0:0:
164,260,68451,2,0,L|172:352,2,53.9999983520508,2|0|8,0:0|0:0|0:0,0:0:0:0:
120,236,68919,6,0,L|136:100,1,107.999996704102,6|0,0:0|0:0,0:0:0:0:
140,80,69388,1,8,0:0:0:0:
228,44,69701,1,2,0:0:0:0:
312,92,70013,2,0,L|396:80,1,53.9999983520508,8|0,0:0|0:0,0:0:0:0:
408,60,70326,2,0,P|388:120|420:204,1,107.999996704102,6|8,0:0|0:0,0:0:0:0:
452,240,70951,1,2,0:0:0:0:
416,328,71263,1,8,0:0:0:0:
416,328,71419,6,0,L|276:340,1,107.999996704102,6|2,0:0|0:0,0:0:0:0:
260,344,71888,1,8,0:0:0:0:
196,272,72201,2,0,P|168:324|168:340,2,53.9999983520508,2|2|8,0:0|0:0|0:0,0:0:0:0:
232,240,72669,2,0,L|224:96,1,107.999996704102,6|8,0:0|0:0,0:0:0:0:
288,60,73294,1,8,0:0:0:0:
376,104,73607,1,8,0:0:0:0:
376,104,73763,2,0,L|452:100,1,53.9999983520508,2|0,0:0|0:0,0:0:0:0:
476,140,74076,6,0,P|496:216|428:280,1,161.999995056153,6|12,0:0|0:0,0:0:0:0:
320,348,75013,2,0,P|248:316|192:312,1,107.999996704102,6|0,0:0|0:0,0:0:0:0:
172,328,75482,1,2,0:0:0:0:
172,328,75638,2,0,L|160:188,1,107.999996704102,8|2,0:0|0:0,0:0:0:0:
100,148,76263,1,8,0:0:0:0:
164,76,76576,6,0,P|240:40|344:80,1,161.999995056153,6|12,0:0|0:0,0:0:0:0:
436,148,77513,2,0,L|420:288,1,107.999996704102,6|0,0:0|0:0,0:0:0:0:
440,308,77982,1,2,0:0:0:0:
440,308,78138,2,0,P|336:296|304:312,1,107.999996704102,8|2,0:0|0:0,0:0:0:0:
252,344,78763,2,0,L|180:332,1,53.9999983520508,8|2,0:0|0:0,0:0:0:0:
168,296,79076,6,0,P|104:312|32:204,1,161.999995056153,6|12,0:0|0:0,0:0:0:0:
144,156,80013,2,0,L|140:24,1,107.999996704102,6|0,0:0|0:0,0:0:0:0:
188,32,80482,2,0,P|218:31|248:40,1,53.9999983520508,2|8,0:0|0:0,0:0:0:0:
300,112,80951,2,0,L|380:108,1,53.9999983520508,2|2,0:0|0:0,0:0:0:0:
396,88,81263,2,0,L|449:90,1,53.9999983520508,8|2,0:0|0:0,0:0:0:0:
492,232,81888,6,0,L|484:316,1,53.9999983520508,6|2,0:0|0:0,0:0:0:0:
456,328,82201,2,0,P|360:312|320:336,1,107.999996704102,8|8,0:0|0:0,0:0:0:0:
312,336,82669,1,2,0:0:0:0:
220,308,82982,2,0,L|60:292,1,107.999996704102,2|0,0:0|0:0,0:0:0:0:
80,260,83451,2,0,P|60:172|72:128,1,107.999996704102,2|2,0:0|0:0,0:0:0:0:
120,76,84076,6,0,L|196:64,1,53.9999983520508,6|2,0:0|0:0,0:0:0:0:
220,80,84388,2,0,L|273:88,1,53.9999983520508,8|2,0:0|0:0,0:0:0:0:
412,40,85013,2,0,P|424:96|396:160,1,107.999996704102,6|8,0:0|0:0,0:0:0:0:
388,176,85482,1,2,0:0:0:0:
424,268,85794,1,8,0:3:0:0:
448,312,85951,2,0,L|524:308,2,53.9999983520508,8|2|8,0:0|0:0|0:0,0:0:0:0:
256,192,86576,12,12,87669,0:0:0:0:
