osu file format v14

[General]
AudioFilename: WASTELANDERS.mp3
AudioLeadIn: 2000
PreviewTime: 53605
Countdown: 0
SampleSet: Soft
StackLeniency: 0.7
Mode: 0
LetterboxInBreaks: 0
WidescreenStoryboard: 0

[Editor]
DistanceSpacing: 2
BeatDivisor: 4
GridSize: 4
TimelineZoom: 1

[Metadata]
Title:WASTELANDERS
TitleUnicode:WASTELANDERS
Artist:Sasaki Sayaka
ArtistUnicode:佐咲紗花
Creator:-Yuzuriha
Version:Light Insane
Source:少女たちは荒野を目指す Girls beyond the youth KOYA
Tags:opening Shoujo tachi wa Kouya wo Mezasu sAraShina -Nanaka- fuyuyu-
BeatmapID:882947
BeatmapSetID:405183

[Difficulty]
HPDrainRate:7
CircleSize:4
OverallDifficulty:6
ApproachRate:9
SliderMultiplier:1.5
SliderTickRate:1

[Events]
//Background and Video events
Video,0,"video.avi"
0,0,"BG.jpg",0,0
//Break Periods
//Storyboard Layer 0 (Background)
//Storyboard Layer 1 (Fail)
//Storyboard Layer 2 (Pass)
//Storyboard Layer 3 (Foreground)
//Storyboard Sound Samples

[TimingPoints]
324,312.5,4,2,1,70,1,0
7824,-100,4,2,4,70,0,0
8917,-100,4,2,1,70,0,0
9699,-100,4,2,4,70,0,0
10480,-133.333333333333,4,2,1,50,0,0
20011,-133.333333333333,4,2,2,60,0,0
21574,-100,4,2,10,50,0,0
21730,-100,4,2,2,70,0,0
31574,-133.333333333333,4,2,4,60,0,0
39074,-133.333333333333,4,2,2,60,0,0
40636,-133.333333333333,4,2,1,60,0,0
40792,-133.333333333333,4,2,2,60,0,0
41261,-133.333333333333,4,2,1,60,0,0
41417,-133.333333333333,4,2,2,60,0,0
41574,-100,4,2,2,70,0,0
50167,-100,4,2,2,70,0,0
51105,-100,4,2,1,50,0,0
51417,-100,4,2,2,70,0,0
52824,-100,4,2,1,70,0,0
53605,-100,4,2,2,70,0,0
53917,-100,4,2,10,60,0,1
54074,-100,4,2,2,80,0,1
63449,-100,4,2,2,80,0,0
63917,-100,4,2,10,60,0,1
64074,-100,4,2,2,80,0,1
74074,-100,4,2,2,70,0,0
87980,-100,4,2,1,5,0,0

[Colours]
Combo1 : 255,128,64
Combo2 : 255,0,255
Combo3 : 18,124,255
Combo4 : 242,24,57

[HitObjects]
241,237,324,6,0,P|252:194|282:161,1,75,4|0,0:0|0:0,0:0:0:0:
376,134,636,1,8,0:0:0:0:
330,236,792,1,0,0:0:0:0:
458,134,949,2,0,P|448:96|329:66,1,150,0|8,0:0|0:0,0:0:0:0:
249,96,1417,2,0,P|207:96|169:82,1,75
72,39,1730,5,0,0:0:0:0:
162,158,1886,1,8,0:0:0:0:
222,20,2042,1,0,0:0:0:0:
101,110,2199,1,0,0:0:0:0:
181,236,2355,2,0,P|219:216|239:184,1,75,0|8,0:0|0:0,0:0:0:0:
273,84,2667,1,0,0:0:0:0:
358,158,2824,6,0,L|351:238,1,75
282,321,3136,1,8,0:0:0:0:
392,301,3292,1,0,0:0:0:0:
255,242,3449,2,0,P|203:298|217:369,1,150,0|8,0:0|0:0,0:0:0:0:
108,326,3917,6,0,P|113:278|127:243,1,75
190,163,4230,2,0,L|179:73,1,75,0|8,0:0|0:0,0:0:0:0:
280,37,4542,1,0,0:0:0:0:
309,145,4699,1,0,0:0:0:0:
421,143,4855,2,0,P|407:93|383:65,1,75,0|8,0:0|0:0,0:0:0:0:
280,37,5167,1,0,0:0:0:0:
309,145,5324,6,0,P|311:203|303:243,1,75
229,299,5636,1,8,0:0:0:0:
229,186,5792,1,0,0:0:0:0:
303,336,5949,2,0,L|138:318,1,150,0|8,0:0|0:0,0:0:0:0:
53,268,6417,6,0,P|86:230|113:216,1,75
229,186,6730,1,0,0:0:0:0:
325,244,6886,1,8,0:0:0:0:
296,135,7042,2,0,P|250:106|202:106,1,75
119,124,7355,5,0,0:0:0:0:
228,226,7511,1,8,0:0:0:0:
163,60,7667,1,0,0:0:0:0:
150,242,7824,2,0,P|179:288|214:303,1,75,6|2,0:0|0:0,0:0:0:0:
307,288,8136,1,0,0:0:0:0:
292,94,8292,6,0,B|267:127|267:127|259:167|259:167|234:186|225:238,1,150,6|2,0:0|0:0,0:0:0:0:
228,226,8761,1,0,0:0:0:0:
349,158,8917,2,0,P|374:124|341:23,1,150,4|8,0:0|0:3,0:0:0:0:
236,47,9386,1,4,0:3:0:0:
260,156,9542,1,0,0:0:0:0:
155,114,9699,2,0,P|106:120|70:134,1,75,2|0,0:0|0:0,0:0:0:0:
43,233,10011,1,2,0:0:0:0:
122,311,10167,1,2,0:0:0:0:
122,311,10480,5,2,0:0:0:0:
178,233,10636,1,2,0:0:0:0:
103,173,10792,1,2,0:0:0:0:
178,233,10949,1,2,0:0:0:0:
268,263,11105,2,0,P|329:276|384:277,1,112.500004291535,2|0,0:0|0:0,0:0:0:0:
439,203,11574,6,0,L|431:121,1,56.2500021457673,6|0,0:0|0:0,0:0:0:0:
351,98,11886,2,0,L|345:153,1,56.2500021457673
251,175,12199,1,2,0:0:0:0:
175,116,12355,2,0,P|196:95|233:82,1,56.2500021457673
172,197,12667,6,0,L|179:262,1,56.2500021457673,0|2,0:0|0:0,0:0:0:0:
81,252,12980,2,0,L|74:317,1,56.2500021457673
155,359,13292,2,0,P|192:355|222:343,1,56.2500021457673,0|2,0:0|0:0,0:0:0:0:
272,275,13605,1,0,0:0:0:0:
357,232,13761,2,0,P|367:276|361:305,1,56.2500021457673,8|0,0:0|0:0,0:0:0:0:
453,246,14074,6,0,P|436:209|442:134,1,112.500004291535,2|0,0:0|0:0,0:0:0:0:
383,61,14542,1,0,0:0:0:0:
288,43,14699,2,0,P|289:78|296:109,1,56.2500021457673,2|0,0:0|0:0,0:0:0:0:
339,182,15011,1,0,0:0:0:0:
251,219,15167,6,0,L|177:208,1,56.2500021457673,0|2,0:0|0:0,0:0:0:0:
149,126,15480,2,0,L|223:137,1,56.2500021457673
221,248,15792,2,0,L|147:237,1,56.2500021457673,0|2,0:0|0:0,0:0:0:0:
82,191,16105,1,0,0:0:0:0:
17,252,16261,1,8,0:0:0:0:
63,335,16417,1,0,0:0:0:0:
158,323,16574,6,0,L|287:348,1,112.500004291535,6|0,0:0|0:0,0:0:0:0:
361,325,17042,1,0,0:0:0:0:
450,288,17199,2,0,P|447:245|443:217,1,56.2500021457673,2|0,0:0|0:0,0:0:0:0:
415,141,17511,1,0,0:0:0:0:
339,82,17667,6,0,P|324:105|319:142,1,56.2500021457673,0|2,0:0|0:0,0:0:0:0:
309,228,17980,1,0,0:0:0:0:
359,309,18136,1,0,0:0:0:0:
268,344,18292,2,0,P|223:349|200:349,1,56.2500021457673,0|2,0:0|0:0,0:0:0:0:
120,321,18605,1,0,0:0:0:0:
86,231,18761,2,0,P|130:227|159:236,1,56.2500021457673,8|0,0:0|0:0,0:0:0:0:
233,255,19074,6,0,L|215:130,1,112.500004291535,2|0,0:0|0:0,0:0:0:0:
260,58,19542,1,0,0:0:0:0:
352,83,19699,2,0,P|349:123|334:154,1,56.2500021457673,2|0,0:0|0:0,0:0:0:0:
307,226,20011,1,2,0:0:0:0:
378,289,20167,1,4,0:0:0:0:
193,339,20480,5,2,0:0:0:0:
208,244,20636,1,2,0:0:0:0:
155,164,20792,2,0,P|116:182|89:203,1,56.2500021457673,4|0,0:0|0:0,0:0:0:0:
208,244,21105,2,0,B|236:213|236:213|261:207|261:207|281:183|312:172,1,112.500004291535,4|0,0:0|0:0,0:0:0:0:
403,143,21574,6,0,P|411:192|402:228,1,75,6|0,0:0|0:0,0:0:0:0:
329,298,21886,1,8,0:0:0:0:
433,340,22042,1,0,0:0:0:0:
329,298,22199,2,0,P|277:308|232:325,1,75,2|2,0:0|0:0,0:0:0:0:
161,375,22511,1,8,0:0:0:0:
74,302,22667,6,0,L|87:220,1,75,2|0,0:0|0:0,0:0:0:0:
185,173,22980,2,0,L|173:247,1,75,2|8,0:0|0:0,0:0:0:0:
267,307,23292,2,0,L|280:225,1,75,0|2,0:0|0:0,0:0:0:0:
367,162,23605,1,2,0:0:0:0:
320,59,23761,2,0,P|268:51|221:59,1,75,8|0,0:0|0:0,0:0:0:0:
149,184,24074,6,0,P|200:190|277:106,1,150,2|8,0:0|0:0,0:0:0:0:
314,233,24542,1,0,0:0:0:0:
259,332,24699,2,0,P|209:330|172:317,1,75,2|2,0:0|0:0,0:0:0:0:
98,252,25011,1,8,0:0:0:0:
98,252,25167,6,0,L|80:337,1,75,2|0,0:0|0:0,0:0:0:0:
17,233,25480,2,0,L|35:148,1,75,2|8,0:0|0:0,0:0:0:0:
144,167,25792,2,0,L|126:82,1,75,2|0,0:0|0:0,0:0:0:0:
226,37,26105,1,2,0:0:0:0:
226,37,26183,1,0,0:0:0:0:
226,37,26261,2,0,P|257:63|276:107,1,75,8|0,0:0|0:0,0:0:0:0:
278,206,26574,6,0,B|321:222|321:222|432:211,1,150,6|8,0:0|0:0,0:0:0:0:
377,109,27042,1,0,0:0:0:0:
350,218,27199,2,0,P|345:272|345:310,1,75,2|2,0:0|0:0,0:0:0:0:
249,352,27511,1,8,0:0:0:0:
203,249,27667,1,0,0:0:0:0:
90,244,27824,6,0,P|94:298|106:335,1,75,2|0,0:0|0:0,0:0:0:0:
205,282,28136,1,8,0:0:0:0:
180,172,28292,1,0,0:0:0:0:
80,119,28449,2,0,P|43:150|25:181,1,75,2|2,0:0|0:0,0:0:0:0:
140,180,28761,1,8,0:0:0:0:
237,124,28917,1,0,0:0:0:0:
193,19,29074,6,0,P|161:58|147:89,1,75,6|0,0:0|0:0,0:0:0:0:
140,180,29386,1,8,0:0:0:0:
238,233,29542,1,0,0:0:0:0:
228,345,29699,2,0,P|164:319|140:292,1,75,2|2,0:0|0:0,0:0:0:0:
124,209,30011,1,8,0:0:0:0:
188,116,30167,6,0,P|256:149|329:104,1,150,6|2,0:0|0:0,0:0:0:0:
399,39,30636,1,8,0:0:0:0:
445,141,30792,2,0,P|430:182|424:223,1,75,6|0,0:0|0:0,0:0:0:0:
436,325,31105,1,2,0:0:0:0:
336,272,31261,2,0,P|291:252|245:246,1,75,8|0,0:0|0:0,0:0:0:0:
170,261,31574,6,0,L|185:130,1,112.500004291535,6|0,0:0|0:0,0:0:0:0:
234,69,32042,1,0,0:0:0:0:
144,33,32199,2,0,P|107:44|80:59,1,56.2500021457673,8|2,0:0|0:0,0:0:0:0:
36,130,32511,2,0,P|30:176|31:202,1,56.2500021457673
94,256,32824,6,0,L|221:266,1,112.500004291535,8|8,0:0|0:0,0:0:0:0:
299,243,33292,2,0,P|335:253|365:265,1,56.2500021457673,0|8,0:0|0:0,0:0:0:0:
427,320,33605,1,2,0:0:0:0:
488,247,33761,2,0,P|468:202|464:182,1,56.2500021457673
437,103,34074,6,0,P|399:79|331:98,1,112.500004291535,10|0,0:0|0:0,0:0:0:0:
275,167,34542,1,0,0:0:0:0:
179,155,34699,2,0,L|190:90,1,56.2500021457673,8|2,0:0|0:0,0:0:0:0:
119,33,35011,2,0,L|108:98,1,56.2500021457673
103,184,35324,5,2,0:0:0:0:
36,252,35480,1,2,0:0:0:0:
109,313,35636,2,0,P|158:315|191:309,1,56.2500021457673,8|0,0:0|0:0,0:0:0:0:
246,263,35949,1,4,0:0:0:0:
341,258,36105,2,0,L|334:332,1,56.2500021457673,0|2,0:0|0:0,0:0:0:0:
423,350,36417,1,0,0:0:0:0:
423,350,36495,1,0,0:0:0:0:
423,350,36574,6,0,P|462:316|466:248,1,112.500004291535,6|0,0:0|0:0,0:0:0:0:
404,188,37042,1,2,0:0:0:0:
327,129,37199,2,0,P|291:127|259:127,1,56.2500021457673,8|2,0:0|0:0,0:0:0:0:
217,206,37511,2,0,P|253:208|285:208,1,56.2500021457673
330,285,37824,6,0,P|295:302|211:279,1,112.500004291535,8|8,0:0|0:0,0:0:0:0:
142,241,38292,2,0,P|102:240|68:245,1,56.2500021457673,0|8,0:0|0:0,0:0:0:0:
24,167,38605,1,2,0:0:0:0:
72,84,38761,2,0,P|102:116|117:150,1,56.2500021457673
196,164,39074,6,0,B|240:158|240:158|267:161|267:161|332:154,1,112.500004291535,6|2,0:0|0:0,0:0:0:0:
401,176,39542,2,0,P|387:208|357:239,1,56.2500021457673
281,249,39855,1,2,0:0:0:0:
236,333,40011,2,0,P|200:337|176:333,1,56.2500021457673
136,248,40324,5,2,0:0:0:0:
40,255,40480,1,2,0:0:0:0:
27,160,40636,2,0,P|56:144|94:138,1,56.2500021457673,8|0,0:0|0:0,0:0:0:0:
173,151,40949,1,2,0:0:0:0:
182,56,41105,1,2,0:0:0:0:
276,41,41261,2,0,P|292:74|295:106,1,56.2500021457673,8|0,0:0|0:0,0:0:0:0:
244,193,41574,6,0,L|256:347,1,150,6|8,0:0|0:0,0:0:0:0:
328,257,42042,1,0,0:0:0:0:
440,242,42199,2,0,P|437:288|415:327,1,75,2|2,0:0|0:0,0:0:0:0:
322,360,42511,1,8,0:0:0:0:
231,293,42667,6,0,B|183:284|183:284|148:294|148:294|118:280|77:298,1,150,2|2,0:0|0:0,0:0:0:0:
18,203,43136,2,0,P|47:183|93:179,1,75,8|0,0:0|0:0,0:0:0:0:
197,193,43449,1,2,0:0:0:0:
156,88,43605,1,2,0:0:0:0:
197,193,43761,2,0,L|282:183,1,75,8|0,0:0|0:0,0:0:0:0:
416,109,44074,6,0,P|380:82|282:106,1,150,6|8,0:0|0:0,0:0:0:0:
284,103,44542,1,0,0:0:0:0:
352,234,44699,2,0,P|356:183|348:156,1,75,2|2,0:0|0:0,0:0:0:0:
271,240,45011,1,8,0:0:0:0:
365,301,45167,6,0,P|387:213|381:149,1,150,6|2,0:0|0:0,0:0:0:0:
343,48,45636,1,8,0:0:0:0:
230,43,45792,1,0,0:0:0:0:
230,43,45870,1,0,0:0:0:0:
230,43,45949,2,0,P|197:84|182:116,1,75,2|2,0:0|0:0,0:0:0:0:
216,212,46261,1,8,0:0:0:0:
111,170,46417,1,0,0:0:0:0:
227,294,46574,6,0,P|269:273|283:166,1,150,6|8,0:0|0:0,0:0:0:0:
325,72,47042,1,0,0:0:0:0:
414,140,47199,2,0,L|404:231,1,75,2|2,0:0|0:0,0:0:0:0:
356,315,47511,1,8,0:0:0:0:
442,249,47667,1,0,0:0:0:0:
303,252,47824,6,0,P|278:292|275:330,1,75,2|0,0:0|0:0,0:0:0:0:
214,221,48136,2,0,P|239:181|242:143,1,75,8|0,0:0|0:0,0:0:0:0:
221,43,48449,1,2,0:0:0:0:
262,196,48605,1,2,0:0:0:0:
131,122,48761,1,8,0:0:0:0:
255,38,48917,6,0,P|302:38|338:50,1,75,6|0,0:0|0:0,0:0:0:0:
397,135,49230,1,2,0:0:0:0:
477,56,49386,1,8,0:0:0:0:
458,189,49542,2,0,P|414:214|370:212,1,75,6|0,0:0|0:0,0:0:0:0:
290,162,49855,1,2,0:0:0:0:
187,208,50011,1,8,0:0:0:0:
90,154,50167,1,6,0:0:0:0:
90,154,51105,5,2,0:0:0:0:
90,154,51183,1,2,0:0:0:0:
90,154,51261,1,2,0:0:0:0:
90,154,51339,1,2,0:0:0:0:
90,154,51417,6,0,L|103:242,1,75,2|2,0:0|0:0,0:0:0:0:
188,350,51730,1,2,0:0:0:0:
193,200,51886,1,8,0:0:0:0:
415,287,52199,2,0,P|377:292|339:282,1,75,6|2,0:0|0:0,0:0:0:0:
196,248,52511,1,8,0:0:0:0:
286,160,52667,6,0,P|287:114|198:51,1,150,6|0,0:0|0:0,0:0:0:0:
106,88,53136,2,0,P|101:130|107:166,1,75,2|2,0:0|0:0,0:0:0:0:
163,259,53449,1,2,0:0:0:0:
163,259,53605,2,0,L|258:257,1,75
445,310,53917,6,0,P|381:341|309:307,1,150,6|2,0:0|0:0,0:0:0:0:
339,201,54386,2,0,P|362:157|369:124,1,75,8|0,0:0|0:0,0:0:0:0:
306,37,54699,2,0,L|275:115,1,75,2|2,0:0|0:0,0:0:0:0:
181,164,55011,1,8,0:0:0:0:
228,265,55167,1,0,0:0:0:0:
122,223,55324,6,0,P|101:180|104:135,1,75,2|0,0:0|0:0,0:0:0:0:
159,58,55636,1,8,0:0:0:0:
258,110,55792,2,0,L|417:102,1,150,2|2,0:0|0:0,0:0:0:0:
322,28,56261,1,8,0:0:0:0:
345,137,56417,6,0,P|354:177|342:240,1,75,2|0,0:0|0:0,0:0:0:0:
301,312,56730,1,2,0:0:0:0:
189,322,56886,2,0,P|196:274|212:246,1,75,8|0,0:0|0:0,0:0:0:0:
177,142,57199,2,0,L|97:153,1,75,2|2,0:0|0:0,0:0:0:0:
101,264,57511,1,8,0:0:0:0:
203,217,57667,6,0,P|180:168|186:65,1,150,2|2,0:0|0:0,0:0:0:0:
295,70,58136,1,8,0:0:0:0:
187,37,58292,1,0,0:0:0:0:
264,152,58449,2,0,P|308:156|347:141,1,75,2|2,0:0|0:0,0:0:0:0:
425,77,58761,1,8,0:0:0:0:
416,188,58917,6,0,B|390:227|390:227|378:261|378:261|349:276|328:321,1,150,6|2,0:0|0:0,0:0:0:0:
226,344,59386,2,0,P|220:294|232:259,1,75,8|0,0:0|0:0,0:0:0:0:
180,167,59699,2,0,P|139:195|124:230,1,75,2|2,0:0|0:0,0:0:0:0:
52,300,60011,2,0,P|25:256|15:216,1,75,8|0,0:0|0:0,0:0:0:0:
20,120,60324,6,0,P|26:78|126:39,1,150,2|8,0:0|0:0,0:0:0:0:
202,105,60792,1,0,0:0:0:0:
309,71,60949,2,0,P|279:31|245:11,1,75,2|2,0:0|0:0,0:0:0:0:
202,105,61261,1,8,0:0:0:0:
278,187,61417,6,0,B|328:170|328:170|368:183|368:183|406:171|439:181,1,150,2|2,0:0|0:0,0:0:0:0:
471,279,61886,1,8,0:0:0:0:
380,345,62042,1,0,0:0:0:0:
279,292,62199,2,0,L|190:301,1,75,2|2,0:0|0:0,0:0:0:0:
95,272,62511,1,8,0:0:0:0:
159,180,62667,5,4,0:0:0:0:
384,177,62980,1,0,0:0:0:0:
209,35,63292,2,0,P|219:71|234:161,1,112.5,4|0,0:0|0:0,0:0:0:0:
234,180,63605,1,2,0:0:0:0:
328,118,63761,1,2,0:0:0:0:
314,229,63917,6,0,P|304:265|286:390,1,150,6|2,0:0|0:0,0:0:0:0:
178,344,64386,2,0,P|134:323|97:296,1,75,8|0,0:0|0:0,0:0:0:0:
102,195,64699,2,0,P|146:216|183:243,1,75,2|2,0:0|0:0,0:0:0:0:
247,151,65011,2,0,P|237:108|238:66,1,75,8|0,0:0|0:0,0:0:0:0:
342,38,65324,5,2,0:0:0:0:
434,101,65480,2,0,L|415:203,1,75,2|8,0:0|0:0,0:0:0:0:
327,299,65792,2,0,P|305:254|357:158,1,150,2|2,0:0|0:0,0:0:0:0:
341,167,66261,1,8,0:0:0:0:
230,150,66417,6,0,P|171:156|137:164,1,75,2|0,0:0|0:0,0:0:0:0:
56,213,66730,1,2,0:0:0:0:
99,316,66886,2,0,P|134:289|156:247,1,75,8|0,0:0|0:0,0:0:0:0:
155,159,67199,2,0,L|140:72,1,75,2|2,0:0|0:0,0:0:0:0:
244,38,67511,1,8,0:0:0:0:
351,70,67667,6,0,P|380:115|340:213,1,150,2|2,0:0|0:0,0:0:0:0:
250,246,68136,2,0,L|257:159,1,75,8|0,0:0|0:0,0:0:0:0:
127,93,68449,1,2,0:0:0:0:
139,242,68605,1,2,0:0:0:0:
51,120,68761,1,8,0:0:0:0:
170,29,68917,6,0,L|342:57,1,150,6|2,0:0|0:0,0:0:0:0:
402,128,69386,1,8,0:0:0:0:
355,230,69542,2,0,P|312:218|280:194,1,75,2|0,0:0|0:0,0:0:0:0:
175,183,69855,1,2,0:0:0:0:
272,239,70011,1,8,0:0:0:0:
124,249,70167,6,0,P|95:204|128:114,1,150,2|2,0:0|0:0,0:0:0:0:
224,67,70636,1,8,0:0:0:0:
224,67,70792,2,0,P|255:109|270:149,1,75,2|0,0:0|0:0,0:0:0:0:
233,238,71105,2,0,P|202:196|187:156,1,75,2|8,0:0|0:0,0:0:0:0:
303,197,71417,6,0,L|400:193,1,75,2|0,0:0|0:0,0:0:0:0:
455,111,71730,1,2,0:0:0:0:
453,223,71886,2,0,P|435:276|429:310,1,75,8|0,0:0|0:0,0:0:0:0:
324,332,72199,2,0,P|279:340|245:336,2,75,2|2|8,0:0|0:0|0:0,0:0:0:0:
431,294,72667,5,4,0:0:0:0:
206,269,72980,1,0,0:0:0:0:
399,155,73292,1,4,0:0:0:0:
191,66,73605,2,0,L|205:157,1,75
295,202,73917,1,0,0:0:0:0:
150,259,74074,6,0,P|141:210|213:137,1,150,6|8,0:0|0:0,0:0:0:0:
295,202,74542,2,0,L|386:197,1,75,2|0,0:0|0:0,0:0:0:0:
448,116,74855,1,0,0:0:0:0:
312,139,75011,6,4,P|291:191|342:278,1,150,14|0,0:0|0:0,0:0:0:0:
435,310,75480,1,0,0:0:0:0:
333,357,75636,2,0,P|279:350|239:338,1,75,8|0,0:0|0:0,0:0:0:0:
201,247,75949,1,2,0:0:0:0:
94,283,76105,2,0,P|101:333|97:369,1,75,2|8,0:0|0:0,0:0:0:0:
13,284,76417,1,0,0:0:0:0:
41,174,76574,6,0,P|66:105|156:99,1,150,6|8,0:0|0:0,0:0:0:0:
231,146,77042,2,0,P|277:147|316:138,1,75,2|0,0:0|0:0,0:0:0:0:
390,66,77355,1,0,0:0:0:0:
412,175,77511,6,0,P|374:209|388:318,1,150,14|0,0:0|0:0,0:0:0:0:
272,255,77980,1,0,0:0:0:0:
203,343,78136,1,8,0:0:0:0:
104,288,78292,1,0,0:0:0:0:
104,288,78370,1,0,0:0:0:0:
104,288,78449,2,0,L|124:211,1,75,2|2,0:0|0:0,0:0:0:0:
202,135,78761,1,8,0:0:0:0:
103,81,78917,1,0,0:0:0:0:
216,207,79074,6,0,P|203:127|233:52,1,150,6|8,0:0|0:0,0:0:0:0:
336,47,79542,2,0,P|369:93|385:136,1,75,2|0,0:0|0:0,0:0:0:0:
405,218,79855,1,0,0:0:0:0:
297,328,80011,6,0,P|284:248|314:173,1,150,14|0,0:0|0:0,0:0:0:0:
193,182,80480,1,0,0:0:0:0:
306,184,80636,1,8,0:0:0:0:
253,84,80792,1,0,0:0:0:0:
253,84,80870,1,0,0:0:0:0:
253,84,80949,2,0,P|205:70|166:70,1,75,2|2,0:0|0:0,0:0:0:0:
72,100,81261,1,8,0:0:0:0:
19,199,81417,6,0,P|96:211|167:154,1,150,2|0,0:0|0:0,0:0:0:0:
264,197,81886,1,14,0:0:0:0:
177,269,82042,1,0,0:0:0:0:
294,264,82199,2,0,P|276:214|250:183,1,75,2|2,0:0|0:0,0:0:0:0:
154,174,82511,1,8,0:0:0:0:
183,65,82667,6,0,P|225:60|261:61,1,75,2|0,0:0|0:0,0:0:0:0:
351,123,82980,2,0,P|388:123|425:118,1,75,2|8,0:0|0:0,0:0:0:0:
345,40,83292,1,0,0:0:0:0:
277,130,83449,2,0,L|286:223,1,75,2|2,0:0|0:0,0:0:0:0:
272,314,83761,1,8,0:0:0:0:
380,341,83917,1,0,0:0:0:0:
230,375,84074,6,0,L|252:224,1,150,6|8,0:0|0:0,0:0:0:0:
192,131,84542,2,0,P|158:171|125:196,1,75,2|0,0:0|0:0,0:0:0:0:
29,207,84855,1,0,0:0:0:0:
36,94,85011,6,0,P|54:52|154:43,1,150,14|0,0:0|0:0,0:0:0:0:
225,121,85480,2,0,L|318:112,1,75,2|8,0:0|0:0,0:0:0:0:
333,133,85714,1,0,0:0:0:0:
333,133,85792,1,0,0:0:0:0:
302,241,85949,1,6,0:0:0:0:
404,286,86105,1,2,0:0:0:0:
284,322,86261,2,0,P|247:302|222:266,1,75,8|0,0:0|0:0,0:0:0:0:
193,168,86574,5,6,0:0:0:0:
108,242,86730,1,2,0:0:0:0:
116,130,86886,2,0,P|142:100|186:83,1,75,8|0,0:0|0:0,0:0:0:0:
322,106,87199,1,2,0:0:0:0:
254,239,87355,1,2,0:0:0:0:
261,49,87511,1,8,0:0:0:0:
319,186,87667,6,0,P|277:257|256:336,1,150,4|0,0:0|0:0,0:0:0:0:
