osu file format v14

[General]
AudioFilename: true.mp3
AudioLeadIn: 0
PreviewTime: 0
Countdown: 0
SampleSet: Soft
StackLeniency: 0.7
Mode: 0
LetterboxInBreaks: 0
WidescreenStoryboard: 1

[Editor]
DistanceSpacing: 1
BeatDivisor: 4
GridSize: 32
TimelineZoom: 0.8999999

[Metadata]
Title:True Memories Symphony
TitleUnicode:True Memories Symphony
Artist:Sasaki Sayaka
ArtistUnicode:佐咲紗花
Creator:Lasse
Version:Normal
Source:フルウソ -Complete Four Seasons-
Tags:campus eroge visual novel opening short version Ayumi.
BeatmapID:1578265
BeatmapSetID:739052

[Difficulty]
HPDrainRate:5
CircleSize:3
OverallDifficulty:5
ApproachRate:6
SliderMultiplier:1.14
SliderTickRate:1

[Events]
//Background and Video events
0,0,"d.jpg",0,0
//Break Periods
//Storyboard Layer 0 (Background)
//Storyboard Layer 1 (Fail)
//Storyboard Layer 2 (Pass)
//Storyboard Layer 3 (Foreground)
//Storyboard Sound Samples

[TimingPoints]
74,394.736842105263,4,2,0,70,1,0
74,-83.3333333333333,4,2,0,70,0,0
3231,-90.9090909090909,4,2,0,70,0,0
3527,-90.9090909090909,4,2,0,5,0,0
3626,-90.9090909090909,4,2,0,70,0,0
5106,-90.9090909090909,4,2,0,5,0,0
5205,-90.9090909090909,4,2,0,70,0,0
6685,-90.9090909090909,4,2,0,5,0,0
6784,-90.9090909090909,4,2,0,70,0,0
8264,-90.9090909090909,4,2,0,5,0,0
8363,-90.9090909090909,4,2,0,70,0,0
9843,-90.9090909090909,4,2,0,5,0,0
9942,-90.9090909090909,4,2,0,70,0,0
15863,-111.111111111111,4,2,0,60,0,0
18922,-111.111111111111,4,2,0,5,0,0
19021,-111.111111111111,4,2,0,60,0,0
27212,-111.111111111111,4,2,0,5,0,0
27310,-111.111111111111,4,2,0,60,0,0
27606,-111.111111111111,4,2,0,5,0,0
27705,-111.111111111111,4,2,0,60,0,0
28001,-111.111111111111,4,2,0,5,0,0
28100,-111.111111111111,4,2,0,60,0,0
28396,-111.111111111111,4,2,0,5,0,0
28495,-111.111111111111,4,2,0,60,0,0
31554,-111.111111111111,4,2,0,5,0,0
31652,-111.111111111111,4,2,0,60,0,0
39843,-111.111111111111,4,2,0,5,0,0
39942,-111.111111111111,4,2,0,60,0,0
41126,-99.9999999999999,4,2,0,65,0,0
56916,-83.3333333333333,4,2,0,75,0,1
69448,-83.3333333333333,4,2,0,75,0,0
69547,-83.3333333333333,4,2,0,75,0,1
75468,-111.111111111111,4,2,0,75,0,0
75863,-83.3333333333333,4,2,0,75,0,0
81981,-83.3333333333333,4,2,0,75,0,0
82179,-83.3333333333333,4,2,0,75,0,1
82771,-83.3333333333333,4,2,0,75,0,0
82968,-83.3333333333333,4,2,0,75,0,1
83560,-83.3333333333333,4,2,0,75,0,0
83758,-83.3333333333333,4,2,0,70,0,0
86126,-83.3333333333333,4,2,0,71,0,0
86225,-83.3333333333333,4,2,0,72,0,0
86323,-83.3333333333333,4,2,0,73,0,0
86422,-83.3333333333333,4,2,0,74,0,0
86521,-83.3333333333333,4,2,0,75,0,0
86620,-83.3333333333333,4,2,0,76,0,0
86718,-83.3333333333333,4,2,0,77,0,0
86817,-83.3333333333333,4,2,0,78,0,0
86916,-90.9090909090909,4,2,0,70,0,0
87212,-90.9090909090909,4,2,0,5,0,0
87310,-90.9090909090909,4,2,0,70,0,0
88791,-90.9090909090909,4,2,0,5,0,0
88889,-90.9090909090909,4,2,0,70,0,0
90370,-90.9090909090909,4,2,0,5,0,0
90468,-90.9090909090909,4,2,0,70,0,0
91948,-90.9090909090909,4,2,0,5,0,0
92047,-90.9090909090909,4,2,0,70,0,0
93527,-90.9090909090909,4,2,0,5,0,0
93626,-90.9090909090909,4,2,0,70,0,0
96389,-111.111111111111,4,2,0,50,0,0
98264,-90.9090909090909,4,2,0,70,0,0
98560,-90.9090909090909,4,2,0,60,0,0
98659,-90.9090909090909,4,2,0,30,0,0
102705,-90.9090909090909,4,2,0,5,0,0

[Colours]
Combo1 : 250,190,230
Combo2 : 130,200,230
Combo3 : 255,230,140
Combo4 : 170,245,170

[HitObjects]
65,31,74,5,4,3:2:0:0:
115,229,666,1,4,3:2:0:0:
262,87,1258,2,0,P|315:64|401:73,1,136.799995825195,4|4,3:2|0:3,0:0:0:0:
441,106,1850,2,0,B|440:149|440:149|456:191|456:191|453:239,1,136.799995825195,10|8,0:3|0:3,0:0:0:0:
489,288,2442,2,0,P|493:317|483:367,1,68.3999979125977,8|4,1:3|1:2,0:0:0:0:
299,360,3231,5,6,3:2:0:0:
186,304,3626,1,2,1:2:0:0:
186,304,3823,1,2,0:2:0:0:
66,342,4218,2,0,L|-5:334,2,62.7000019134522,2|2|2,3:2|1:2|0:2,0:0:0:0:
122,368,4810,1,2,3:2:0:0:
139,243,5205,1,2,1:2:0:0:
139,243,5402,1,2,3:2:0:0:
152,118,5797,1,2,3:2:0:0:
152,118,5995,1,0,1:2:0:0:
249,196,6389,5,2,3:2:0:0:
358,135,6784,1,2,1:2:0:0:
358,135,6981,1,2,0:2:0:0:
422,242,7376,2,0,L|415:314,2,62.7000019134522,2|2|2,3:2|1:2|0:2,0:0:0:0:
477,212,7968,1,2,3:2:0:0:
511,91,8363,1,2,1:2:0:0:
511,91,8560,2,0,P|461:51|381:56,1,125.400003826904,2|2,3:2|3:2,0:0:0:0:
281,84,9350,1,2,0:2:0:0:
281,84,9547,6,0,L|140:73,1,125.400003826904,6|2,3:2|1:2,0:0:0:0:
99,101,10139,2,0,P|70:165|84:231,1,125.400003826904,2|2,0:2|0:0,0:0:0:0:
180,300,10929,1,2,0:2:0:0:
180,300,11126,2,0,L|301:299,2,94.0500028701783,2|2|2,3:2|3:2|3:2,0:0:0:0:
130,260,11916,2,0,P|122:212|156:135,1,125.400003826904,2|2,3:2|1:2,0:0:0:0:
262,77,12705,6,0,L|384:67,2,94.0500028701783,2|2|2,3:2|3:2|0:2,0:0:0:0:
225,127,13495,2,0,L|103:137,2,94.0500028701783,2|2|8,3:2|3:2|0:3,0:0:0:0:
272,167,14284,2,0,P|282:230|263:269,1,94.0500028701783,10|2,3:3|1:2,0:0:0:0:
194,310,14876,2,0,P|128:329|26:198,1,250.800007653809,4|8,1:3|1:3,0:0:0:0:
59,167,15863,6,0,L|71:53,1,102.599996868897,6|0,3:2|3:2,0:0:0:0:
115,42,16455,1,2,0:2:0:0:
115,42,16652,2,0,P|173:50|223:34,1,102.599996868897,2|2,3:2|3:2,0:0:0:0:
314,64,17442,2,0,P|369:54|435:63,1,102.599996868897,2|2,3:2|3:2,0:0:0:0:
456,87,18034,2,0,L|461:206,1,102.599996868897,2|2,3:2|0:2,0:0:0:0:
490,232,18626,1,2,3:2:0:0:
435,319,19021,6,0,L|319:305,1,102.599996868897,2|0,3:2|3:2,0:0:0:0:
289,329,19613,1,2,0:2:0:0:
289,329,19810,2,0,L|167:334,1,102.599996868897,2|2,3:2|3:2,0:0:0:0:
93,288,20600,2,0,P|76:245|87:183,1,102.599996868897,2|2,3:2|3:2,0:0:0:0:
124,159,21192,2,0,L|225:143,1,102.599996868897,2|2,3:2|0:2,0:0:0:0:
274,158,21784,1,2,3:2:0:0:
358,99,22179,5,4,3:2:0:0:
285,35,22573,1,2,3:2:0:0:
285,35,22771,1,2,0:2:0:0:
185,60,23166,1,0,3:2:0:0:
185,60,23363,2,0,L|132:55,1,51.2999984344483,2|0,3:2|0:2,0:0:0:0:
99,92,23758,2,0,L|88:214,1,102.599996868897,2|2,3:2|3:2,0:0:0:0:
72,295,24547,1,2,3:2:0:0:
154,356,24942,1,2,3:2:0:0:
244,308,25337,6,0,L|361:300,1,102.599996868897,6|2,3:2|3:2,0:0:0:0:
396,287,25929,2,0,P|409:248|397:178,1,102.599996868897,2|2,0:2|0:2,0:0:0:0:
372,145,26521,1,0,3:2:0:0:
283,197,26916,2,0,L|162:190,1,102.599996868897,2|2,3:2|3:2,0:0:0:0:
83,157,27705,1,2,3:2:0:0:
93,54,28100,1,2,3:2:0:0:
190,21,28495,6,0,L|310:17,1,102.599996868897,6|0,3:2|1:2,0:0:0:0:
340,37,29087,1,2,0:2:0:0:
340,37,29284,2,0,L|465:41,1,102.599996868897,2|2,3:2|1:2,0:0:0:0:
498,126,30073,2,0,L|484:244,1,102.599996868897,2|2,3:2|3:2,0:0:0:0:
456,270,30666,2,0,P|409:284|349:260,1,102.599996868897,2|0,1:2|3:2,0:0:0:0:
331,225,31258,1,2,1:2:0:0:
250,162,31652,6,0,P|194:145|146:151,1,102.599996868897,2|0,3:2|1:2,0:0:0:0:
108,179,32245,1,2,0:2:0:0:
108,179,32442,2,0,L|99:302,1,102.599996868897,2|2,3:2|1:2,0:0:0:0:
158,365,33231,2,0,P|197:376|262:365,1,102.599996868897,2|2,3:2|3:2,0:0:0:0:
296,334,33823,2,0,P|345:320|395:325,1,102.599996868897,2|0,1:2|3:2,0:0:0:0:
440,352,34416,1,2,1:2:0:0:
510,277,34810,5,4,3:2:0:0:
444,205,35205,1,0,1:2:0:0:
444,205,35402,2,0,L|442:136,1,51.2999984344483,2|0,0:2|3:2,0:0:0:0:
413,55,35995,1,2,1:2:0:0:
316,89,36389,2,0,P|295:135|292:186,1,102.599996868897,2|2,3:2|3:2,0:0:0:0:
269,232,36981,1,0,1:2:0:0:
269,232,37179,2,0,P|217:239|157:216,1,102.599996868897,2|2,3:2|1:2,0:0:0:0:
87,163,37968,5,2,3:2:0:0:
66,65,38363,1,2,1:2:0:0:
66,65,38560,1,2,0:2:0:0:
161,28,38955,1,0,3:2:0:0:
161,28,39152,2,0,L|268:22,1,102.599996868897,2|0,1:2|3:2,0:0:0:0:
354,69,39942,2,0,L|480:60,2,102.599996868897,2|2|2,3:2|3:2|1:2,0:0:0:0:
258,130,41126,6,0,L|195:120,1,57,2|2,3:2|3:2,0:0:0:0:
99,171,41718,2,0,P|91:201|96:235,1,57,2|2,3:2|3:2,3:0:0:0:
168,312,42310,2,0,L|234:326,1,57,2|2,3:2|3:2,0:0:0:0:
334,363,42902,1,2,3:2:0:0:
334,363,43100,2,0,L|449:360,2,114,6|8|2,3:2|1:3|1:2,0:0:0:0:
235,304,44284,6,0,P|229:267|235:230,1,57,2|2,3:2|3:2,0:0:0:0:
334,200,44876,2,0,L|414:196,1,57,2|2,3:2|3:2,0:0:0:0:
493,147,45468,2,0,P|494:118|488:90,1,57,2|2,3:2|3:2,0:0:0:0:
399,29,46060,1,2,3:2:0:0:
399,29,46258,2,0,L|277:20,1,114,6|8,3:2|1:3,0:0:0:0:
178,61,47047,2,0,L|56:52,1,114,0|2,1:2|3:2,0:0:0:0:
19,88,47639,6,0,P|2:143|20:219,1,114,2|2,0:3|1:2,0:0:0:0:
57,229,48231,2,0,L|158:243,2,85.5,2|2|2,3:2|3:2|0:3,0:0:0:0:
5,127,49218,2,0,P|18:71|79:37,1,114,2|2,0:3|1:2,0:0:0:0:
118,47,49810,2,0,L|224:41,2,85.5,2|2|2,3:2|3:2|2:3,0:0:0:0:
38,128,50797,5,2,0:3:0:0:
38,128,50995,2,0,P|16:172|52:246,2,114,2|0|0,1:2|3:2|1:2,0:0:0:0:
151,133,52179,2,0,L|257:120,2,85.5,6|2|2,3:2|3:2|0:2,0:0:0:0:
117,177,52968,2,0,P|110:227|145:279,1,114,4|0,3:2|1:2,0:0:0:0:
253,246,53758,6,0,L|261:147,2,85.5,2|2|2,3:2|3:2|0:2,0:0:0:0:
292,286,54547,2,0,P|345:311|414:289,1,114,2|0,3:2|1:3,0:0:0:0:
478,220,55337,2,0,L|483:103,1,114,2|0,3:2|3:2,0:0:0:0:
452,57,55929,1,0,1:2:0:0:
452,57,56126,2,0,L|330:40,1,114,2|2,3:2|1:2,0:0:0:0:
300,83,56718,1,0,1:2:0:0:
300,83,56916,6,0,P|275:146|298:228,1,136.799995825195,6|0,3:2|1:2,0:0:0:0:
353,231,57508,1,2,0:2:0:0:
353,231,57705,2,0,P|410:279|379:352,1,136.799995825195,2|0,3:2|1:2,0:0:0:0:
265,357,58495,2,0,L|104:348,1,136.799995825195,2|0,3:2|1:2,0:0:0:0:
71,343,59087,1,0,3:2:0:0:
71,343,59284,2,0,P|47:291|77:212,1,136.799995825195,2|0,3:2|1:2,0:0:0:0:
177,132,60073,5,2,3:2:0:0:
279,222,60468,1,2,1:2:0:0:
384,135,60863,1,2,3:2:0:0:
490,221,61258,1,2,1:2:0:0:
490,221,61455,2,0,B|498:311|498:311|468:365,1,136.799995825195,2|2,0:2|0:2,0:2:0:0:
415,336,62047,2,0,B|333:304|333:304|279:341,2,136.799995825195,2|0|0,1:2|3:0|1:2,0:0:0:0:
499,227,63231,6,0,P|510:178|479:83,1,136.799995825195,4|2,3:2|1:2,0:0:0:0:
368,27,64021,2,0,L|218:20,1,136.799995825195,2|0,3:2|1:2,0:0:0:0:
177,47,64613,1,2,0:2:0:0:
177,47,64810,2,0,P|151:113|171:204,1,136.799995825195,2|0,3:2|1:2,0:2:0:0:
209,222,65402,1,2,3:2:0:0:
209,222,65600,2,0,L|362:233,1,136.799995825195,2|0,3:2|1:2,0:0:0:0:
461,158,66389,6,0,P|474:120|447:46,2,102.599996868897,2|2|2,3:2|3:2|0:2,0:0:0:0:
431,211,67179,2,0,P|418:249|445:323,2,102.599996868897,2|2|2,3:2|3:2|0:2,0:0:0:0:
477,170,67968,2,0,P|489:75|468:25,1,136.799995825195,6|0,3:2|1:2,0:0:0:0:
418,35,68560,1,0,1:2:0:0:
418,35,68758,2,0,B|376:58|376:58|281:47,1,136.799995825195,8|4,3:3|3:3,0:0:0:0:
155,11,69547,6,0,B|169:42|164:79|151:65|145:109|165:144,1,136.799995825195,6|0,3:2|1:2,0:2:0:0:
215,190,70139,1,2,0:2:0:0:
215,190,70337,2,0,L|360:181,1,136.799995825195,2|0,3:2|1:2,0:0:0:0:
479,229,71126,2,0,P|498:297|438:359,1,136.799995825195,2|0,3:2|1:2,0:2:0:0:
407,362,71718,1,0,3:2:0:0:
407,362,71916,2,0,L|256:349,1,136.799995825195,2|0,3:2|1:2,0:0:0:0:
134,328,72705,5,2,3:2:0:0:
85,200,73100,1,2,1:2:0:0:
171,93,73495,1,2,3:2:0:0:
306,113,73889,1,2,1:2:0:0:
355,240,74284,2,0,L|351:367,2,102.599996868897,2|2|0,3:2|3:2|1:2,0:2:0:0:
397,194,75073,2,0,B|440:180|440:180|466:135|444:86,1,136.799995825195,2|0,3:2|1:2,0:2:0:0:
320,38,75863,6,0,L|165:29,1,136.799995825195,6|0,3:2|1:2,0:2:0:0:
55,78,76652,2,0,P|25:144|41:233,1,136.799995825195,2|0,3:2|1:2,0:2:0:0:
84,247,77245,1,2,0:2:0:0:
84,247,77442,2,0,L|232:248,1,136.799995825195,2|0,3:2|1:2,0:2:0:0:
326,334,78231,1,2,3:2:0:0:
455,287,78626,1,2,1:2:0:0:
478,151,79021,6,0,L|482:1,2,136.799995825195,6|0|0,3:2|1:2|3:2,0:2:0:0:
437,287,80205,1,2,1:2:0:0:
437,287,80402,2,0,P|350:300|291:205,1,205.199993737793,2|0,0:2|1:2,0:0:0:0:
230,88,81389,2,0,P|179:58|90:74,1,136.799995825195,8|4,3:3|3:3,0:0:0:0:
63,112,81981,1,2,3:2:0:0:
63,112,82179,6,0,L|54:240,2,102.599996868897,6|2|2,1:2|3:2|3:2,0:0:0:0:
117,84,82968,2,0,P|164:72|237:101,2,102.599996868897,2|6|2,3:2|1:2|3:2,0:2:0:0:
83,135,83758,2,0,B|76:274|76:274|129:332,1,205.199993737793,0|4,1:2|1:2,0:0:0:0:
258,293,84745,5,8,3:3:0:0:
258,293,84942,2,0,L|405:302,1,136.799995825195,0|4,1:2|3:3,0:0:0:0:
455,294,85534,2,0,P|480:226|463:161,1,136.799995825195,6|8,1:2|0:3,0:0:0:0:
410,136,86126,2,0,L|262:126,1,136.799995825195,2|0,1:2|1:2,0:0:0:0:
167,59,86916,5,6,1:2:0:0:
66,128,87310,1,2,1:2:0:0:
66,128,87508,1,2,0:2:0:0:
95,250,87902,2,0,L|88:318,2,62.7000019134522,2|2|2,3:2|1:2|0:2,0:0:0:0:
149,217,88495,1,2,3:2:0:0:
239,312,88889,1,2,1:2:0:0:
239,312,89087,1,2,3:2:0:0:
353,261,89481,1,2,3:2:0:0:
353,261,89679,1,2,1:2:0:0:
468,309,90073,5,2,3:2:0:0:
511,191,90468,1,2,1:2:0:0:
511,191,90666,1,2,0:2:0:0:
394,143,91060,2,0,L|392:72,2,62.7000019134522,2|2|2,3:2|1:2|0:2,0:0:0:0:
356,193,91652,1,2,3:2:0:0:
241,138,92047,1,2,1:2:0:0:
241,138,92245,2,0,P|170:108|110:121,1,125.400003826904,2|2,3:2|3:2,0:0:0:0:
40,207,93034,1,2,0:2:0:0:
40,207,93231,6,0,B|20:252|20:252|36:342,1,125.400003826904,6|2,3:2|1:2,0:0:0:0:
85,362,93823,2,0,B|121:354|121:354|152:360|152:360|231:349,1,125.400003826904,2|2,0:2|0:0,0:0:0:0:
307,277,94613,1,2,0:2:0:0:
307,277,94810,2,0,L|311:180,2,94.0500028701783,6|2|2,3:2|3:2|1:2,0:0:0:0:
348,324,95600,2,0,P|405:341|476:316,1,125.400003826904,2|2,1:2|1:2,0:0:0:0:
505,227,96389,5,2,0:2:0:0:
386,59,97179,1,2,0:2:0:0:
225,187,97968,2,0,L|133:181,2,76.9499976516724,2|6|6,0:2|3:2|1:2,0:0:0:0:
256,192,98758,12,0,102705,0:2:0:0:
