osu file format v14

[General]
AudioFilename: true.mp3
AudioLeadIn: 0
PreviewTime: 0
Countdown: 0
SampleSet: Soft
StackLeniency: 0.4
Mode: 0
LetterboxInBreaks: 0
WidescreenStoryboard: 0

[Editor]
DistanceSpacing: 0.5
BeatDivisor: 4
GridSize: 32
TimelineZoom: 2.1

[Metadata]
Title:True Memories Symphony
TitleUnicode:True Memories Symphony
Artist:Sasaki Sayaka
ArtistUnicode:佐咲紗花
Creator:Lasse
Version:Insane
Source:フルウソ -Complete Four Seasons-
Tags:campus eroge visual novel opening short version Ayumi.
BeatmapID:1559617
BeatmapSetID:739052

[Difficulty]
HPDrainRate:7.2
CircleSize:4
OverallDifficulty:7.8
ApproachRate:8.6
SliderMultiplier:1.76
SliderTickRate:1

[Events]
//Background and Video events
0,0,"d.jpg",0,0
//Break Periods
//Storyboard Layer 0 (Background)
//Storyboard Layer 1 (Fail)
//Storyboard Layer 2 (Pass)
//Storyboard Layer 3 (Foreground)
//Storyboard Sound Samples

[TimingPoints]
74,394.736842105263,4,2,0,70,1,0
74,-76.9230769230769,4,2,0,70,0,0
3231,-90.9090909090909,4,2,0,70,0,0
3527,-90.9090909090909,4,2,0,5,0,0
3626,-90.9090909090909,4,2,0,70,0,0
5106,-90.9090909090909,4,2,0,5,0,0
5205,-90.9090909090909,4,2,0,70,0,0
6685,-90.9090909090909,4,2,0,5,0,0
6784,-90.9090909090909,4,2,0,70,0,0
8264,-90.9090909090909,4,2,0,5,0,0
8363,-90.9090909090909,4,2,0,70,0,0
9843,-90.9090909090909,4,2,0,5,0,0
9942,-90.9090909090909,4,2,0,70,0,0
15863,-111.111111111111,4,2,0,60,0,0
18922,-111.111111111111,4,2,0,5,0,0
19021,-111.111111111111,4,2,0,60,0,0
27212,-111.111111111111,4,2,0,5,0,0
27310,-111.111111111111,4,2,0,60,0,0
27606,-111.111111111111,4,2,0,5,0,0
27705,-111.111111111111,4,2,0,60,0,0
28001,-111.111111111111,4,2,0,5,0,0
28100,-111.111111111111,4,2,0,60,0,0
28396,-111.111111111111,4,2,0,5,0,0
28495,-111.111111111111,4,2,0,60,0,0
31554,-111.111111111111,4,2,0,5,0,0
31652,-111.111111111111,4,2,0,60,0,0
39843,-111.111111111111,4,2,0,5,0,0
39942,-111.111111111111,4,2,0,60,0,0
41126,-99.9999999999999,4,2,0,65,0,0
56916,-83.3333333333333,4,2,0,75,0,1
69448,-83.3333333333333,4,2,0,75,0,0
69547,-83.3333333333333,4,2,0,75,0,1
75468,-111.111111111111,4,2,0,75,0,0
75863,-83.3333333333333,4,2,0,75,0,0
81981,-83.3333333333333,4,2,0,75,0,0
82179,-71.4285714285714,4,2,0,75,0,1
82771,-71.4285714285714,4,2,0,75,0,0
82968,-71.4285714285714,4,2,0,75,0,1
83560,-71.4285714285714,4,2,0,75,0,0
83758,-71.4285714285714,4,2,0,70,0,0
86126,-71.4285714285714,4,2,0,71,0,0
86225,-71.4285714285714,4,2,0,72,0,0
86323,-71.4285714285714,4,2,0,73,0,0
86422,-71.4285714285714,4,2,0,74,0,0
86521,-71.4285714285714,4,2,0,75,0,0
86620,-71.4285714285714,4,2,0,76,0,0
86718,-71.4285714285714,4,2,0,77,0,0
86817,-71.4285714285714,4,2,0,78,0,0
86916,-90.9090909090909,4,2,0,70,0,0
87212,-90.9090909090909,4,2,0,5,0,0
87310,-90.9090909090909,4,2,0,70,0,0
88791,-90.9090909090909,4,2,0,5,0,0
88889,-90.9090909090909,4,2,0,70,0,0
90370,-90.9090909090909,4,2,0,5,0,0
90468,-90.9090909090909,4,2,0,70,0,0
91948,-90.9090909090909,4,2,0,5,0,0
92047,-90.9090909090909,4,2,0,70,0,0
93527,-90.9090909090909,4,2,0,5,0,0
93626,-90.9090909090909,4,2,0,70,0,0
96389,-90.9090909090909,4,2,0,50,0,0
98264,-90.9090909090909,4,2,0,70,0,0
98560,-90.9090909090909,4,2,0,60,0,0
98659,-90.9090909090909,4,2,0,30,0,0
102705,-90.9090909090909,4,2,0,5,0,0

[Colours]
Combo1 : 250,190,230
Combo2 : 130,200,230
Combo3 : 255,230,140
Combo4 : 170,245,170

[HitObjects]
352,366,74,6,0,P|248:317|137:289,1,228.799989526368,4|0,3:2|0:2,0:2:0:0:
378,72,666,2,0,P|387:185|418:295,1,228.799989526368,4|0,3:2|0:2,0:2:0:0:
111,197,1258,2,0,P|204:131|284:50,1,228.799989526368,4|4,3:2|0:3,0:2:0:0:
477,31,1850,5,10,0:3:0:0:
443,35,1948,1,8,0:3:0:0:
411,50,2047,1,8,0:3:0:0:
387,75,2146,1,8,0:3:0:0:
373,107,2245,1,8,0:3:0:0:
371,142,2343,1,8,0:3:0:0:
382,175,2442,1,8,1:3:0:0:
512,281,2639,1,4,1:2:0:0:
512,281,3231,6,0,P|445:262|390:320,1,145.200004431152,6|0,3:2|0:2,0:2:0:0:
360,378,3626,1,2,1:2:0:0:
245,288,3823,2,0,P|235:240|241:192,1,96.8000029541017,2|0,0:2|3:2,0:2:0:0:
301,139,4120,1,0,1:2:0:0:
329,145,4218,1,2,3:2:0:0:
422,25,4416,1,2,1:2:0:0:
512,138,4613,1,2,0:2:0:0:
329,145,4810,6,0,P|252:138|176:130,1,145.200004431152,2|0,3:2|0:2,0:2:0:0:
132,75,5205,1,2,1:2:0:0:
17,194,5402,1,2,3:2:0:0:
24,222,5501,1,0,1:2:0:0:
141,293,5698,1,0,1:2:0:0:
150,265,5797,1,2,3:2:0:0:
260,186,5995,2,0,P|307:177|355:174,1,96.8000029541017,0|0,1:2|0:2,0:2:0:0:
455,357,6389,6,0,P|439:298|429:206,1,145.200004431152,2|0,3:2|0:2,0:2:0:0:
472,150,6784,1,2,1:2:0:0:
416,301,6981,2,0,P|368:309|320:312,1,96.8000029541017,2|0,0:2|3:2,0:2:0:0:
246,289,7277,1,0,1:2:0:0:
217,282,7376,1,2,3:2:0:0:
89,374,7573,1,2,1:2:0:0:
0,298,7771,1,2,0:2:0:0:
107,175,7968,6,0,P|118:106|96:34,1,145.200004431152,2|0,3:2|0:2,0:2:0:0:
27,2,8363,1,2,1:2:0:0:
0,167,8560,1,2,3:2:0:0:
7,195,8659,1,0,1:2:0:0:
147,101,8856,1,0,1:2:0:0:
172,87,8955,1,2,3:2:0:0:
200,90,9054,1,0,3:3:0:0:
223,106,9152,1,0,1:3:0:0:
261,208,9350,1,2,0:2:0:0:
401,146,9547,6,0,P|408:69|422:-18,1,145.200004431152,6|0,3:2|0:2,0:2:0:0:
511,57,9942,2,0,P|471:81|424:76,1,96.8000029541017,2|0,1:2|0:2,0:2:0:0:
253,7,10337,1,2,3:2:0:0:
263,33,10435,1,0,1:2:0:0:
160,129,10633,1,2,3:2:0:0:
153,100,10731,1,0,1:2:0:0:
51,33,10929,1,2,0:2:0:0:
0,155,11126,6,0,P|4:198|8:261,1,96.8000029541017,2|0,3:2|0:2,0:2:0:0:
1,329,11422,2,0,P|17:329|53:315,1,48.4000014770508,2|0,3:2|1:2,0:2:0:0:
183,214,11718,2,0,P|198:209|236:214,1,48.4000014770508,2|0,3:2|1:2,0:2:0:0:
297,266,11916,1,2,3:2:0:0:
320,283,12014,2,0,P|367:287|418:279,1,96.8000029541017,0|0,1:2|3:2,0:2:0:0:
477,224,12310,2,0,P|477:178|482:119,1,96.8000029541017,2|0,1:2|0:2,0:2:0:0:
354,10,12705,6,0,P|362:58|367:112,1,96.8000029541017,2|0,3:2|0:2,0:2:0:0:
318,167,13001,2,0,P|289:158|258:154,1,48.4000014770508,2|0,3:2|1:2,0:2:0:0:
103,171,13297,2,0,P|79:166|56:159,1,48.4000014770508,2|0,0:2|1:2,0:2:0:0:
19,88,13495,1,2,3:2:0:0:
30,61,13593,1,0,1:0:0:0:
169,12,13791,1,2,3:2:0:0:
194,25,13889,1,0,1:2:0:0:
271,155,14087,2,8,P|274:180|277:216,1,48.4000014770508,8|8,0:3|0:3,0:3:0:0:
351,266,14284,6,0,P|394:258|447:255,1,96.8000029541017,10|8,3:3|3:3,3:2:0:0:
510,297,14580,1,2,1:2:0:0:
510,326,14679,2,0,P|508:350|505:374,1,48.4000014770508,8|8,3:3|3:3,3:2:0:0:
393,346,14876,1,4,1:3:0:0:
364,349,14975,1,4,3:3:0:0:
335,353,15073,1,12,3:3:0:0:
228,262,15271,1,12,3:3:0:0:
332,116,15468,1,8,1:3:0:0:
362,153,15567,1,8,1:3:0:0:
355,201,15666,1,8,1:3:0:0:
203,29,15863,6,0,P|193:107|190:186,1,158.399995166016,6|0,3:2|3:2,0:2:0:0:
95,298,16455,1,2,0:2:0:0:
102,280,16554,1,2,0:2:0:0:
103,261,16652,2,0,P|95:222|83:184,1,79.1999975830079,2|0,3:2|0:2,0:2:0:0:
247,251,17047,2,0,P|269:217|287:182,1,79.1999975830079,2|0,3:2|0:2,0:2:0:0:
356,346,17442,2,0,P|395:338|433:326,1,79.1999975830079,2|0,3:2|0:2,0:2:0:0:
450,172,17837,1,2,3:2:0:0:
310,102,18034,1,2,3:2:0:0:
310,102,18133,1,0,3:2:0:0:
310,102,18231,1,0,3:0:0:0:
247,251,18429,1,2,0:0:0:0:
152,146,18626,2,0,P|161:77|171:20,1,118.799996374512,2|0,3:2|0:2,0:2:0:0:
182,14,19021,6,0,P|186:64|186:198,1,158.399995166016,2|0,3:2|3:2,0:2:0:0:
64,245,19613,1,2,0:2:0:0:
80,234,19712,1,2,0:2:0:0:
99,231,19810,2,0,P|140:243|177:268,1,79.1999975830079,2|0,3:2|0:2,0:2:0:0:
268,344,20205,2,0,P|257:302|261:257,1,79.1999975830079,2|0,3:2|0:2,0:2:0:0:
282,142,20600,2,0,P|251:171|210:191,1,79.1999975830079,2|0,3:2|0:2,0:2:0:0:
70,115,20995,1,2,3:2:0:0:
166,18,21192,1,2,3:2:0:0:
166,18,21291,1,0,3:2:0:0:
166,18,21389,2,0,P|182:56|190:101,1,79.1999975830079,0|2,3:2|0:2,0:2:0:0:
118,208,21784,1,2,3:2:0:0:
50,115,21981,1,2,0:2:0:0:
185,18,22179,5,4,3:2:0:0:
204,19,22573,1,2,3:2:0:0:
336,73,22771,2,0,P|385:66|430:57,1,79.1999975830079,2|0,0:2|3:2,0:2:0:0:
434,61,23067,2,0,P|454:50|476:33,1,39.5999987915039,2|0,1:2|3:2,0:2:0:0:
369,186,23363,2,0,P|320:179|275:170,1,79.1999975830079,2|0,3:2|0:2,0:2:0:0:
142,77,23758,2,0,P|160:111|176:148,1,79.1999975830079,2|0,3:2|0:2,0:2:0:0:
78,269,24152,2,0,P|67:231|59:192,1,79.1999975830079,2|0,3:2|0:2,0:2:0:0:
246,73,24547,2,0,P|264:107|280:144,1,79.1999975830079,2|0,3:2|0:2,0:2:0:0:
171,251,24942,2,0,P|160:213|152:174,1,79.1999975830079,2|0,3:2|0:2,0:2:0:0:
345,257,25337,6,0,P|307:245|267:241,1,79.1999975830079,6|0,3:2|0:2,0:2:0:0:
359,359,25731,1,2,3:2:0:0:
458,305,25929,2,0,P|464:265|465:226,1,79.1999975830079,2|0,0:2|3:2,0:2:0:0:
400,61,26323,1,2,0:2:0:0:
273,152,26521,2,0,P|312:146|351:145,1,79.1999975830079,0|0,3:2|0:2,0:2:0:0:
369,155,26817,1,0,1:2:0:0:
382,169,26916,2,0,P|376:244|366:300,1,118.799996374512,2|0,3:2|0:2,0:2:0:0:
299,312,27310,2,0,P|347:254|388:215,1,118.799996374512,2|0,3:2|0:2,0:2:0:0:
450,245,27705,2,0,P|376:262|320:270,1,118.799996374512,2|0,3:2|0:2,0:2:0:0:
288,210,28100,2,0,P|357:238|407:265,1,118.799996374512,2|0,3:2|0:2,0:2:0:0:
403,371,28495,6,0,P|363:306|330:207,1,158.399995166016,6|0,3:2|1:2,0:2:0:0:
460,120,29087,1,2,0:2:0:0:
453,138,29185,1,2,0:2:0:0:
440,153,29284,2,0,P|400:147|363:133,1,79.1999975830079,2|0,3:2|0:2,0:2:0:0:
304,275,29679,2,0,P|280:243|263:207,1,79.1999975830079,2|0,1:2|0:2,0:2:0:0:
121,265,30073,2,0,P|126:225|140:188,1,79.1999975830079,2|0,3:2|0:2,0:2:0:0:
214,50,30468,1,2,3:2:0:0:
307,153,30666,2,0,P|270:152|224:142,1,79.1999975830079,2|0,1:2|3:2,0:2:0:0:
209,137,30962,1,2,1:2:0:0:
193,125,31060,1,0,3:2:0:0:
76,12,31258,2,0,P|78:62|80:129,1,118.799996374512,2|0,1:2|0:2,0:2:0:0:
72,149,31652,6,0,P|68:99|159:50,1,158.399995166016,2|0,3:2|1:2,0:2:0:0:
282,114,32245,1,2,0:2:0:0:
268,128,32343,1,2,0:2:0:0:
254,142,32442,2,0,P|208:141|169:125,1,79.1999975830079,2|0,3:2|0:2,0:2:0:0:
268,273,32837,2,0,P|291:233|325:207,1,79.1999975830079,2|0,1:2|0:2,0:2:0:0:
147,219,33231,2,0,P|169:259|174:301,1,79.1999975830079,2|0,3:2|0:2,0:2:0:0:
59,379,33626,1,2,3:2:0:0:
0,269,33823,2,0,P|39:271|77:281,1,79.1999975830079,2|0,1:2|3:2,0:2:0:0:
91,295,34120,1,2,1:2:0:0:
102,311,34218,1,0,3:2:0:0:
189,208,34416,1,2,1:2:0:0:
60,167,34613,1,2,0:2:0:0:
111,328,34810,5,4,3:2:0:0:
116,347,35205,1,0,1:2:0:0:
289,384,35402,2,0,P|285:339|283:301,1,79.1999975830079,2|0,0:2|3:2,0:2:0:0:
292,286,35698,2,0,P|300:266|307:235,1,39.5999987915039,2|0,1:2|3:2,0:2:0:0:
460,186,35995,2,0,P|411:179|366:170,1,79.1999975830079,2|0,1:2|0:2,0:2:0:0:
234,82,36389,2,0,P|283:75|328:66,1,79.1999975830079,2|0,3:2|0:2,0:2:0:0:
164,0,36784,1,2,3:2:0:0:
152,151,36981,1,0,1:2:0:0:
68,59,37179,1,2,3:2:0:0:
86,66,37277,1,0,1:2:0:0:
148,169,37475,1,0,3:2:0:0:
143,188,37573,2,0,P|143:228|146:267,1,79.1999975830079,2|0,1:2|0:2,0:2:0:0:
309,349,37968,6,0,P|312:309|312:269,1,79.1999975830079,2|0,3:2|0:2,0:2:0:0:
265,132,38363,1,2,1:2:0:0:
143,188,38560,2,0,P|103:185|41:170,1,79.1999975830079,2|0,0:2|3:2,0:2:0:0:
48,165,38856,1,2,1:2:0:0:
38,147,38955,1,0,3:2:0:0:
98,18,39152,1,2,1:2:0:0:
240,51,39350,1,2,1:2:0:0:
259,55,39448,1,0,1:2:0:0:
278,53,39547,2,0,P|342:45|397:44,1,118.799996374512,0|0,3:2|0:2,0:2:0:0:
414,50,39942,2,0,P|401:90|387:141,1,79.1999975830079,2|0,3:2|1:2,0:2:0:0:
438,286,40337,1,2,3:2:0:0:
444,267,40435,1,0,1:2:0:0:
387,145,40633,1,0,3:2:0:0:
381,163,40731,2,0,P|332:159|284:145,1,79.1999975830079,2|0,1:2|0:2,0:2:0:0:
118,27,41126,5,2,3:2:0:0:
241,320,41323,1,2,3:2:0:0:
252,333,41718,5,2,3:2:0:0:
361,36,41916,1,2,3:2:0:0:
352,20,42310,5,2,3:2:0:0:
52,219,42508,1,2,3:2:0:0:
32,224,42902,5,2,3:2:0:0:
427,308,43100,1,6,3:2:0:0:
444,310,43495,5,8,1:3:0:0:
466,304,43594,1,0,1:2:0:0:
487,276,43693,1,8,0:3:0:0:
488,233,43791,1,8,0:3:0:0:
448,198,43890,5,0,1:2:0:0:
261,206,44087,1,0,3:2:0:0:
406,36,44284,5,2,3:2:0:0:
337,348,44481,1,2,3:2:0:0:
329,364,44876,5,2,3:2:0:0:
244,63,45073,1,2,3:2:0:0:
236,47,45468,5,2,3:2:0:0:
165,338,45666,1,2,3:2:0:0:
158,354,46060,5,2,3:2:0:0:
79,10,46258,1,6,3:2:0:0:
62,5,46652,5,8,1:3:0:0:
40,11,46751,1,0,1:2:0:0:
19,39,46850,1,8,0:3:0:0:
18,82,46948,1,8,0:3:0:0:
58,117,47047,5,0,1:2:0:0:
238,86,47245,1,0,3:2:0:0:
182,13,47442,5,2,3:2:0:0:
175,224,47639,1,2,0:3:0:0:
69,138,47837,1,2,3:2:0:0:
269,184,48034,1,2,1:2:0:0:
128,299,48231,6,0,P|86:288|15:290,1,88,2|2,3:2|0:3,0:2:0:0:
19,281,48527,2,0,P|2:294|-13:309,1,44,2|0,3:2|1:2,0:2:0:0:
160,374,48823,2,0,P|202:362|246:361,1,88,2|0,0:3|3:2,0:2:0:0:
99,183,49218,5,2,0:3:0:0:
64,367,49416,1,2,3:2:0:0:
85,165,49613,1,2,1:2:0:0:
232,259,49810,6,0,P|275:257|318:246,1,88,2|2,3:2|0:3,0:2:0:0:
340,249,50106,2,0,P|357:235|373:220,1,44,2|0,3:2|1:2,0:2:0:0:
512,316,50402,2,0,P|469:314|426:303,1,88,2|0,2:3|3:2,0:2:0:0:
307,140,50797,5,2,0:3:0:0:
472,138,50995,2,0,P|494:77|399:75,1,176,2|0,1:2|3:2,0:2:0:0:
388,198,51587,2,0,P|393:245|395:302,1,88,2|0,0:3|1:2,0:2:0:0:
293,380,51981,1,2,0:2:0:0:
156,253,52179,6,0,P|201:246|266:240,1,88,6|0,3:2|0:2,0:2:0:0:
265,242,52475,2,0,P|285:257|300:280,1,44,2|0,3:2|1:2,0:2:0:0:
142,365,52771,1,2,0:2:0:0:
59,211,52968,6,0,P|94:182|147:144,1,88,4|0,3:2|0:2,0:2:0:0:
150,152,53264,1,2,3:2:0:0:
171,150,53363,2,0,P|208:142|269:128,1,88,0|2,1:2|0:3,0:2:0:0:
438,66,53758,6,0,P|401:58|340:44,1,88,2|2,3:2|0:3,0:2:0:0:
341,66,54054,2,0,P|350:85|358:106,1,44,2|0,3:2|1:2,0:2:0:0:
329,237,54350,1,2,0:2:0:0:
480,145,54547,6,0,P|468:181|450:240,1,88,2|2,3:2|0:3,0:2:0:0:
431,229,54843,2,0,P|419:210|405:193,1,44,2|0,0:2|1:3,0:2:0:0:
277,153,55139,1,2,0:2:0:0:
123,301,55337,5,2,3:2:0:0:
84,128,55534,1,2,1:2:0:0:
96,136,55600,1,2,0:2:0:0:
106,148,55666,1,2,0:2:0:0:
111,159,55731,1,0,3:2:0:0:
10,297,55929,5,0,1:2:0:0:
4,275,56027,1,2,1:2:0:0:
8,253,56126,1,2,3:2:0:0:
119,172,56323,5,0,1:2:0:0:
142,183,56422,1,0,1:2:0:0:
168,183,56521,1,2,1:2:0:0:
191,171,56620,1,2,1:2:0:0:
217,167,56718,1,0,1:2:0:0:
243,170,56817,1,0,1:2:0:0:
265,183,56916,6,0,P|365:178|475:171,1,211.199993554688,6|0,3:2|1:2,0:2:0:0:
274,207,57508,1,2,0:2:0:0:
339,15,57705,1,2,3:2:0:0:
351,38,57804,1,0,1:2:0:0:
137,70,58001,1,2,3:2:0:0:
137,43,58100,1,0,1:2:0:0:
337,128,58297,1,2,0:2:0:0:
196,289,58495,6,0,P|206:183|217:79,1,211.199993554688,2|0,3:2|1:2,0:2:0:0:
358,219,59087,1,0,3:2:0:0:
331,217,59185,1,0,3:3:0:0:
305,211,59284,1,2,3:2:0:0:
284,193,59383,1,0,1:2:0:0:
391,60,59580,1,2,1:2:0:0:
412,75,59679,2,0,P|463:85|516:83,1,105.599996777344,0|2,1:2|0:2,0:2:0:0:
263,167,60073,6,0,P|212:157|159:159,1,105.599996777344,2|0,3:2|0:2,0:2:0:0:
367,290,60468,2,0,P|419:292|471:282,1,105.599996777344,2|0,1:2|0:2,0:2:0:0:
409,103,60863,1,2,3:2:0:0:
399,127,60962,1,0,1:2:0:0:
288,276,61159,1,0,3:2:0:0:
282,250,61258,1,2,1:2:0:0:
222,80,61455,6,0,P|175:70|100:69,1,105.599996777344,2|0,0:2|3:2,0:2:0:0:
0,224,61850,1,2,0:2:0:0:
22,26,62047,1,2,1:2:0:0:
112,216,62245,1,0,3:2:0:0:
137,223,62343,1,0,1:2:0:0:
248,87,62541,1,0,1:2:0:0:
222,80,62639,1,0,3:2:0:0:
305,256,62837,2,0,P|349:252|412:237,1,105.599996777344,0|0,1:2|0:2,0:2:0:0:
179,366,63231,6,0,P|178:289|172:208,1,158.399995166016,4|0,3:2|3:2,0:2:0:0:
115,147,63626,2,0,P|53:146|8:137,1,105.599996777344,2|0,1:2|0:2,0:2:0:0:
163,0,64021,1,2,3:2:0:0:
176,22,64120,1,2,1:2:0:0:
272,165,64317,1,2,3:2:0:0:
276,138,64416,1,0,1:2:0:0:
439,75,64613,1,2,0:2:0:0:
512,274,64810,6,0,P|403:253|299:243,1,211.199993554688,2|0,3:2|1:2,0:2:0:0:
110,334,65402,2,0,P|136:330|161:322,1,52.7999983886719,2|0,3:2|1:2,0:2:0:0:
201,215,65600,1,2,3:2:0:0:
193,189,65698,1,0,1:2:0:0:
51,101,65896,1,2,3:2:0:0:
28,115,65995,1,0,1:2:0:0:
6,289,66192,1,2,0:2:0:0:
129,125,66389,6,0,P|173:111|249:111,1,105.599996777344,2|0,3:2|0:2,0:2:0:0:
293,154,66685,2,0,P|294:177|304:205,1,52.7999983886719,2|0,3:2|1:2,0:2:0:0:
447,266,66981,1,2,0:2:0:0:
491,74,67179,1,2,3:2:0:0:
477,96,67277,1,0,1:2:0:0:
317,222,67475,1,2,3:2:0:0:
337,237,67573,1,0,1:2:0:0:
352,28,67771,1,2,0:2:0:0:
511,188,67968,5,6,3:2:0:0:
303,104,68166,1,0,1:2:0:0:
303,104,68264,1,0,1:2:0:0:
303,104,68363,2,0,P|263:102|233:92,1,52.7999983886719,0|0,1:2|3:2,0:2:0:0:
460,183,68560,2,0,P|486:182|512:188,1,52.7999983886719,0|0,1:2|3:2,0:2:0:0:
312,262,68758,5,8,3:3:0:0:
286,255,68856,1,8,3:3:0:0:
260,248,68955,1,8,3:3:0:0:
234,240,69054,1,8,3:3:0:0:
197,259,69152,5,4,3:3:0:0:
164,250,69251,1,4,3:3:0:0:
131,241,69350,1,4,3:3:0:0:
98,231,69448,1,4,3:3:0:0:
36,275,69547,6,0,P|49:189|51:57,1,211.199993554688,6|0,3:2|1:2,0:2:0:0:
197,259,70139,1,2,0:2:0:0:
291,85,70337,1,2,3:2:0:0:
265,91,70435,1,0,1:2:0:0:
342,255,70633,1,2,3:2:0:0:
368,253,70731,2,0,P|421:247|478:235,1,105.599996777344,0|2,1:2|0:2,0:2:0:0:
291,85,71126,6,0,P|197:69|66:69,1,211.199993554688,2|0,3:2|1:2,0:2:0:0:
0,224,71718,1,0,3:2:0:0:
26,219,71817,1,0,3:2:0:0:
46,201,71916,1,2,3:2:0:0:
55,176,72014,1,0,1:2:0:0:
23,4,72212,1,2,3:2:0:0:
7,25,72310,1,0,1:2:0:0:
46,201,72508,1,0,0:2:0:0:
176,70,72705,6,0,P|228:61|280:61,1,105.599996777344,2|0,3:2|0:2,0:2:0:0:
130,210,73100,2,0,P|77:218|25:218,1,105.599996777344,2|0,1:2|0:2,0:2:0:0:
87,4,73495,1,2,3:2:0:0:
94,29,73593,1,0,1:2:0:0:
230,168,73791,1,0,3:2:0:0:
255,161,73889,2,0,P|308:153|359:152,1,105.599996777344,2|0,1:2|0:2,0:2:0:0:
212,359,74284,6,0,P|205:307|207:231,1,105.599996777344,2|0,3:2|0:2,0:2:0:0:
276,233,74580,2,0,P|286:251|293:302,1,52.7999983886719,2|0,3:2|1:2,0:2:0:0:
74,171,74876,1,0,1:2:0:0:
75,144,74975,1,0,1:2:0:0:
86,120,75073,1,2,3:2:0:0:
105,102,75172,1,0,1:2:0:0:
266,64,75370,1,0,3:2:0:0:
288,76,75468,2,0,P|339:77|427:46,1,118.799996374512,0|0,1:2|1:2,0:2:0:0:
466,2,75863,6,0,P|435:69|435:224,1,211.199993554688,6|0,3:2|1:2,0:2:0:0:
485,361,76455,1,2,0:2:0:0:
313,268,76652,1,2,3:2:0:0:
337,258,76751,1,0,1:2:0:0:
269,371,76948,1,0,3:2:0:0:
241,365,77047,2,0,P|196:357|113:352,1,105.599996777344,0|2,1:2|0:2,0:2:0:0:
0,210,77442,6,0,P|95:205|215:188,1,211.199993554688,2|0,3:2|1:2,0:2:0:0:
357,69,78034,1,0,1:2:0:0:
335,53,78133,1,0,1:2:0:0:
308,50,78231,1,2,3:2:0:0:
282,57,78330,1,0,1:2:0:0:
367,224,78527,1,0,3:2:0:0:
390,212,78626,2,0,P|440:199|498:195,1,105.599996777344,2|0,1:2|0:2,0:2:0:0:
292,361,79021,6,0,P|294:277|261:139,1,211.199993554688,6|0,3:2|1:2,0:2:0:0:
131,19,79613,1,2,0:2:0:0:
21,157,79810,1,0,3:2:0:0:
45,165,79909,1,0,1:2:0:0:
216,94,80106,1,0,3:2:0:0:
192,81,80205,1,2,1:2:0:0:
102,250,80402,1,2,0:2:0:0:
41,65,80600,5,0,3:2:0:0:
47,39,80698,1,0,1:2:0:0:
235,2,80896,1,0,3:2:0:0:
252,22,80995,1,0,1:2:0:0:
435,139,81192,5,8,3:3:0:0:
435,107,81291,1,8,3:3:0:0:
414,83,81389,1,8,3:3:0:0:
381,80,81488,1,8,3:3:0:0:
356,100,81587,1,4,3:3:0:0:
357,137,81685,1,4,3:3:0:0:
338,169,81784,1,4,3:3:0:0:
302,179,81883,1,4,3:3:0:0:
266,170,81981,6,0,P|236:155|200:148,1,52.7999983886719,2|0,3:2|3:2,0:2:0:0:
78,268,82179,6,0,P|129:276|212:256,1,123.199996240234,6|0,1:2|0:2,0:2:0:0:
133,161,82475,2,0,P|99:201|76:283,1,123.199996240234,2|0,3:2|0:2,0:2:0:0:
142,359,82771,1,2,3:2:0:0:
145,130,82968,6,0,P|102:160|58:233,1,123.199996240234,2|0,3:2|0:2,0:2:0:0:
181,244,83264,2,0,P|173:183|144:129,1,123.199996240234,6|0,1:2|0:2,0:2:0:0:
59,58,83560,1,2,3:2:0:0:
32,309,83758,5,0,1:2:0:0:
255,166,83955,1,8,0:3:0:0:
0,150,84152,1,8,0:3:0:0:
213,368,84350,1,4,1:2:0:0:
239,351,84745,5,8,3:3:0:0:
262,346,84843,1,8,3:3:0:0:
286,344,84942,1,0,1:2:0:0:
310,346,85041,1,0,1:2:0:0:
333,352,85139,1,8,3:3:0:0:
357,352,85238,1,8,3:3:0:0:
380,343,85337,1,4,3:3:0:0:
395,324,85435,1,4,3:3:0:0:
398,299,85534,5,6,1:2:0:0:
291,237,85731,1,8,0:3:0:0:
288,113,85929,1,8,0:3:0:0:
494,46,86126,5,2,1:2:0:0:
478,79,86225,1,0,1:2:0:0:
441,101,86323,1,0,1:2:0:0:
391,98,86422,1,0,1:2:0:0:
349,60,86521,1,0,1:2:0:0:
296,28,86620,1,0,1:2:0:0:
236,45,86718,1,0,1:2:0:0:
210,106,86817,1,0,1:2:0:0:
241,173,86916,6,0,P|243:237|236:331,1,145.200004431152,6|0,1:2|0:2,0:2:0:0:
184,374,87310,1,2,1:2:0:0:
38,292,87508,2,0,P|37:235|48:175,1,96.8000029541017,2|0,0:2|3:2,0:2:0:0:
84,130,87804,1,0,1:2:0:0:
103,151,87902,1,2,3:2:0:0:
241,208,88100,1,2,1:2:0:0:
363,124,88297,1,2,0:2:0:0:
192,40,88495,6,0,P|118:32|39:25,1,145.200004431152,2|0,3:2|0:2,0:2:0:0:
0,87,88889,1,2,1:2:0:0:
72,226,89087,1,2,3:2:0:0:
101,224,89185,1,0,1:2:0:0:
196,124,89383,1,0,1:2:0:0:
167,119,89481,1,2,3:2:0:0:
217,241,89679,2,0,P|259:244|316:241,1,96.8000029541017,2|0,1:2|0:2,0:2:0:0:
238,383,90073,6,0,P|221:314|217:240,1,145.200004431152,2|0,3:2|0:2,0:2:0:0:
243,166,90468,1,2,1:2:0:0:
359,275,90666,2,0,P|407:270|454:260,1,96.8000029541017,2|0,0:2|3:2,0:2:0:0:
502,200,90962,1,0,1:2:0:0:
510,172,91060,1,2,3:2:0:0:
428,43,91258,1,2,1:2:0:0:
352,183,91455,1,2,0:2:0:0:
228,46,91652,6,0,P|151:35|62:35,1,145.200004431152,2|0,3:2|0:2,0:2:0:0:
19,82,92047,1,2,1:2:0:0:
169,177,92245,1,2,3:2:0:0:
178,149,92343,1,0,1:2:0:0:
12,110,92541,1,0,1:2:0:0:
7,138,92639,1,2,3:2:0:0:
9,167,92738,1,0,3:2:0:0:
20,193,92837,1,0,1:2:0:0:
176,120,93034,1,2,0:2:0:0:
305,281,93231,6,0,P|228:266|132:263,1,145.200004431152,6|0,3:2|0:2,0:2:0:0:
113,348,93626,2,0,P|154:357|225:343,1,96.8000029541017,2|0,1:2|0:2,0:2:0:0:
295,167,94021,1,0,3:2:0:0:
267,175,94120,1,0,1:2:0:0:
327,304,94317,1,0,3:2:0:0:
354,311,94416,1,0,1:2:0:0:
474,229,94613,1,2,0:2:0:0:
370,70,94810,6,0,P|374:122|374:181,1,96.8000029541017,6|0,3:2|0:2,0:2:0:0:
308,212,95106,2,0,P|301:190|295:166,1,48.4000014770508,2|0,3:2|1:2,0:2:0:0:
194,10,95402,2,0,P|188:33|180:56,1,48.4000014770508,2|0,1:2|3:2,0:2:0:0:
53,92,95600,5,2,1:2:0:0:
100,95,95698,1,0,1:2:0:0:
135,127,95797,1,0,1:2:0:0:
143,174,95896,1,0,1:2:0:0:
81,226,95995,5,2,1:2:0:0:
38,191,96093,1,0,1:2:0:0:
28,139,96192,1,0,1:2:0:0:
53,92,96291,1,0,1:2:0:0:
128,87,96389,5,2,0:2:0:0:
300,343,96685,1,2,0:2:0:0:
436,66,96981,1,2,0:2:0:0:
412,227,97179,5,2,0:2:0:0:
278,27,97475,1,2,0:2:0:0:
173,242,97771,1,2,0:2:0:0:
456,40,97968,5,2,0:2:0:0:
0,280,98264,1,6,3:2:0:0:
512,362,98560,1,6,1:2:0:0:
256,192,98659,12,0,102705,0:2:0:0:
