osu file format v14

[General]
AudioFilename: true.mp3
AudioLeadIn: 0
PreviewTime: 0
Countdown: 0
SampleSet: Soft
StackLeniency: 0.7
Mode: 0
LetterboxInBreaks: 0
WidescreenStoryboard: 1

[Editor]
Bookmarks: 87310
DistanceSpacing: 1.4
BeatDivisor: 4
GridSize: 32
TimelineZoom: 1.6

[Metadata]
Title:True Memories Symphony
TitleUnicode:True Memories Symphony
Artist:Sasaki Sayaka
ArtistUnicode:佐咲紗花
Creator:Lasse
Version:Hard
Source:フルウソ -Complete Four Seasons-
Tags:campus eroge visual novel opening short version Ayumi.
BeatmapID:1577620
BeatmapSetID:739052

[Difficulty]
HPDrainRate:6
CircleSize:4
OverallDifficulty:6.5
ApproachRate:7.5
SliderMultiplier:1.44
SliderTickRate:1

[Events]
//Background and Video events
0,0,"d.jpg",0,0
//Break Periods
//Storyboard Layer 0 (Background)
//Storyboard Layer 1 (Fail)
//Storyboard Layer 2 (Pass)
//Storyboard Layer 3 (Foreground)
//Storyboard Sound Samples

[TimingPoints]
74,394.736842105263,4,2,0,70,1,0
74,-76.9230769230769,4,2,0,70,0,0
3231,-90.9090909090909,4,2,0,70,0,0
3527,-90.9090909090909,4,2,0,5,0,0
3626,-90.9090909090909,4,2,0,70,0,0
5106,-90.9090909090909,4,2,0,5,0,0
5205,-90.9090909090909,4,2,0,70,0,0
6685,-90.9090909090909,4,2,0,5,0,0
6784,-90.9090909090909,4,2,0,70,0,0
8264,-90.9090909090909,4,2,0,5,0,0
8363,-90.9090909090909,4,2,0,70,0,0
9843,-90.9090909090909,4,2,0,5,0,0
9942,-90.9090909090909,4,2,0,70,0,0
15863,-111.111111111111,4,2,0,60,0,0
18922,-111.111111111111,4,2,0,5,0,0
19021,-111.111111111111,4,2,0,60,0,0
27212,-111.111111111111,4,2,0,5,0,0
27310,-111.111111111111,4,2,0,60,0,0
27606,-111.111111111111,4,2,0,5,0,0
27705,-111.111111111111,4,2,0,60,0,0
28001,-111.111111111111,4,2,0,5,0,0
28100,-111.111111111111,4,2,0,60,0,0
28396,-111.111111111111,4,2,0,5,0,0
28495,-111.111111111111,4,2,0,60,0,0
31554,-111.111111111111,4,2,0,5,0,0
31652,-111.111111111111,4,2,0,60,0,0
39843,-111.111111111111,4,2,0,5,0,0
39942,-111.111111111111,4,2,0,60,0,0
41126,-99.9999999999999,4,2,0,65,0,0
56916,-83.3333333333333,4,2,0,75,0,1
69448,-83.3333333333333,4,2,0,75,0,0
69547,-83.3333333333333,4,2,0,75,0,1
75468,-111.111111111111,4,2,0,75,0,0
75863,-83.3333333333333,4,2,0,75,0,0
81981,-83.3333333333333,4,2,0,75,0,0
82179,-71.4285714285714,4,2,0,75,0,1
82771,-71.4285714285714,4,2,0,75,0,0
82968,-71.4285714285714,4,2,0,75,0,1
83560,-71.4285714285714,4,2,0,75,0,0
83758,-71.4285714285714,4,2,0,70,0,0
86126,-71.4285714285714,4,2,0,71,0,0
86225,-71.4285714285714,4,2,0,72,0,0
86323,-71.4285714285714,4,2,0,73,0,0
86422,-71.4285714285714,4,2,0,74,0,0
86521,-71.4285714285714,4,2,0,75,0,0
86620,-71.4285714285714,4,2,0,76,0,0
86718,-71.4285714285714,4,2,0,77,0,0
86817,-71.4285714285714,4,2,0,78,0,0
86916,-90.9090909090909,4,2,0,70,0,0
87212,-90.9090909090909,4,2,0,5,0,0
87310,-90.9090909090909,4,2,0,70,0,0
88791,-90.9090909090909,4,2,0,5,0,0
88889,-90.9090909090909,4,2,0,70,0,0
90370,-90.9090909090909,4,2,0,5,0,0
90468,-90.9090909090909,4,2,0,70,0,0
91948,-90.9090909090909,4,2,0,5,0,0
92047,-90.9090909090909,4,2,0,70,0,0
93527,-90.9090909090909,4,2,0,5,0,0
93626,-90.9090909090909,4,2,0,70,0,0
96389,-111.111111111111,4,2,0,50,0,0
98264,-90.9090909090909,4,2,0,70,0,0
98560,-90.9090909090909,4,2,0,60,0,0
98659,-90.9090909090909,4,2,0,30,0,0
102705,-90.9090909090909,4,2,0,5,0,0

[Colours]
Combo1 : 250,190,230
Combo2 : 130,200,230
Combo3 : 255,230,140
Combo4 : 170,245,170

[HitObjects]
129,157,74,6,0,P|224:149|334:109,1,187.199991430664,4|0,3:2|0:2,0:0:0:0:
387,25,666,2,0,P|346:111|326:226,1,187.199991430664,4|0,3:2|0:2,0:0:0:0:
372,314,1258,2,0,P|317:235|227:160,1,187.199991430664,4|4,3:2|0:3,0:0:0:0:
129,157,1850,5,10,0:3:0:0:
117,142,1948,1,8,0:3:0:0:
110,124,2047,2,0,L|103:77,2,46.7999978576661,8|8|8,0:3|0:3|0:3,0:0:0:0:
123,235,2442,1,8,1:3:0:0:
17,198,2639,1,4,1:2:0:0:
17,198,3231,6,0,P|82:195|122:291,1,158.400004833985,6|2,3:2|1:2,0:0:0:0:
210,340,3823,2,0,P|253:347|293:334,1,79.2000024169923,2|0,0:2|3:2,0:0:0:0:
303,326,4120,1,0,1:2:0:0:
310,307,4218,2,0,L|300:202,2,79.2000024169923,2|2|2,3:2|1:2|0:2,0:0:0:0:
435,347,4810,6,0,P|384:291|309:306,1,158.400004833985,2|2,3:2|1:2,0:0:0:0:
213,364,5402,1,2,3:2:0:0:
195,375,5501,2,0,L|97:361,1,79.2000024169923,0|0,1:2|1:2,0:0:0:0:
97,358,5797,2,0,L|85:273,1,79.2000024169923,2|0,3:2|1:2,0:0:0:0:
85,279,6389,6,0,P|96:220|85:109,1,158.400004833985,2|2,3:2|1:2,0:0:0:0:
188,50,6981,2,0,P|176:87|170:126,1,79.2000024169923,2|0,0:2|3:2,0:0:0:0:
184,141,7277,1,0,1:2:0:0:
198,154,7376,2,0,P|232:153|288:155,2,79.2000024169923,2|2|2,3:2|1:2|0:2,0:0:0:0:
94,209,7968,6,0,P|61:143|97:53,1,158.400004833985,2|2,3:2|1:2,0:0:0:0:
189,27,8560,1,2,3:2:0:0:
203,38,8659,2,0,P|241:47|278:35,1,79.2000024169923,0|0,1:2|1:2,0:0:0:0:
298,30,8955,2,0,P|337:28|385:42,1,79.2000024169923,2|0,3:2|1:3,0:0:0:0:
443,103,9350,1,2,0:2:0:0:
504,11,9547,6,0,P|489:81|483:175,1,158.400004833985,6|2,3:2|1:2,0:0:0:0:
491,278,10139,2,0,P|459:243|424:223,1,79.2000024169923,2|2,0:2|3:2,0:0:0:0:
412,228,10435,1,0,1:2:0:0:
393,234,10534,2,0,P|354:243|315:240,1,79.2000024169923,2|0,0:0|1:2,0:0:0:0:
215,217,10929,1,2,0:2:0:0:
286,136,11126,6,0,P|293:97|293:57,1,79.2000024169923,2|0,3:2|0:2,0:0:0:0:
280,41,11422,1,2,3:2:0:0:
261,32,11521,2,0,P|213:29|163:19,1,79.2000024169923,0|2,1:2|3:2,0:0:0:0:
78,50,11916,1,2,3:2:0:0:
91,63,12014,2,0,P|104:99|107:154,1,79.2000024169923,0|0,1:2|3:2,0:0:0:0:
95,155,12310,2,0,P|82:191|79:246,1,79.2000024169923,2|0,1:2|0:2,0:0:0:0:
181,296,12705,6,0,L|287:287,1,79.2000024169923,2|0,3:2|0:2,0:0:0:0:
275,301,13001,1,2,3:2:0:0:
291,312,13100,2,0,L|397:321,1,79.2000024169923,0|2,1:2|0:2,0:0:0:0:
480,293,13495,1,2,3:2:0:0:
490,276,13593,2,0,P|493:225|477:178,1,79.2000024169923,0|2,1:0|3:2,0:0:0:0:
470,185,13889,2,0,L|360:166,1,79.2000024169923,0|8,1:2|0:3,0:0:0:0:
288,122,14284,6,0,P|278:59|285:31,1,79.2000024169923,10|8,3:3|3:3,0:0:0:0:
289,26,14580,1,2,1:2:0:0:
305,14,14679,1,8,3:3:0:0:
391,81,14876,2,0,L|467:69,2,39.6000012084961,4|4|12,1:3|3:3|3:3,0:0:0:0:
288,122,15271,1,12,3:3:0:0:
391,171,15468,2,0,L|443:174,2,39.6000012084961,8|8|8,1:3|1:3|1:3,0:0:0:0:
246,212,15863,6,0,L|91:194,1,129.599996044922,6|0,3:2|3:2,0:0:0:0:
47,148,16455,1,2,0:2:0:0:
47,148,16554,1,2,0:2:0:0:
47,148,16652,2,0,P|45:106|59:64,1,64.799998022461,2|0,3:2|0:2,0:0:0:0:
125,33,17047,2,0,L|211:30,1,64.799998022461,2|0,3:2|0:2,0:0:0:0:
281,101,17442,2,0,P|321:107|411:96,1,129.599996044922,2|2,3:2|3:2,0:0:0:0:
512,20,18034,2,0,P|503:51|498:83,1,64.799998022461,2|0,3:2|3:2,0:0:0:0:
509,173,18429,1,2,0:2:0:0:
425,204,18626,2,0,P|392:209|332:194,1,64.799998022461,2|0,3:2|0:0,0:0:0:0:
272,155,19021,6,0,P|316:201|306:269,1,129.599996044922,2|0,3:2|3:2,0:0:0:0:
256,337,19613,1,2,0:2:0:0:
256,337,19712,1,2,0:2:0:0:
256,337,19810,2,0,L|178:329,1,64.799998022461,2|0,3:2|0:2,0:0:0:0:
104,356,20205,2,0,L|26:348,1,64.799998022461,2|0,3:2|0:2,0:0:0:0:
0,249,20600,2,0,P|46:197|58:126,1,129.599996044922,2|2,3:2|3:2,0:0:0:0:
99,57,21192,2,0,P|123:42|158:36,1,64.799998022461,2|0,3:2|3:2,0:0:0:0:
242,73,21587,2,0,P|272:74|314:59,2,64.799998022461,2|2|2,0:2|3:2|0:2,0:0:0:0:
145,7,22179,5,4,3:2:0:0:
57,165,22573,1,2,3:2:0:0:
57,165,22771,2,0,L|63:238,1,64.799998022461,2|0,0:2|3:2,0:0:0:0:
141,274,23166,1,0,3:2:0:0:
141,274,23363,2,0,L|151:210,1,64.799998022461,2|0,3:2|0:2,0:0:0:0:
213,129,23758,2,0,P|280:100|348:114,3,129.599996044922,2|2|2|2,3:2|3:2|3:2|3:2,0:0:0:0:
334,107,25337,6,0,L|359:247,1,129.599996044922,6|2,3:2|3:2,0:0:0:0:
439,272,25929,2,0,P|447:232|444:192,1,64.799998022461,2|0,0:2|3:2,0:0:0:0:
423,120,26323,1,2,0:2:0:0:
346,169,26521,2,0,P|307:175|260:161,1,64.799998022461,0|0,3:2|0:2,0:0:0:0:
194,106,26916,1,2,3:2:0:0:
130,275,27310,1,2,3:2:0:0:
82,100,27705,1,2,3:2:0:0:
223,213,28100,1,2,3:2:0:0:
41,203,28495,6,0,P|22:142|45:82,1,129.599996044922,6|0,3:2|1:2,0:0:0:0:
126,38,29087,1,2,0:2:0:0:
126,38,29185,1,2,0:2:0:0:
126,38,29284,2,0,L|219:34,1,64.799998022461,2|0,3:2|0:2,0:0:0:0:
279,53,29679,2,0,L|372:57,1,64.799998022461,2|0,1:2|0:2,0:0:0:0:
437,14,30073,2,0,P|398:47|400:144,1,129.599996044922,2|2,3:2|3:2,0:0:0:0:
441,196,30666,2,0,P|449:221|444:272,1,64.799998022461,2|0,1:2|3:2,0:0:0:0:
443,274,30962,1,2,1:2:0:0:
434,287,31060,1,0,3:2:0:0:
344,301,31258,2,0,L|257:292,1,64.799998022461,2|0,1:2|0:0,0:0:0:0:
204,357,31652,6,0,P|234:312|207:244,1,129.599996044922,2|0,3:2|1:2,0:0:0:0:
128,229,32245,1,2,0:2:0:0:
128,229,32343,1,2,0:2:0:0:
127,229,32442,2,0,P|92:230|63:220,1,64.799998022461,2|0,3:2|0:2,0:0:0:0:
15,144,32837,2,0,L|13:61,1,64.799998022461,2|0,1:2|0:2,0:0:0:0:
109,27,33231,2,0,P|155:34|250:18,1,129.599996044922,2|2,3:2|3:2,0:0:0:0:
322,52,33823,2,0,P|361:54|390:61,1,64.799998022461,2|0,1:2|3:2,0:0:0:0:
397,71,34120,1,2,1:2:0:0:
402,86,34218,1,0,3:2:0:0:
355,164,34416,2,0,P|346:196|345:243,1,64.799998022461,2|2,1:2|0:2,0:0:0:0:
396,326,34810,5,4,3:2:0:0:
510,170,35205,1,0,1:2:0:0:
510,170,35402,2,0,L|496:88,1,64.799998022461,2|0,0:2|3:2,0:0:0:0:
499,106,35995,2,0,P|449:103|405:90,1,64.799998022461,2|0,1:2|0:2,0:0:0:0:
347,30,36389,2,0,P|315:22|283:21,1,64.799998022461,2|0,3:2|0:2,0:0:0:0:
220,96,36784,2,0,P|218:123|223:164,1,64.799998022461,2|0,3:2|1:2,0:0:0:0:
267,247,37179,1,2,3:2:0:0:
277,259,37277,2,0,P|280:292|273:349,1,64.799998022461,0|0,1:2|3:2,0:0:0:0:
266,335,37573,2,0,L|175:328,1,64.799998022461,2|0,1:2|0:2,0:0:0:0:
109,379,37968,5,2,3:2:0:0:
18,269,38363,1,2,1:2:0:0:
18,269,38560,2,0,L|27:202,1,64.799998022461,2|0,0:2|3:2,0:0:0:0:
29,188,38856,1,2,1:2:0:0:
32,172,38955,2,0,L|31:96,1,64.799998022461,0|2,3:2|1:2,0:0:0:0:
68,24,39350,1,2,1:2:0:0:
154,52,39547,1,0,3:2:0:0:
331,16,39942,2,0,L|422:11,1,64.799998022461,2|0,3:2|1:2,0:0:0:0:
486,38,40337,1,2,3:2:0:0:
493,52,40435,2,0,L|481:172,1,97.1999970336915,0|2,1:2|1:2,0:0:0:0:
472,321,41126,5,2,3:2:0:0:
472,321,41323,1,2,3:2:0:0:
327,225,41718,5,2,3:2:0:0:
327,225,41916,1,2,3:2:0:0:
233,370,42310,5,2,3:2:0:0:
233,370,42508,1,2,3:2:0:0:
80,289,42902,5,2,3:2:0:0:
100,204,43100,1,6,3:2:0:0:
251,149,43495,6,0,L|312:150,2,36,8|8|4,1:3|0:3|0:3,0:0:0:0:
174,108,43889,2,0,P|161:65|181:23,1,72,2|0,1:2|3:2,0:0:0:0:
258,0,44284,5,2,3:2:0:0:
258,0,44481,1,2,3:2:0:0:
413,76,44876,5,2,3:2:0:0:
413,76,45073,1,2,3:2:0:0:
255,152,45468,5,2,3:2:0:0:
255,152,45666,1,2,3:2:0:0:
406,234,46060,5,2,3:2:0:0:
433,151,46258,1,6,3:2:0:0:
276,56,46652,6,0,L|234:49,2,36,8|0|8,1:3|1:2|0:3,0:0:0:0:
362,63,47047,2,0,P|388:22|391:-7,2,72,0|0|2,1:2|3:2|3:2,0:0:0:0:
277,81,47639,5,2,0:3:0:0:
335,134,47837,1,2,3:2:0:0:
323,212,48034,1,2,1:2:0:0:
249,242,48231,2,0,L|149:233,1,72,2|2,3:2|0:3,0:0:0:0:
160,242,48527,1,2,3:2:0:0:
147,255,48626,2,0,P|129:303|132:333,2,72,0|2|0,1:2|0:3|3:2,0:0:0:0:
216,203,49218,5,2,0:3:0:0:
280,249,49416,1,2,3:2:0:0:
342,201,49613,1,2,1:2:0:0:
404,249,49810,2,0,P|435:256|485:239,1,72,2|2,3:2|0:3,0:0:0:0:
488,235,50106,1,2,3:2:0:0:
497,219,50205,2,0,L|497:143,2,72,0|2|0,1:2|2:3|3:2,0:0:0:0:
469,308,50797,5,2,0:3:0:0:
396,248,50995,2,0,P|344:225|244:240,1,144,2|0,1:2|3:2,0:0:0:0:
188,295,51587,2,0,P|150:302|100:284,1,72,2|0,0:3|1:2,0:0:0:0:
38,247,51981,1,2,0:2:0:0:
109,153,52179,6,0,L|123:48,1,72,6|0,3:2|0:2,0:0:0:0:
127,66,52475,1,2,3:2:0:0:
142,56,52573,2,0,L|223:49,1,72,0|2,1:2|0:2,0:0:0:0:
320,99,52968,2,0,L|413:87,1,72,4|0,3:2|0:2,0:0:0:0:
408,94,53264,1,2,3:2:0:0:
422,104,53363,2,0,P|439:135|440:170,1,72,0|2,1:2|0:3,0:0:0:0:
369,262,53758,6,0,P|362:303|369:344,1,72,2|2,3:2|0:3,0:0:0:0:
372,349,54054,1,2,3:2:0:0:
386,360,54152,2,0,L|469:367,1,72,0|2,1:2|0:2,0:0:0:0:
509,283,54547,2,0,L|513:204,1,72,2|2,3:2|0:3,0:0:0:0:
506,194,54843,1,2,0:2:0:0:
494,180,54942,2,0,P|428:155|405:159,1,72,0|2,1:3|0:2,0:0:0:0:
324,218,55337,5,2,3:2:0:0:
251,148,55534,2,0,L|254:105,2,36,2|0|0,1:2|1:2|3:2,0:0:0:0:
199,236,55929,1,0,1:2:0:0:
182,241,56027,1,2,1:2:0:0:
164,244,56126,2,0,L|89:235,1,72,2|0,3:2|1:2,0:0:0:0:
2,185,56521,1,2,1:2:0:0:
58,101,56718,1,0,1:2:0:0:
65,84,56817,1,0,1:2:0:0:
72,67,56916,6,0,P|148:31|238:54,1,172.799994726563,6|0,3:2|1:2,0:0:0:0:
294,165,57508,1,2,0:2:0:0:
416,122,57705,2,0,P|435:80|417:19,1,86.3999973632813,2|0,3:2|0:0,0:0:0:0:
412,28,58001,1,2,3:2:0:0:
390,25,58100,2,0,L|288:12,1,86.3999973632813,0|2,1:2|0:2,0:2:0:0:
156,4,58495,6,0,P|215:64|224:148,1,172.799994726563,2|0,3:2|1:2,0:2:0:0:
142,246,59087,1,0,3:2:0:0:
24,193,59284,2,0,P|5:140|11:97,1,86.3999973632813,2|0,3:2|0:0,0:0:0:0:
18,92,59580,1,2,1:2:0:0:
35,79,59679,2,0,P|82:91|112:114,1,86.3999973632813,0|2,1:2|0:2,0:2:0:0:
237,187,60073,6,0,P|289:189|338:170,1,86.3999973632813,2|0,3:2|0:2,0:2:0:0:
259,52,60468,2,0,P|206:49|158:69,1,86.3999973632813,2|0,1:2|0:2,0:2:0:0:
101,150,60863,1,2,3:2:0:0:
115,165,60962,2,0,P|129:195|105:293,1,129.599996044922,0|2,1:2|1:2,0:0:0:0:
39,201,61455,6,0,P|72:174|114:164,1,86.3999973632813,2|0,0:2|3:2,0:2:0:0:
242,184,61850,1,2,0:2:0:0:
357,126,62047,2,0,P|369:80|362:35,1,86.3999973632813,2|0,1:2|3:2,0:0:0:0:
344,33,62343,1,0,1:2:0:0:
322,32,62442,2,0,L|225:27,1,86.3999973632813,0|0,3:0|3:2,0:0:0:0:
110,80,62837,2,0,P|103:121|126:183,1,86.3999973632813,0|0,1:2|0:2,0:0:0:0:
238,199,63231,6,0,P|173:146|116:160,1,129.599996044922,4|0,3:2|3:2,0:2:0:0:
114,164,63626,2,0,L|108:263,1,86.3999973632813,2|0,1:2|0:2,0:0:0:0:
14,332,64021,1,2,3:2:0:0:
24,313,64120,2,0,P|82:296|170:325,1,129.599996044922,2|0,1:2|1:2,0:0:0:0:
264,367,64613,1,2,0:2:0:0:
364,287,64810,6,0,P|369:182|372:100,1,172.799994726563,2|0,3:2|1:2,0:2:0:0:
440,0,65402,1,2,3:2:0:0:
481,123,65600,1,2,3:2:0:0:
465,138,65698,2,0,P|401:141|361:109,1,86.3999973632813,0|2,1:2|3:2,0:0:0:0:
371,114,65995,2,0,P|330:100|288:109,1,86.3999973632813,0|2,1:2|0:2,0:0:0:0:
179,186,66389,6,0,P|137:194|96:180,1,86.3999973632813,2|0,3:2|0:2,0:0:0:0:
82,164,66685,1,2,3:2:0:0:
69,145,66784,2,0,L|81:57,1,86.3999973632813,0|2,1:2|0:2,0:0:0:0:
205,18,67179,2,0,L|330:11,1,86.3999973632813,2|0,3:2|0:0,0:0:0:0:
311,20,67475,1,2,3:2:0:0:
330,29,67573,2,0,P|347:78|332:142,1,86.3999973632813,0|2,1:2|0:2,0:0:0:0:
265,218,67968,5,6,3:2:0:0:
147,187,68166,1,0,1:2:0:0:
126,180,68264,1,0,1:2:0:0:
104,182,68363,2,0,P|82:226|94:282,1,86.3999973632813,0|0,1:2|1:2,0:0:0:0:
166,358,68758,2,0,L|226:361,2,43.1999986816407,8|8|8,3:3|3:3|3:3,0:0:0:0:
38,384,69152,1,4,3:3:0:0:
21,369,69251,1,4,3:3:0:0:
14,348,69350,1,4,3:3:0:0:
16,326,69448,1,4,3:3:0:0:
27,307,69547,6,0,B|46:267|39:220|22:238|15:181|41:137,1,172.799994726563,6|0,3:2|1:2,0:2:0:0:
113,32,70139,1,2,0:2:0:0:
235,77,70337,2,0,P|278:85|319:73,1,86.3999973632813,2|0,3:2|0:0,0:0:0:0:
337,64,70633,1,2,3:2:0:0:
354,52,70731,2,0,P|395:40|437:47,1,86.3999973632813,0|2,1:2|0:2,0:0:0:0:
512,165,71126,6,0,L|494:357,1,172.799994726563,2|0,3:2|1:2,0:2:0:0:
373,384,71718,1,0,3:2:0:0:
299,278,71916,2,0,P|257:266|215:272,1,86.3999973632813,2|0,3:2|0:0,0:0:0:0:
199,287,72212,1,2,3:2:0:0:
182,300,72310,2,0,P|139:306|98:294,1,86.3999973632813,0|0,1:2|0:2,0:0:0:0:
35,167,72705,6,0,L|43:62,1,86.3999973632813,2|0,3:2|0:2,0:2:0:0:
184,56,73100,2,0,L|194:148,1,86.3999973632813,2|0,1:2|0:2,0:2:0:0:
275,206,73495,1,2,3:2:0:0:
275,206,73692,1,0,1:2:0:0:
353,139,73889,1,2,1:2:0:0:
353,139,74087,1,0,0:2:0:0:
433,239,74284,6,0,L|427:350,1,86.3999973632813,2|0,3:2|0:2,0:2:0:0:
416,343,74580,1,2,3:2:0:0:
398,356,74679,2,0,P|347:361|307:345,1,86.3999973632813,0|0,1:2|1:2,0:0:0:0:
231,253,75073,1,2,3:2:0:0:
240,233,75172,2,0,L|231:85,1,129.599996044922,0|0,1:2|1:2,0:2:0:0:
232,103,75863,6,0,P|133:91|46:103,1,172.799994726563,6|0,3:2|1:2,0:2:0:0:
0,191,76455,1,2,0:2:0:0:
57,287,76652,2,0,P|142:298|228:290,1,172.799994726563,2|0,3:2|1:2,0:2:0:0:
318,221,77245,1,2,0:2:0:0:
366,328,77442,6,0,P|356:240|366:141,1,172.799994726563,2|0,3:2|1:2,0:2:0:0:
432,67,78034,1,0,1:2:0:0:
498,157,78231,2,0,P|507:208|500:274,1,86.3999973632813,2|0,3:2|0:0,0:0:0:0:
496,262,78527,1,0,3:2:0:0:
480,277,78626,2,0,L|373:286,1,86.3999973632813,2|0,1:2|0:2,0:2:0:0:
284,358,79021,6,0,P|365:360|394:285,1,172.799994726563,6|0,3:2|1:2,0:2:0:0:
358,177,79613,1,2,0:2:0:0:
265,240,79810,2,0,L|178:228,1,86.3999973632813,0|0,3:2|0:0,0:0:0:0:
100,308,80205,1,2,1:2:0:0:
100,308,80402,1,2,0:2:0:0:
0,210,80600,6,0,P|-9:132|-9:22,1,172.799994726563,0|0,3:2|1:2,0:0:0:0:
112,82,81192,1,8,3:3:0:0:
133,82,81291,1,8,3:3:0:0:
154,80,81389,2,0,L|240:65,1,86.3999973632813,8|4,3:3|3:3,0:0:0:0:
335,6,81784,1,4,3:3:0:0:
455,52,81981,1,2,3:2:0:0:
344,155,82179,6,0,P|326:218|364:302,2,151.199995385742,6|2|2,1:2|3:2|3:2,0:0:0:0:
512,131,82968,2,0,P|463:139|399:99,1,100.799996923828,2|0,3:2|0:2,0:2:0:0:
402,98,83264,2,0,P|352:76|298:79,1,100.799996923828,6|0,1:2|0:2,0:2:0:0:
287,93,83560,1,2,3:2:0:0:
169,38,83758,6,0,L|66:29,2,100.799996923828,0|8|8,1:2|0:3|0:3,0:0:0:0:
270,112,84350,1,4,1:2:0:0:
76,256,84745,5,8,3:3:0:0:
56,240,84843,1,8,3:3:0:0:
45,217,84942,2,0,P|45:155|62:106,2,100.799996923828,0|8|4,1:2|3:3|3:3,0:0:0:0:
162,258,85534,2,0,L|278:245,2,100.799996923828,6|8|8,1:2|0:3|0:3,0:0:0:0:
31,198,86126,6,0,P|27:140|48:84,1,100.799996923828,2|0,1:2|1:2,0:0:0:0:
124,33,86521,1,0,1:2:0:0:
148,34,86620,1,0,1:2:0:0:
172,35,86718,1,0,1:2:0:0:
196,36,86817,1,0,1:2:0:0:
220,37,86916,6,0,L|379:25,1,158.400004833985,6|2,1:2|1:2,0:2:0:0:
474,79,87508,2,0,P|486:107|479:172,1,79.2000024169923,2|0,0:2|3:2,0:0:0:0:
474,171,87804,1,0,1:2:0:0:
464,188,87902,2,0,P|461:227|475:264,2,79.2000024169923,2|2|2,3:2|1:2|0:2,0:0:0:0:
496,70,88495,6,0,P|447:17|362:23,1,158.400004833985,2|2,3:2|1:2,0:0:0:0:
300,111,89087,1,2,3:2:0:0:
289,127,89185,2,0,P|248:127|200:103,1,79.2000024169923,0|0,1:2|1:2,0:0:0:0:
197,100,89481,2,0,P|160:85|121:85,1,79.2000024169923,2|2,3:2|1:2,0:0:0:0:
121,84,90073,6,0,P|141:151|121:254,1,158.400004833985,2|2,3:2|1:2,0:0:0:0:
22,295,90666,2,0,P|62:297|109:324,1,79.2000024169923,2|0,0:2|3:2,0:0:0:0:
109,328,90962,1,0,1:2:0:0:
122,341,91060,2,0,P|157:357|196:359,2,79.2000024169923,2|2|2,3:2|1:2|0:2,0:0:0:0:
135,219,91652,6,0,L|131:48,1,158.400004833985,2|2,3:2|1:2,0:0:0:0:
233,13,92245,1,2,3:2:0:0:
249,23,92343,2,0,P|287:32|324:20,1,79.2000024169923,0|0,1:2|1:2,0:0:0:0:
339,32,92639,2,0,P|378:30|426:44,1,79.2000024169923,2|0,3:2|1:2,0:0:0:0:
503,106,93034,1,2,0:2:0:0:
429,197,93231,6,0,L|416:31,1,158.400004833985,6|2,3:2|1:2,0:0:0:0:
321,92,93823,2,0,P|277:91|235:76,1,79.2000024169923,2|0,0:2|3:2,0:0:0:0:
225,72,94120,1,0,1:2:0:0:
208,60,94218,2,0,P|170:48|130:48,1,79.2000024169923,2|0,0:2|1:2,0:0:0:0:
39,111,94613,1,2,0:2:0:0:
108,207,94810,6,0,L|115:286,1,79.2000024169923,6|0,3:2|0:2,0:0:0:0:
124,303,95106,1,2,3:2:0:0:
135,318,95205,2,0,P|174:322|212:314,1,79.2000024169923,0|2,1:2|1:2,0:0:0:0:
288,232,95600,1,2,1:2:0:0:
302,219,95698,2,0,P|340:211|379:215,1,79.2000024169923,0|0,1:2|1:2,0:0:0:0:
392,231,95995,2,0,L|410:326,1,79.2000024169923,2|0,1:2|1:2,0:0:0:0:
312,364,96389,6,0,P|263:361|208:342,2,97.1999970336915,2|2|2,0:2|0:2|0:2,0:0:0:0:
406,308,97179,2,0,P|455:311|510:330,2,97.1999970336915,2|2|2,0:2|0:2|0:2,0:0:0:0:
320,379,97968,5,2,0:2:0:0:
183,214,98264,1,6,3:2:0:0:
395,177,98560,1,6,1:2:0:0:
256,192,98659,12,0,102705,0:2:0:0:
