osu file format v14

[General]
AudioFilename: sorahana.mp3
AudioLeadIn: 0
PreviewTime: 62727
Countdown: 0
SampleSet: Soft
StackLeniency: 0.7
Mode: 3
LetterboxInBreaks: 0
SpecialStyle: 0
WidescreenStoryboard: 0

[Editor]
DistanceSpacing: 2
BeatDivisor: 6
GridSize: 8
TimelineZoom: 1.7

[Metadata]
Title:Sorahana
TitleUnicode:ソラハナ
Artist:Sasaki Sayaka
ArtistUnicode:佐咲紗花
Creator:Shiro-neechan
Version:Normal
Source:空飛ぶ羊と真夏の花 -When girls wish upon a star.-
Tags:soratobu hitsuji to manatsu no hana navel honeybell eroge opening
BeatmapID:1156351
BeatmapSetID:545855

[Difficulty]
HPDrainRate:7
CircleSize:4
OverallDifficulty:7
ApproachRate:5
SliderMultiplier:1.4
SliderTickRate:1

[Events]
//Background and Video events
0,0,"bg.png",0,0
Video,128,"OP.avi"
//Break Periods
//Storyboard Layer 0 (Background)
//Storyboard Layer 1 (Fail)
//Storyboard Layer 2 (Pass)
//Storyboard Layer 3 (Foreground)
//Storyboard Sound Samples

[TimingPoints]
1506,389.61038961039,4,2,2,40,1,0
63843,-100,4,2,2,40,0,1
94817,-100,4,2,2,40,0,0

[HitObjects]
448,192,1116,128,2,1506:0:0:0:0:
64,192,1506,1,10,0:0:0:0:
320,192,1700,1,2,0:0:0:0:
192,192,1895,1,2,0:0:0:0:
448,192,1895,1,8,0:0:0:0:
64,192,2090,1,10,0:0:0:0:
320,192,2480,1,10,0:0:0:0:
192,192,2674,1,2,0:0:0:0:
64,192,2674,1,8,0:0:0:0:
448,192,2869,1,2,0:0:0:0:
320,192,3064,1,10,0:0:0:0:
64,192,3259,1,2,0:0:0:0:
192,192,3454,1,2,0:0:0:0:
448,192,3454,1,8,0:0:0:0:
320,192,3648,1,10,0:0:0:0:
192,192,4038,1,10,0:0:0:0:
320,192,4233,1,8,0:0:0:0:
64,192,4233,1,2,0:0:0:0:
448,192,4428,1,2,0:0:0:0:
192,192,4622,1,10,0:0:0:0:
64,192,4817,1,2,0:0:0:0:
320,192,5012,1,2,0:0:0:0:
448,192,5012,1,8,0:0:0:0:
192,192,5207,1,10,0:0:0:0:
64,192,5596,1,10,0:0:0:0:
448,192,5791,1,8,0:0:0:0:
320,192,5791,1,2,0:0:0:0:
192,192,5986,1,2,0:0:0:0:
448,192,6181,1,10,0:0:0:0:
64,192,6376,1,2,0:0:0:0:
320,192,6570,1,8,0:0:0:0:
192,192,6570,1,2,0:0:0:0:
448,192,6765,1,10,0:0:0:0:
448,192,7155,1,10,0:0:0:0:
64,192,7350,1,8,0:0:0:0:
320,192,7350,1,2,0:0:0:0:
192,192,7544,1,2,0:0:0:0:
448,192,7739,1,10,0:0:0:0:
192,192,7934,1,2,0:0:0:0:
448,192,8129,1,2,0:0:0:0:
64,192,8129,1,8,0:0:0:0:
320,192,8324,1,10,0:0:0:0:
192,192,8713,1,10,0:0:0:0:
320,192,8908,1,8,0:0:0:0:
64,192,8908,1,2,0:0:0:0:
192,192,9103,1,2,0:0:0:0:
320,192,9298,1,10,0:0:0:0:
64,192,9493,1,2,0:0:0:0:
192,192,9687,1,8,0:0:0:0:
448,192,9687,1,2,0:0:0:0:
320,192,9882,1,10,0:0:0:0:
64,192,10272,1,10,0:0:0:0:
448,192,10467,1,8,0:0:0:0:
320,192,10467,1,2,0:0:0:0:
192,192,10661,1,2,0:0:0:0:
448,192,10856,1,10,0:0:0:0:
64,192,11051,1,2,0:0:0:0:
192,192,11246,1,8,0:0:0:0:
448,192,11246,1,2,0:0:0:0:
320,192,11441,1,10,0:0:0:0:
192,192,11830,1,10,0:0:0:0:
64,192,12025,1,8,0:0:0:0:
448,192,12025,1,2,0:0:0:0:
192,192,12220,1,0,0:0:0:40:snare101.wav
320,192,12220,128,12,13389:0:0:0:0:
448,192,13389,1,0,0:0:0:40:snare101.wav
192,192,13389,1,8,0:0:0:0:
64,192,13583,5,0,0:0:0:40:snare101.wav
320,192,13583,1,0,0:0:0:0:
192,192,13973,1,8,0:0:0:0:
448,192,13973,1,4,0:0:0:0:
64,192,14363,1,0,0:0:0:40:snare101.wav
320,192,14363,1,8,0:0:0:0:
448,192,14752,1,8,0:0:0:0:
320,192,14947,1,0,0:0:0:0:
192,192,15142,5,0,0:0:0:40:snare101.wav
64,192,15142,1,8,0:0:0:0:
448,192,15531,1,0,0:0:0:0:
320,192,15531,1,8,0:0:0:0:
64,192,15921,1,0,0:0:0:40:snare101.wav
448,192,15921,1,8,0:0:0:0:
192,192,16311,1,8,0:0:0:0:
64,192,16506,1,0,0:0:0:0:
320,192,16700,5,0,0:0:0:40:snare101.wav
448,192,16700,1,8,0:0:0:0:
192,192,17090,1,8,0:0:0:0:
64,192,17090,1,0,0:0:0:0:
448,192,17480,1,8,0:0:0:0:
192,192,17480,1,0,0:0:0:40:snare101.wav
64,192,17869,1,8,0:0:0:0:
192,192,18064,1,0,0:0:0:0:
320,192,18259,5,0,0:0:0:40:snare101.wav
448,192,18259,1,8,0:0:0:0:
448,192,18648,1,8,0:0:0:0:
64,192,18648,1,0,0:0:0:0:
320,192,19038,1,0,0:0:0:40:snare101.wav
192,192,19038,1,8,0:0:0:0:
448,192,19428,1,8,0:0:0:0:
320,192,19622,1,0,0:0:0:0:
64,192,19817,5,0,0:0:0:40:snare101.wav
192,192,19817,1,8,0:0:0:0:
192,192,20207,1,4,0:0:0:0:
448,192,20207,1,8,0:0:0:0:
64,192,20596,1,0,0:0:0:40:snare101.wav
320,192,20596,1,8,0:0:0:0:
448,192,20986,1,8,0:0:0:0:
320,192,21181,1,0,0:0:0:0:
192,192,21376,5,0,0:0:0:40:snare101.wav
64,192,21376,1,8,0:0:0:0:
192,192,21765,1,8,0:0:0:0:
320,192,21765,1,0,0:0:0:0:
64,192,22155,1,0,0:0:0:40:snare101.wav
448,192,22155,1,8,0:0:0:0:
192,192,22544,1,8,0:0:0:0:
64,192,22739,1,0,0:0:0:0:
320,192,22934,5,0,0:0:0:40:snare101.wav
448,192,22934,1,8,0:0:0:0:
64,192,23324,1,0,0:0:0:0:
192,192,23324,1,8,0:0:0:0:
192,192,23713,1,0,0:0:0:40:snare101.wav
448,192,23713,1,8,0:0:0:0:
64,192,24103,1,8,0:0:0:0:
192,192,24298,1,0,0:0:0:0:
320,192,24493,5,0,0:0:0:40:snare101.wav
448,192,24493,1,8,0:0:0:0:
64,192,24687,1,12,0:0:0:0:
192,192,24687,128,8,25077:0:0:0:40:snare101.wav
320,192,25077,128,8,25272:0:0:0:40:snare101.wav
64,192,25272,1,8,0:0:0:40:snare101.wav
448,192,25467,1,0,0:0:0:0:
192,192,25467,1,8,0:0:0:0:
320,192,25661,1,8,0:0:0:0:
64,192,25856,1,8,0:0:0:0:
320,192,26051,128,0,26441:0:0:0:40:snare101.wav
448,192,26441,1,4,0:0:0:0:
64,192,26441,1,8,0:0:0:0:
192,192,26635,1,0,0:0:0:0:
320,192,26830,1,8,0:0:0:0:
448,192,27025,1,0,0:0:0:0:
192,192,27220,1,8,0:0:0:0:
64,192,27415,1,0,0:0:0:0:
320,192,27609,1,8,0:0:0:0:
448,192,27804,1,0,0:0:0:0:
192,192,27999,1,8,0:0:0:0:
320,192,28194,1,0,0:0:0:0:
192,192,28389,1,8,0:0:0:0:
320,192,28583,1,0,0:0:0:0:
64,192,28778,1,8,0:0:0:0:
192,192,28973,1,0,0:0:0:0:
320,192,29168,1,0,0:0:0:40:snare101.wav
448,192,29168,1,8,0:0:0:0:
64,192,29363,1,0,0:0:0:0:
320,192,29557,1,8,0:0:0:0:
192,192,29752,1,0,0:0:0:0:
320,192,29947,1,8,0:0:0:0:
192,192,30142,1,0,0:0:0:0:
448,192,30337,1,8,0:0:0:0:
320,192,30531,1,0,0:0:0:0:
64,192,30726,1,8,0:0:0:0:
192,192,30921,1,0,0:0:0:0:
448,192,31116,1,8,0:0:0:0:
64,192,31311,1,0,0:0:0:0:
320,192,31506,1,8,0:0:0:0:
64,192,31700,1,0,0:0:0:0:
192,192,31895,1,8,0:0:0:0:
320,192,32090,1,0,0:0:0:0:
192,192,32285,1,0,0:0:0:40:snare101.wav
448,192,32285,1,8,0:0:0:0:
64,192,32480,1,0,0:0:0:0:
448,192,32674,1,4,0:0:0:0:
320,192,32674,1,8,0:0:0:0:
192,192,32869,1,0,0:0:0:0:
320,192,33064,1,8,0:0:0:0:
64,192,33259,1,0,0:0:0:0:
320,192,33454,1,8,0:0:0:0:
192,192,33648,1,0,0:0:0:0:
448,192,33843,1,8,0:0:0:0:
320,192,34038,1,0,0:0:0:0:
192,192,34233,1,8,0:0:0:0:
64,192,34428,1,0,0:0:0:0:
320,192,34622,1,8,0:0:0:0:
448,192,34817,1,0,0:0:0:0:
64,192,35012,1,8,0:0:0:0:
192,192,35207,1,0,0:0:0:0:
320,192,35402,1,0,0:0:0:40:snare101.wav
448,192,35402,1,8,0:0:0:0:
64,192,35596,1,0,0:0:0:0:
320,192,35791,1,8,0:0:0:0:
448,192,35986,1,0,0:0:0:0:
320,192,36181,1,8,0:0:0:0:
64,192,36376,1,0,0:0:0:0:
192,192,36570,1,8,0:0:0:0:
448,192,36765,1,0,0:0:0:0:
64,192,36960,1,8,0:0:0:0:
320,192,37155,1,0,0:0:0:0:
192,192,37350,1,8,0:0:0:0:
448,192,37544,1,0,0:0:0:0:
320,192,37739,1,8,0:0:0:0:
64,192,37934,1,0,0:0:0:0:
192,192,38129,1,8,0:0:0:0:
448,192,38324,1,8,0:0:0:40:snare101.wav
320,192,38421,1,8,0:0:0:40:snare101.wav
192,192,38518,1,8,0:0:0:40:snare101.wav
64,192,38713,1,8,0:0:0:40:snare101.wav
192,192,38811,1,8,0:0:0:40:snare101.wav
448,192,38908,128,4,39298:0:0:0:0:
320,192,38908,1,8,0:0:0:0:
192,192,39298,1,0,0:0:0:40:snare101.wav
320,192,39298,1,0,0:0:0:0:
64,192,39493,128,0,40077:0:0:0:0:
448,192,39687,1,8,0:0:0:0:
192,192,40077,1,0,0:0:0:40:snare101.wav
320,192,40077,1,0,0:0:0:0:
64,192,40467,1,8,0:0:0:0:
320,192,40467,128,0,40856:0:0:0:0:
448,192,40856,1,0,0:0:0:40:snare101.wav
64,192,40856,1,0,0:0:0:0:
192,192,41051,128,8,41635:0:0:0:0:
448,192,41246,1,8,0:0:0:0:
320,192,41635,1,0,0:0:0:40:snare101.wav
64,192,41635,1,0,0:0:0:0:
64,192,42025,128,0,42415:0:0:0:0:
448,192,42025,1,8,0:0:0:0:
192,192,42415,1,0,0:0:0:40:snare101.wav
448,192,42415,1,0,0:0:0:0:
320,192,42609,128,8,43194:0:0:0:0:
64,192,42804,1,8,0:0:0:0:
192,192,43194,1,0,0:0:0:40:snare101.wav
64,192,43194,1,0,0:0:0:0:
448,192,43583,128,0,43973:0:0:0:0:
320,192,43583,1,8,0:0:0:0:
320,192,43973,1,0,0:0:0:40:snare101.wav
64,192,43973,1,0,0:0:0:0:
192,192,44168,128,8,44752:0:0:0:0:
64,192,44363,1,8,0:0:0:0:
320,192,44752,1,0,0:0:0:40:snare101.wav
448,192,44752,1,0,0:0:0:0:
320,192,45142,128,4,45531:0:0:0:0:
64,192,45142,1,8,0:0:0:0:
192,192,45531,1,0,0:0:0:40:snare101.wav
448,192,45531,1,0,0:0:0:0:
64,192,45726,128,8,46311:0:0:0:0:
320,192,45921,1,8,0:0:0:0:
192,192,46311,1,0,0:0:0:40:snare101.wav
448,192,46311,1,0,0:0:0:0:
192,192,46700,128,0,47090:0:0:0:0:
448,192,46700,1,8,0:0:0:0:
320,192,47090,1,0,0:0:0:40:snare101.wav
64,192,47090,1,0,0:0:0:0:
448,192,47285,128,8,47869:0:0:0:0:
192,192,47480,1,8,0:0:0:0:
320,192,47869,1,0,0:0:0:40:snare101.wav
64,192,47869,1,0,0:0:0:0:
64,192,48259,128,0,48648:0:0:0:0:
192,192,48259,1,8,0:0:0:0:
448,192,48648,1,0,0:0:0:40:snare101.wav
192,192,48648,1,0,0:0:0:0:
320,192,48843,128,8,49428:0:0:0:0:
64,192,49038,1,8,0:0:0:0:
448,192,49233,1,8,0:0:0:0:
192,192,49428,1,0,0:0:0:40:snare101.wav
64,192,49428,1,0,0:0:0:0:
320,192,49622,1,8,0:0:0:0:
448,192,50012,1,0,0:0:0:0:
192,192,50207,1,0,0:0:0:40:snare101.wav
64,192,50207,1,0,0:0:0:0:
320,192,50402,1,8,0:0:0:0:
64,192,50596,1,8,0:0:0:0:
192,192,50791,1,0,0:0:0:0:
448,192,50986,1,0,0:0:0:0:
320,192,50986,1,0,0:0:0:40:snare101.wav
192,192,51181,1,8,0:0:0:0:
320,192,51278,1,8,0:0:0:0:
64,192,51376,1,4,0:0:0:0:
448,192,51376,1,8,0:0:0:0:
192,192,51765,1,0,0:0:0:0:
448,192,51960,1,8,0:0:0:0:
320,192,52350,1,0,0:0:0:0:
448,192,52544,1,0,0:0:0:40:snare101.wav
192,192,52544,1,0,0:0:0:0:
64,192,52934,1,8,0:0:0:0:
192,192,53324,1,0,0:0:0:0:
320,192,53518,1,8,0:0:0:0:
192,192,53908,1,0,0:0:0:0:
320,192,54103,1,0,0:0:0:0:
64,192,54103,1,0,0:0:0:40:snare101.wav
448,192,54298,1,8,0:0:0:0:
192,192,54493,1,8,0:0:0:0:
64,192,54882,1,0,0:0:0:0:
448,192,55077,1,8,0:0:0:0:
320,192,55467,1,0,0:0:0:0:
192,192,55661,1,0,0:0:0:40:snare101.wav
64,192,55661,1,0,0:0:0:0:
448,192,56051,1,8,0:0:0:0:
320,192,56441,1,0,0:0:0:0:
192,192,56635,1,8,0:0:0:0:
64,192,57025,1,0,0:0:0:0:
192,192,57220,1,0,0:0:0:40:snare101.wav
320,192,57220,1,0,0:0:0:0:
448,192,57415,1,8,0:0:0:0:
64,192,57609,1,4,0:0:0:0:
192,192,57609,1,8,0:0:0:0:
448,192,57999,1,0,0:0:0:0:
64,192,58194,1,8,0:0:0:0:
192,192,58583,1,0,0:0:0:0:
448,192,58778,1,0,0:0:0:40:snare101.wav
320,192,58778,1,0,0:0:0:0:
64,192,59168,1,8,0:0:0:0:
448,192,59557,1,0,0:0:0:0:
192,192,59752,1,8,0:0:0:0:
320,192,60142,1,8,0:0:0:0:
64,192,60337,1,0,0:0:0:40:snare101.wav
192,192,60337,1,0,0:0:0:0:
320,192,60531,1,8,0:0:0:0:
448,192,60531,128,4,62090:0:0:0:0:
64,192,60921,128,0,61116:0:0:0:40:snare101.wav
192,192,61116,1,0,0:0:0:40:snare101.wav
320,192,61311,128,0,61506:0:0:0:40:snare101.wav
64,192,61506,1,0,0:0:0:40:snare101.wav
192,192,61700,1,8,0:0:0:0:
320,192,61895,1,8,0:0:0:0:
192,192,62090,1,0,0:0:0:40:snare101.wav
64,192,62090,1,4,0:0:0:0:
448,192,62480,1,4,0:0:0:0:
320,192,62480,1,8,0:0:0:0:
64,192,62674,1,4,0:0:0:0:
192,192,62674,1,8,0:0:0:0:
320,192,62869,128,0,63064:0:0:0:40:snare101.wav
192,192,63064,1,8,0:0:0:0:
448,192,63259,1,8,0:0:0:0:
64,192,63454,1,8,0:0:0:0:
320,192,63648,1,8,0:0:0:0:
192,192,63843,1,4,0:0:0:0:
64,192,63843,1,8,0:0:0:0:
320,192,64038,1,0,0:0:0:0:
448,192,64233,1,0,0:0:0:40:snare101.wav
192,192,64233,1,8,0:0:0:0:
64,192,64428,1,0,0:0:0:0:
320,192,64622,1,8,0:0:0:0:
448,192,64817,1,0,0:0:0:0:
64,192,65012,1,0,0:0:0:40:snare101.wav
320,192,65012,1,8,0:0:0:0:
192,192,65207,1,0,0:0:0:0:
448,192,65402,1,8,0:0:0:0:
64,192,65596,1,0,0:0:0:0:
320,192,65791,1,0,0:0:0:40:snare101.wav
448,192,65791,1,8,0:0:0:0:
64,192,65986,1,0,0:0:0:0:
192,192,66181,1,8,0:0:0:0:
448,192,66376,1,0,0:0:0:0:
320,192,66570,1,0,0:0:0:40:snare101.wav
64,192,66570,1,8,0:0:0:0:
192,192,66765,1,0,0:0:0:0:
448,192,66960,1,8,0:0:0:0:
64,192,67155,1,0,0:0:0:0:
320,192,67350,1,8,0:0:0:0:
192,192,67350,1,0,0:0:0:40:snare101.wav
448,192,67544,1,0,0:0:0:0:
64,192,67739,1,8,0:0:0:0:
320,192,67934,1,0,0:0:0:0:
64,192,68129,1,8,0:0:0:0:
192,192,68129,1,0,0:0:0:40:snare101.wav
448,192,68324,1,0,0:0:0:0:
192,192,68518,1,8,0:0:0:0:
64,192,68713,1,0,0:0:0:0:
448,192,68908,1,0,0:0:0:40:snare101.wav
192,192,68908,1,8,0:0:0:0:
320,192,69103,1,0,0:0:0:0:
64,192,69298,1,8,0:0:0:0:
192,192,69493,1,0,0:0:0:0:
320,192,69687,1,0,0:0:0:40:snare101.wav
448,192,69687,1,8,0:0:0:0:
64,192,69882,1,0,0:0:0:0:
192,192,70077,1,4,0:0:0:0:
448,192,70077,1,8,0:0:0:0:
320,192,70272,1,0,0:0:0:0:
192,192,70467,1,0,0:0:0:40:snare101.wav
64,192,70467,1,8,0:0:0:0:
448,192,70661,1,0,0:0:0:0:
64,192,70856,1,8,0:0:0:0:
192,192,71051,1,0,0:0:0:0:
320,192,71246,1,0,0:0:0:40:snare101.wav
64,192,71246,1,8,0:0:0:0:
192,192,71441,1,0,0:0:0:0:
448,192,71635,1,8,0:0:0:0:
320,192,71830,1,0,0:0:0:0:
64,192,72025,1,8,0:0:0:0:
192,192,72025,1,0,0:0:0:40:snare101.wav
448,192,72220,1,0,0:0:0:0:
192,192,72415,1,8,0:0:0:0:
320,192,72609,1,0,0:0:0:0:
448,192,72804,1,0,0:0:0:40:snare101.wav
64,192,72804,1,8,0:0:0:0:
192,192,72999,1,0,0:0:0:0:
448,192,73194,1,8,0:0:0:0:
64,192,73389,1,0,0:0:0:0:
448,192,73583,1,0,0:0:0:40:snare101.wav
192,192,73583,1,8,0:0:0:0:
320,192,73778,1,0,0:0:0:0:
64,192,73973,1,8,0:0:0:0:
448,192,74168,1,0,0:0:0:0:
192,192,74363,1,0,0:0:0:40:snare101.wav
64,192,74363,1,8,0:0:0:0:
448,192,74557,1,0,0:0:0:40:snare101.wav
320,192,74557,1,12,0:0:0:0:
448,192,74947,1,0,0:0:0:0:
64,192,74947,1,0,0:0:0:0:
192,192,75142,1,8,0:0:0:0:
320,192,75142,1,0,0:0:0:40:snare101.wav
448,192,75337,128,0,75531:0:0:0:40:snare101.wav
192,192,75531,1,8,0:0:0:0:
64,192,75726,1,8,0:0:0:0:
320,192,75921,1,8,0:0:0:0:
448,192,76116,1,8,0:0:0:0:
64,192,76311,1,12,0:0:0:0:
320,192,76311,1,0,0:0:0:40:snare101.wav
192,192,76506,1,0,0:0:0:0:
320,192,76700,1,8,0:0:0:0:
448,192,76700,1,0,0:0:0:40:snare101.wav
64,192,76895,1,0,0:0:0:0:
192,192,77090,1,8,0:0:0:0:
448,192,77285,1,0,0:0:0:0:
192,192,77480,1,0,0:0:0:40:snare101.wav
64,192,77480,1,8,0:0:0:0:
448,192,77674,1,0,0:0:0:0:
64,192,77869,1,8,0:0:0:0:
320,192,78064,1,0,0:0:0:0:
448,192,78259,1,0,0:0:0:40:snare101.wav
192,192,78259,1,8,0:0:0:0:
64,192,78454,1,0,0:0:0:0:
320,192,78648,1,8,0:0:0:0:
448,192,78843,1,0,0:0:0:0:
320,192,79038,1,0,0:0:0:40:snare101.wav
192,192,79038,1,8,0:0:0:0:
64,192,79233,1,0,0:0:0:0:
448,192,79428,1,8,0:0:0:0:
192,192,79622,1,0,0:0:0:0:
448,192,79817,1,0,0:0:0:40:snare101.wav
320,192,79817,1,8,0:0:0:0:
64,192,80012,1,0,0:0:0:0:
320,192,80207,1,8,0:0:0:0:
192,192,80402,1,0,0:0:0:0:
320,192,80596,1,0,0:0:0:40:snare101.wav
64,192,80596,1,8,0:0:0:0:
448,192,80791,1,0,0:0:0:0:
192,192,80986,1,8,0:0:0:0:
64,192,81181,1,0,0:0:0:0:
448,192,81376,1,0,0:0:0:40:snare101.wav
320,192,81376,1,8,0:0:0:0:
64,192,81570,1,0,0:0:0:0:
320,192,81765,1,8,0:0:0:0:
448,192,81960,1,0,0:0:0:0:
64,192,82155,1,8,0:0:0:0:
192,192,82155,1,0,0:0:0:40:snare101.wav
448,192,82350,1,0,0:0:0:0:
64,192,82544,1,4,0:0:0:0:
320,192,82544,1,8,0:0:0:0:
192,192,82739,1,0,0:0:0:0:
448,192,82934,1,0,0:0:0:40:snare101.wav
320,192,82934,1,8,0:0:0:0:
64,192,83129,1,0,0:0:0:0:
320,192,83324,1,8,0:0:0:0:
64,192,83518,1,0,0:0:0:0:
448,192,83713,1,0,0:0:0:40:snare101.wav
192,192,83713,1,8,0:0:0:0:
320,192,83908,1,0,0:0:0:0:
192,192,84103,1,8,0:0:0:0:
64,192,84298,1,0,0:0:0:0:
320,192,84493,1,8,0:0:0:0:
448,192,84493,1,0,0:0:0:40:snare101.wav
64,192,84687,1,0,0:0:0:0:
320,192,84882,1,8,0:0:0:0:
192,192,85077,1,0,0:0:0:0:
64,192,85272,1,0,0:0:0:40:snare101.wav
320,192,85272,1,8,0:0:0:0:
448,192,85467,1,0,0:0:0:0:
192,192,85661,1,8,0:0:0:0:
320,192,85856,1,0,0:0:0:0:
448,192,86051,1,0,0:0:0:40:snare101.wav
64,192,86051,1,8,0:0:0:0:
320,192,86246,1,0,0:0:0:0:
192,192,86441,1,8,0:0:0:0:
448,192,86635,1,0,0:0:0:0:
192,192,86830,1,0,0:0:0:40:snare101.wav
64,192,86830,1,8,0:0:0:0:
448,192,87025,1,0,0:0:0:0:
320,192,87220,1,8,0:0:0:0:
64,192,87415,1,0,0:0:0:0:
448,192,87609,1,0,0:0:0:40:snare101.wav
320,192,87609,1,8,0:0:0:0:
192,192,87804,128,8,87999:0:0:0:40:snare101.wav
320,192,87999,1,8,0:0:0:0:
64,192,88194,1,8,0:0:0:0:
448,192,88389,1,8,0:0:0:0:
192,192,88583,1,8,0:0:0:0:
448,192,88778,1,4,0:0:0:0:
64,192,88778,1,8,0:0:0:0:
320,192,88973,1,0,0:0:0:0:
64,192,89168,1,0,0:0:0:40:snare101.wav
192,192,89168,1,8,0:0:0:0:
448,192,89363,1,0,0:0:0:0:
192,192,89557,1,8,0:0:0:0:
320,192,89752,1,0,0:0:0:0:
64,192,89947,1,0,0:0:0:40:snare101.wav
448,192,89947,1,8,0:0:0:0:
192,192,90142,1,0,0:0:0:0:
320,192,90337,1,8,0:0:0:0:
192,192,90531,1,0,0:0:0:0:
320,192,90726,1,0,0:0:0:40:snare101.wav
64,192,90726,1,8,0:0:0:0:
448,192,90921,1,0,0:0:0:0:
192,192,91116,1,8,0:0:0:0:
448,192,91311,1,0,0:0:0:0:
320,192,91506,1,0,0:0:0:40:snare101.wav
192,192,91506,1,8,0:0:0:0:
64,192,91700,1,0,0:0:0:0:
320,192,91895,1,8,0:0:0:0:
192,192,92090,1,0,0:0:0:0:
320,192,92285,1,0,0:0:0:40:snare101.wav
64,192,92285,1,8,0:0:0:0:
448,192,92480,1,0,0:0:0:0:
64,192,92674,1,8,0:0:0:0:
192,192,92869,1,0,0:0:0:0:
320,192,93064,1,0,0:0:0:40:snare101.wav
448,192,93064,1,8,0:0:0:0:
192,192,93259,1,0,0:0:0:0:
320,192,93454,1,4,0:0:0:0:
64,192,93454,1,8,0:0:0:0:
192,192,93648,1,0,0:0:0:0:
448,192,93843,1,0,0:0:0:40:snare101.wav
320,192,93843,1,8,0:0:0:0:
64,192,94038,128,0,94233:0:0:0:40:snare101.wav
448,192,94233,128,8,94817:0:0:0:0:
320,192,94622,128,8,94817:0:0:0:0:
64,192,94817,128,0,101246:0:0:0:40:snare101.wav
192,192,94817,1,12,0:0:0:0:
