osu file format v14

[General]
AudioFilename: audio.mp3
AudioLeadIn: 0
PreviewTime: 137751
Countdown: 0
SampleSet: Soft
StackLeniency: 0.7
Mode: 0
LetterboxInBreaks: 0
WidescreenStoryboard: 1

[Editor]
Bookmarks:14244,26712,39180,51647,64115,101517,113985,126452,138920,176322,185478,191907,229115,235543
DistanceSpacing: 1
BeatDivisor: 4
GridSize: 16
TimelineZoom: 1.7

[Metadata]
Title:Sorahana
TitleUnicode:ソラハナ
Artist:Sasaki Sayaka
ArtistUnicode:佐咲紗花
Creator:Resona
Version:Insane
Source:空飛ぶ羊と真夏の花 -When girls wish upon a star.-
Tags:impurepug shizuku- kazato asa shikibe mayu ayesha altugle koldnoodl soratobu hitsuji to manatsu no hana navel honeybell アッチョリケ acchorike 谷島 俊 tanishima shun eroge visual novel japanese jpop
BeatmapID:3957891
BeatmapSetID:1792568

[Difficulty]
HPDrainRate:7
CircleSize:4
OverallDifficulty:7
ApproachRate:8.5
SliderMultiplier:1.7
SliderTickRate:1

[Events]
//Background and Video events
0,0,"9302f02d-c904-474e-850b-7bc7ebe17ab5.png",0,0
//Break Periods
2,191907,201751
//Storyboard Layer 0 (Background)
//Storyboard Layer 1 (Fail)
//Storyboard Layer 2 (Pass)
//Storyboard Layer 3 (Foreground)
//Storyboard Layer 4 (Overlay)
//Storyboard Sound Samples

[TimingPoints]
219,389.61038961039,4,2,1,60,1,0
25738,-100,4,2,2,60,0,0
25933,-100,4,2,1,60,0,0
26517,-100,4,2,2,60,0,0
26712,-100,4,2,2,46,0,0
39180,-100,4,2,1,52,0,0
50283,-100,4,2,2,60,0,0
50478,-100,4,2,1,60,0,0
51647,-133.333333333333,4,2,2,60,0,0
52816,-133.333333333333,4,2,1,60,0,0
53010,-133.333333333333,4,2,2,60,0,0
54374,-133.333333333333,4,2,1,60,0,0
54569,-133.333333333333,4,2,2,60,0,0
55933,-133.333333333333,4,2,1,60,0,0
56128,-133.333333333333,4,2,2,60,0,0
57491,-133.333333333333,4,2,1,60,0,0
57686,-133.333333333333,4,2,2,60,0,0
59050,-133.333333333333,4,2,1,60,0,0
59244,-133.333333333333,4,2,2,60,0,0
60608,-133.333333333333,4,2,1,60,0,0
60803,-100,4,2,1,60,0,0
61972,-100,4,2,2,60,0,0
62167,-100,4,2,1,60,0,0
63335,-100,4,2,2,60,0,0
63920,-100,4,2,1,60,0,0
64115,-100,4,2,1,68,0,1
75802,-100,4,2,1,60,0,0
76582,-100,4,2,1,68,0,1
88465,-100,4,2,2,68,0,1
88660,-100,4,2,1,68,0,1
89050,-100,4,2,1,60,0,0
100543,-100,4,2,2,60,0,0
100933,-100,4,2,1,60,0,0
101517,-100,4,2,2,46,0,0
113985,-100,4,2,1,52,0,0
125088,-100,4,2,2,60,0,0
125283,-100,4,2,1,60,0,0
126452,-133.333333333333,4,2,2,60,0,0
127621,-133.333333333333,4,2,1,60,0,0
127815,-133.333333333333,4,2,2,60,0,0
129180,-133.333333333333,4,2,1,60,0,0
129374,-133.333333333333,4,2,2,60,0,0
130738,-133.333333333333,4,2,1,60,0,0
130933,-133.333333333333,4,2,2,60,0,0
132296,-133.333333333333,4,2,1,60,0,0
132491,-133.333333333333,4,2,2,60,0,0
133855,-133.333333333333,4,2,1,60,0,0
134049,-133.333333333333,4,2,2,60,0,0
135413,-133.333333333333,4,2,1,60,0,0
135608,-100,4,2,1,60,0,0
136777,-100,4,2,2,60,0,0
136972,-100,4,2,1,60,0,0
138141,-66.6666666666667,4,2,1,60,0,0
138238,-66.6666666666667,4,2,2,60,0,0
138335,-66.6666666666667,4,2,1,60,0,0
138920,-100,4,2,1,68,0,1
150607,-100,4,2,1,60,0,0
151387,-100,4,2,1,68,0,1
163076,-100,4,2,2,68,0,1
163465,-100,4,2,1,68,0,1
163855,-100,4,2,1,60,0,0
175543,-100,4,2,2,60,0,0
175738,-100,4,2,1,60,0,0
176127,-100,4,2,2,60,0,0
176322,-133.333333333333,4,2,2,60,0,0
177491,-133.333333333333,4,2,1,60,0,0
177686,-133.333333333333,4,2,2,60,0,0
179050,-133.333333333333,4,2,1,60,0,0
179244,-133.333333333333,4,2,2,60,0,0
180608,-133.333333333333,4,2,1,60,0,0
180803,-133.333333333333,4,2,2,60,0,0
182167,-133.333333333333,4,2,1,60,0,0
182361,-133.333333333333,4,2,2,60,0,0
183725,-133.333333333333,4,2,1,60,0,0
183919,-133.333333333333,4,2,2,60,0,0
185283,-133.333333333333,4,2,1,60,0,0
185478,-100,4,2,1,60,0,0
203400,-100,4,2,2,60,0,0
203595,-100,4,2,1,60,0,0
204764,-100,4,2,1,68,0,1
216062,-100,4,2,2,68,0,1
216452,-100,4,2,1,68,0,1
216842,-100,4,2,1,60,0,0
227361,-66.6666666666667,4,2,1,60,0,0
228530,-66.6666666666667,4,2,2,60,0,0
228920,-62.5,4,2,1,60,0,0
235543,-62.5,4,2,3,10,0,0

[Colours]
Combo1 : 243,164,84
Combo2 : 239,140,155
Combo3 : 181,136,238
Combo4 : 131,215,197
Combo5 : 164,220,131

[HitObjects]
177,218,14244,6,0,L|56:224,1,85,4|2,1:0|2:3,2:0:0:0:
185,313,14634,1,8,2:0:0:0:
307,221,14829,1,2,2:3:0:0:
307,221,14926,1,8,2:3:0:0:
307,221,15024,1,0,1:0:0:0:
189,113,15219,1,2,2:3:0:0:
10,215,15413,6,0,P|91:222|122:199,1,85,8|2,2:0|2:3,2:0:0:0:
270,119,15803,2,0,P|189:112|158:135,1,85,0|2,1:0|2:3,2:0:0:0:
288,352,16193,1,8,2:0:0:0:
219,184,16387,2,0,P|174:231|227:326,1,170,2|2,2:3|2:3,2:0:0:0:
386,364,16972,5,8,2:0:0:0:
248,253,17167,1,2,2:3:0:0:
435,198,17361,2,0,P|480:151|427:56,1,170,0|8,1:0|2:0,2:0:0:0:
385,16,17946,5,2,2:3:0:0:
385,16,18043,1,8,2:3:0:0:
385,16,18141,1,0,1:0:0:0:
302,108,18335,1,2,2:3:0:0:
169,81,18530,2,0,P|125:66|77:61,1,85,8|2,2:0|2:3,2:0:0:0:
220,240,18920,1,0,1:0:0:0:
303,182,19115,2,0,P|345:176|385:162,1,85,2|8,2:3|2:0,2:0:0:0:
176,89,19504,5,2,2:3:0:0:
176,89,19602,1,8,2:3:0:0:
176,89,19699,1,0,1:0:0:0:
220,240,19894,1,2,2:3:0:0:
278,89,20089,1,8,2:0:0:0:
141,176,20283,1,2,2:3:0:0:
303,182,20478,6,0,P|315:217|310:270,1,85,4|2,1:2|2:3,2:0:0:0:
406,312,20868,2,0,P|389:345|348:379,1,85,8|2,2:0|2:3,2:0:0:0:
354,376,21160,1,8,2:3:0:0:
354,376,21257,1,0,1:0:0:0:
222,275,21452,1,2,2:3:0:0:
427,193,21647,2,0,L|533:187,1,85,8|2,2:0|2:3,2:0:0:0:
280,338,22037,6,0,P|235:356|136:284,1,170,0|8,1:0|2:0,2:0:0:0:
293,207,22621,1,2,2:3:0:0:
225,278,22816,1,0,1:0:0:0:
177,114,23011,1,2,2:3:0:0:
225,278,23206,6,0,P|234:328|265:366,1,85,8|2,2:0|2:3,2:0:0:0:
168,201,23595,2,0,P|136:256|141:302,1,85,0|2,1:0|2:3,2:0:0:0:
376,153,23985,2,0,P|371:73|269:68,1,170,8|0,2:0|1:0,2:0:0:0:
210,95,24569,5,2,2:3:0:0:
210,95,24667,1,0,2:0:0:0:
210,95,24764,1,8,2:0:0:0:
489,41,24959,1,4,1:2:0:0:
489,41,25348,2,0,L|494:-11,3,28.333333333333325,8|8|8|8,2:3|2:3|2:3|2:3,2:0:0:0:
439,102,25738,1,8,2:3:0:0:
431,175,25933,1,0,1:0:0:0:
460,245,26128,1,4,2:3:0:0:
381,233,26322,1,8,2:0:0:0:
338,236,26420,1,8,2:3:0:0:
304,260,26517,1,8,2:3:0:0:
237,329,26712,6,0,L|62:322,2,170,12|8|8,2:0|2:0|2:0,2:0:0:0:
304,260,27686,1,0,2:0:0:0:
211,234,27881,1,8,2:0:0:0:
237,329,28076,1,0,2:0:0:0:
304,260,28270,6,0,P|317:223|286:166,1,85,8|0,2:0|2:0,2:0:0:0:
308,83,28660,2,0,P|244:23|154:33,1,170,8|8,2:0|2:0,2:0:0:0:
21,135,29244,1,0,2:0:0:0:
211,194,29439,2,0,L|214:99,1,85,8|0,2:1|2:0,2:0:0:0:
104,86,29829,6,0,L|101:170,1,85,8|0,2:0|2:0,2:0:0:0:
20,253,30219,1,8,2:0:0:0:
130,310,30413,2,0,P|182:292|226:291,2,85,0|8|0,2:0|2:0|2:0,2:0:0:0:
20,253,30998,5,8,2:0:0:0:
52,322,31193,1,0,2:0:0:0:
130,310,31387,1,8,2:0:0:0:
145,235,31582,1,0,2:0:0:0:
75,195,31777,2,0,P|123:203|177:188,1,85,8|0,2:0|2:0,2:0:0:0:
344,140,32167,2,0,P|296:132|242:147,1,85,8|0,2:0|2:0,2:0:0:0:
158,196,32556,5,8,2:1:0:0:
234,322,32751,1,0,2:0:0:0:
364,269,32946,2,0,P|418:240|518:277,2,170,12|8|8,2:0|2:0|2:0,2:0:0:0:
311,213,33920,1,0,2:0:0:0:
294,138,34115,1,8,2:0:0:0:
322,67,34309,1,0,2:0:0:0:
395,45,34504,2,0,P|396:92|363:134,1,85,8|0,2:0|2:0,2:0:0:0:
276,216,34894,2,0,P|275:169|308:127,1,85,8|0,2:0|2:0,2:0:0:0:
395,45,35283,5,8,2:0:0:0:
353,197,35478,1,0,2:0:0:0:
214,111,35673,2,0,L|204:9,1,85,8|0,2:1|2:0,2:0:0:0:
427,136,36063,5,8,2:0:0:0:
261,192,36257,1,0,2:0:0:0:
310,45,36452,2,0,P|330:87|325:137,1,85,8|0,2:0|2:0,2:0:0:0:
174,201,36842,2,0,P|111:235|2:184,1,170,8|8,2:0|2:0,2:0:0:0:
19,128,37426,5,0,2:0:0:0:
89,169,37621,1,8,2:0:0:0:
21,209,37816,1,0,2:0:0:0:
19,128,38011,1,8,2:0:0:0:
93,92,38206,1,0,2:0:0:0:
163,132,38400,2,0,L|265:132,1,85,8|8,2:0|2:1,2:0:0:0:
254,128,38693,1,8,2:1:0:0:
260,123,38790,1,8,2:0:0:0:
361,284,38985,1,8,2:1:0:0:
361,284,39082,1,8,2:1:0:0:
361,284,39180,6,0,P|414:243|507:289,2,170,4|8|0,1:0|2:0|1:0,2:0:0:0:
310,344,40154,1,0,2:0:0:0:
252,204,40348,1,8,2:0:0:0:
218,292,40543,2,0,P|195:334|133:361,2,85,0|0|0,2:0|1:0|2:0,2:0:0:0:
252,204,41128,1,8,2:0:0:0:
182,126,41322,2,0,L|131:122,2,42.5,0|0|0,2:0|1:0|1:0,2:0:0:0:
74,221,41712,2,0,P|121:227|172:212,1,85,0|8,2:0|2:0,2:0:0:0:
279,114,42102,1,0,2:0:0:0:
197,25,42296,5,0,1:0:0:0:
182,126,42491,1,0,2:0:0:0:
252,204,42686,2,0,L|349:193,1,85,8|0,2:0|2:0,2:0:0:0:
144,224,43076,5,0,1:0:0:0:
325,280,43270,1,0,2:0:0:0:
282,97,43465,2,0,P|225:97|175:129,1,85,8|0,2:0|2:0,2:0:0:0:
182,126,43757,1,0,2:0:0:0:
182,126,43855,1,0,1:0:0:0:
304,253,44050,1,0,2:0:0:0:
396,113,44244,1,8,2:0:0:0:
512,232,44439,1,0,2:0:0:0:
512,232,44829,5,0,2:0:0:0:
294,159,45024,2,0,L|287:69,1,85,8|0,2:0|1:0,2:0:0:0:
230,293,45413,6,0,P|278:331|378:281,1,170,4|8,1:2|2:0,2:0:0:0:
376,140,45998,1,0,2:0:0:0:
304,253,46193,1,0,1:0:0:0:
427,222,46387,1,0,1:0:0:0:
248,165,46582,2,0,P|205:169|167:187,1,85,8|0,2:0|2:0,2:0:0:0:
308,349,46972,6,0,P|355:282|291:203,1,170,0|8,1:0|2:0,2:0:0:0:
185,120,47556,1,0,2:0:0:0:
316,212,47751,2,0,P|358:225|423:197,1,85,0|0,1:0|2:0,2:0:0:0:
361,57,48141,2,0,P|348:99|376:164,1,85,8|0,2:0|2:0,2:0:0:0:
397,216,48433,1,0,2:0:0:0:
397,216,48530,6,0,L|500:211,1,85,0|0,1:0|2:0,2:0:0:0:
275,98,48920,1,8,2:0:0:0:
229,163,49115,1,0,2:0:0:0:
145,192,49309,1,0,1:0:0:0:
67,165,49504,2,0,L|70:63,1,85,0|8,1:0|2:0,2:0:0:0:
333,200,49894,6,0,P|373:250|313:343,1,170,0|8,1:0|2:3,2:0:0:0:
205,358,50478,1,8,2:0:0:0:
235,148,50673,1,0,1:0:0:0:
235,148,50770,1,0,3:0:0:0:
235,148,50868,1,2,1:2:0:0:
297,267,51063,6,0,L|227:262,1,42.5,0|0,2:0|2:0,2:0:0:0:
105,205,51257,2,0,P|87:245|99:298,1,85,8|0,2:0|1:0,2:0:0:0:
174,252,51647,6,0,L|166:110,1,127.50000000000033,12|2,2:0|2:3,2:0:0:0:
166,124,52231,2,0,P|114:155|38:111,1,127.50000000000033,8|8,2:0|2:0,2:0:0:0:
292,82,52816,2,0,L|220:71,1,63.75000000000016,8|0,2:1|2:0,2:0:0:0:
345,261,53206,6,0,P|406:273|463:247,1,127.50000000000033,8|2,2:0|2:3,2:0:0:0:
394,194,53790,2,0,P|380:245|305:279,1,127.50000000000033,8|8,2:0|2:0,2:0:0:0:
252,336,54374,5,8,2:1:0:0:
147,168,54569,1,8,2:0:0:0:
244,107,54764,2,0,L|240:257,1,127.50000000000033,8|2,2:0|2:3,2:0:0:0:
240,234,55348,2,0,P|182:261|122:232,1,127.50000000000033,8|8,2:0|2:0,2:0:0:0:
62,277,55933,1,8,2:1:0:0:
96,345,56128,6,0,P|125:357|156:360,1,63.75000000000016,0|8,2:0|2:0,2:0:0:0:
185,259,56517,2,0,P|128:237|99:240,1,63.75000000000016,0|2,2:0|2:3,2:0:0:0:
275,309,56907,2,0,P|336:304|404:245,1,127.50000000000033,8|8,2:0|2:0,2:0:0:0:
468,155,57491,1,8,2:1:0:0:
468,155,57686,1,8,2:0:0:0:
484,235,57881,6,0,B|426:247|424:212|351:228,1,127.50000000000033,12|2,2:0|2:3,2:0:0:0:
358,226,58465,2,0,L|348:83,1,127.50000000000033,8|8,2:0|2:0,2:0:0:0:
439,296,59050,2,0,L|432:216,1,63.75000000000016,8|0,2:1|2:0,2:0:0:0:
486,88,59439,6,0,P|454:141|394:158,1,127.50000000000033,8|2,2:0|2:3,2:0:0:0:
347,238,60024,2,0,P|311:245|270:232,1,63.75000000000016,8|0,2:0|2:0,2:0:0:0:
187,141,60413,1,8,2:0:0:0:
187,141,60511,1,8,2:0:0:0:
187,141,60608,1,8,2:1:0:0:
15,239,60803,6,0,L|144:229,1,127.49999999999997,4|0,1:2|2:0,2:0:0:0:
142,229,61193,2,0,P|153:275|134:325,1,85,8|8,2:3|2:1,2:0:0:0:
90,149,61582,2,0,P|75:109|110:40,1,85,8|8,2:3|2:1,2:0:0:0:
256,72,61972,5,8,2:3:0:0:
142,229,62167,1,4,2:3:0:0:
160,103,62361,2,0,B|215:99|215:99|263:124|263:124|325:121,1,170,4|8,1:2|2:0,2:0:0:0:
160,103,62946,1,8,2:0:0:0:
395,229,63141,2,0,L|396:276,2,28.333333333333325,8|8|8,2:3|2:3|2:3,2:0:0:0:
366,148,63335,5,8,2:3:0:0:
333,72,63530,1,8,2:3:0:0:
315,215,63725,1,4,2:3:0:0:
447,153,63920,1,0,1:0:0:0:
259,127,64115,6,0,P|211:182|269:267,1,170,4|8,1:0|2:0,2:0:0:0:
410,230,64699,1,2,2:3:0:0:
410,230,64796,1,8,2:3:0:0:
410,230,64894,1,0,1:0:0:0:
259,127,65089,2,0,L|162:114,1,85,2|8,2:3|2:0,2:0:0:0:
246,306,65478,5,2,2:3:0:0:
266,342,65576,1,8,2:3:0:0:
301,365,65673,1,0,1:0:0:0:
343,368,65770,1,0,2:0:0:0:
381,350,65868,1,2,2:3:0:0:
348,208,66063,2,0,P|327:244|327:286,1,85,8|2,2:0|2:3,2:0:0:0:
473,159,66452,2,0,P|501:106|489:58,1,85,0|2,1:0|2:3,2:0:0:0:
411,45,66842,5,8,2:0:0:0:
311,148,67037,1,2,2:3:0:0:
195,104,67231,2,0,P|149:102|97:120,1,85,0|2,1:0|2:3,2:0:0:0:
259,259,67621,2,0,P|299:269|342:267,1,85,8|2,2:0|2:3,2:0:0:0:
382,262,67913,1,8,2:3:0:0:
382,262,68011,1,0,1:0:0:0:
250,185,68206,5,2,2:3:0:0:
264,346,68400,1,8,2:0:0:0:
390,269,68595,1,2,2:3:0:0:
390,269,68693,1,8,2:3:0:0:
390,269,68790,1,0,1:0:0:0:
186,275,68985,1,2,2:3:0:0:
390,269,69180,2,0,L|383:166,1,85,8|2,2:0|2:3,2:0:0:0:
359,154,69472,1,8,2:3:0:0:
319,143,69569,1,0,1:0:0:0:
279,154,69667,1,8,2:3:0:0:
250,185,69764,1,2,1:3:0:0:
448,147,69959,2,0,P|475:126|503:48,1,85,8|2,2:0|2:3,2:0:0:0:
275,262,70348,6,0,P|206:298|115:235,1,170,4|8,1:2|2:0,2:0:0:0:
87,190,70933,1,2,2:3:0:0:
87,190,71030,1,8,2:3:0:0:
87,190,71128,1,0,1:0:0:0:
208,128,71322,2,0,L|203:227,1,85,2|8,2:3|2:0,2:0:0:0:
43,254,71712,1,2,2:3:0:0:
12,225,71809,1,8,2:3:0:0:
0,185,71907,1,0,1:0:0:0:
12,144,72004,1,0,2:0:0:0:
43,116,72102,1,2,2:3:0:0:
208,128,72296,6,0,P|197:168|141:206,1,85,8|2,2:0|2:3,2:0:0:0:
137,168,72589,1,8,2:3:0:0:
126,131,72686,2,0,P|137:91|193:53,1,85,0|2,1:0|2:3,2:0:0:0:
359,142,73076,2,0,B|394:157|394:157|418:108|375:63,1,127.49999999999997,8|8,2:0|2:3,2:0:0:0:
375,62,73465,6,0,L|237:50,1,127.49999999999997,0|0,1:0|2:0,2:0:0:0:
232,166,73855,2,0,P|252:207|262:150,1,127.49999999999997,8|8,2:0|2:3,2:0:0:0:
191,99,74244,2,0,P|161:128|150:169,1,85,0|2,1:0|2:3,2:0:0:0:
161,207,74537,1,0,2:0:0:0:
161,207,74634,1,8,2:0:0:0:
354,238,74829,6,0,P|313:168|232:166,1,170,4|0,1:0|1:0,2:0:0:0:
109,287,75413,1,8,2:0:0:0:
434,185,75608,2,0,L|440:153,3,28.333333333333325,8|8|8|4,2:3|2:3|2:3|2:3,2:3:0:0:
368,296,75998,5,0,1:0:0:0:
427,192,76193,1,0,1:0:0:0:
309,193,76387,1,2,2:0:0:0:
369,307,76582,6,0,L|494:315,1,85,4|0,1:0|2:0,2:0:0:0:
512,154,76972,1,8,2:0:0:0:
328,53,77167,1,2,2:3:0:0:
294,78,77264,1,8,2:3:0:0:
278,117,77361,1,0,1:0:0:0:
283,158,77459,1,8,2:3:0:0:
308,192,77556,1,2,2:3:0:0:
440,130,77751,2,0,P|389:119|333:147,1,85,8|2,2:0|2:3,2:0:0:0:
169,201,78141,6,0,P|219:236|314:170,1,170,0|8,1:0|2:0,2:0:0:0:
328,53,78725,1,2,2:3:0:0:
307,191,78920,1,0,1:0:0:0:
328,53,79115,1,2,2:3:0:0:
150,129,79309,2,0,L|244:121,2,85,8|2|0,2:0|2:3|1:0,2:0:0:0:
54,93,79894,5,2,2:3:0:0:
228,244,80089,2,0,P|227:286|195:344,1,85,8|2,2:0|2:3,2:0:0:0:
172,332,80381,1,8,2:3:0:0:
172,332,80478,1,0,1:0:0:0:
144,195,80673,2,0,P|180:174|247:173,1,85,2|8,2:3|2:0,2:0:0:0:
432,209,81063,6,0,P|359:245|290:202,1,170,2|2,2:3|2:3,2:0:0:0:
348,113,81647,1,8,2:0:0:0:
512,214,81842,1,2,2:3:0:0:
499,254,81939,1,8,2:3:0:0:
468,282,82037,1,0,1:0:0:0:
428,292,82134,1,8,2:3:0:0:
387,279,82231,1,2,2:3:0:0:
205,255,82426,6,0,P|208:283|251:336,1,85,8|2,2:0|2:3,2:0:0:0:
275,298,82719,1,8,2:0:0:0:
288,253,82816,2,0,P|285:225|242:172,1,85,4|2,1:2|2:3,2:0:0:0:
109,142,83206,1,8,2:0:0:0:
253,179,83400,1,2,2:3:0:0:
253,179,83498,1,8,2:3:0:0:
253,179,83595,1,0,1:0:0:0:
140,66,83790,1,2,2:3:0:0:
94,228,83985,1,8,2:0:0:0:
264,190,84180,5,2,2:3:0:0:
284,172,84277,1,8,2:3:0:0:
294,145,84374,1,0,1:0:0:0:
241,271,84569,1,2,2:3:0:0:
368,163,84764,6,0,P|365:105|325:70,1,85,8|2,2:0|2:3,2:0:0:0:
188,174,85154,2,0,P|191:232|231:267,1,85,0|2,1:0|2:3,2:0:0:0:
294,145,85543,5,8,2:0:0:0:
206,251,85738,1,2,2:3:0:0:
440,290,85933,2,0,P|386:243|300:304,1,170,0|8,1:0|2:0,2:0:0:0:
233,360,86517,1,2,2:3:0:0:
272,376,86615,1,8,2:3:0:0:
314,372,86712,1,0,1:0:0:0:
349,350,86809,1,0,2:0:0:0:
372,315,86907,1,2,2:3:0:0:
296,197,87102,2,0,L|309:300,1,85,8|2,2:0|2:3,2:0:0:0:
503,158,87491,6,0,P|426:191|365:131,1,170,4|8,1:2|2:0,2:0:0:0:
277,24,88076,1,8,2:0:0:0:
277,24,88173,1,8,2:0:0:0:
277,24,88270,1,8,2:0:0:0:
320,248,88465,1,8,2:3:0:0:
212,106,88660,1,4,2:3:0:0:
441,115,88855,1,4,2:3:0:0:
194,159,89050,2,0,L|87:179,1,85,4|2,1:0|2:3,2:0:0:0:
37,192,89342,1,0,2:0:0:0:
37,192,89439,1,8,2:0:0:0:
89,99,89634,6,0,L|144:90,1,42.5,2|8,2:3|2:3,2:0:0:0:
194,159,89829,2,0,P|206:208|167:265,1,85,0|2,1:0|2:3,2:0:0:0:
136,322,90219,5,8,2:0:0:0:
110,174,90413,1,2,2:3:0:0:
248,225,90608,1,0,1:0:0:0:
110,174,90803,1,2,2:3:0:0:
208,294,90998,2,0,P|270:302|319:271,1,85,8|2,2:0|2:3,2:0:0:0:
386,180,91387,1,0,1:0:0:0:
248,225,91582,1,2,2:3:0:0:
466,222,91777,2,0,P|474:160|443:111,1,85,8|2,2:0|2:3,2:0:0:0:
307,172,92167,6,0,P|264:236|324:301,1,170,0|8,1:0|2:0,2:0:0:0:
372,377,92751,1,2,2:3:0:0:
372,377,92848,1,8,2:3:0:0:
372,377,92946,1,0,1:0:0:0:
246,283,93141,1,2,2:3:0:0:
379,213,93335,1,8,2:0:0:0:
473,304,93530,5,2,2:3:0:0:
473,304,93628,1,8,2:3:0:0:
473,304,93725,2,0,P|422:302|372:284,1,85,0|2,1:0|2:3,2:0:0:0:
246,283,94115,2,0,P|222:237|212:185,1,85,8|2,2:0|2:3,2:0:0:0:
247,28,94504,1,0,1:0:0:0:
318,128,94699,1,2,2:3:0:0:
214,205,94894,2,0,L|120:194,1,85,8|2,2:0|2:3,2:0:0:0:
452,253,95283,6,0,P|416:181|463:116,1,170,4|8,1:2|2:0,2:0:0:0:
344,32,95868,1,2,2:3:0:0:
344,32,95965,1,8,2:3:0:0:
344,32,96063,1,0,1:0:0:0:
338,152,96257,1,2,2:3:0:0:
440,99,96452,5,8,2:0:0:0:
344,32,96647,2,0,P|302:31|255:47,1,85,2|0,2:3|1:0,2:0:0:0:
166,170,97037,2,0,P|206:182|248:181,1,85,2|8,2:3|2:0,2:0:0:0:
323,114,97426,5,2,2:3:0:0:
174,44,97621,1,0,1:0:0:0:
256,189,97816,1,2,2:3:0:0:
256,189,97913,1,0,2:3:0:0:
256,189,98011,1,8,2:0:0:0:
267,28,98206,1,2,2:3:0:0:
159,143,98400,6,0,L|67:131,1,85,0|2,1:0|2:3,2:0:0:0:
0,213,98790,2,0,L|84:223,1,85,8|2,2:0|2:3,2:0:0:0:
119,228,99082,1,8,2:3:0:0:
119,228,99180,1,0,1:0:0:0:
290,298,99374,1,2,2:3:0:0:
106,332,99569,1,8,2:0:0:0:
298,197,99764,1,0,2:0:0:0:
298,197,100154,6,0,L|298:147,3,28.333333333333325,8|8|8|8,2:3|2:3|2:3|2:3,2:0:0:0:
369,146,100543,1,8,2:3:0:0:
416,203,100738,1,8,2:3:0:0:
486,232,100933,1,4,2:3:0:0:
486,232,101128,2,0,L|366:256,1,85,8|0,2:0|2:0,2:0:0:0:
332,319,101517,6,0,P|286:355|179:305,1,170,12|8,2:0|2:0,2:0:0:0:
171,234,102102,1,0,2:0:0:0:
265,188,102296,2,0,L|258:289,1,85,8|0,2:0|2:0,2:0:0:0:
22,217,102686,6,0,P|9:171|32:124,1,85,8|0,2:1|2:0,2:0:0:0:
201,114,103076,2,0,P|164:184|85:174,2,170,8|8|8,2:0|2:0|2:0,2:0:0:0:
146,58,104050,1,0,2:0:0:0:
346,0,104244,6,0,P|376:29|395:67,1,85,8|0,2:1|2:0,2:0:0:0:
331,184,104634,2,0,P|331:141|317:101,1,85,8|0,2:0|2:0,2:0:0:0:
238,85,105024,1,8,2:0:0:0:
194,155,105219,1,0,2:0:0:0:
255,223,105413,1,8,2:0:0:0:
331,184,105608,2,0,L|430:177,1,85,0|8,2:0|2:1,2:0:0:0:
329,265,105998,5,0,2:0:0:0:
194,155,106193,2,0,P|134:120|40:166,1,170,8|8,2:0|2:0,2:0:0:0:
109,282,106777,2,0,P|127:226|106:177,1,85,0|8,2:0|2:0,2:0:0:0:
285,105,107167,2,0,P|267:161|288:210,1,85,0|8,2:0|2:1,2:0:0:0:
229,268,107556,5,0,2:0:0:0:
229,268,107654,1,0,2:0:0:0:
229,268,107751,2,0,P|268:337|382:352,1,170,12|8,2:0|2:0,2:0:0:0:
474,285,108335,1,0,2:0:0:0:
380,250,108530,1,8,2:0:0:0:
462,276,108725,1,0,2:0:0:0:
512,206,108920,1,8,2:1:0:0:
461,138,109115,1,0,2:0:0:0:
378,164,109309,2,0,P|299:132|205:176,1,170,8|8,2:0|2:0,2:0:0:0:
97,260,109894,2,0,L|7:266,2,85,0|8|0,2:0|2:0|2:0,2:0:0:0:
222,158,110478,6,0,P|234:107|200:50,1,85,8|0,2:1|2:0,2:0:0:0:
135,27,110868,1,8,2:0:0:0:
150,120,111063,1,0,2:0:0:0:
226,62,111257,1,8,2:0:0:0:
120,32,111452,2,0,P|79:57|57:127,1,85,0|8,2:0|2:0,2:0:0:0:
80,184,111842,5,0,2:0:0:0:
228,41,112037,1,8,2:0:0:0:
112,298,112231,1,8,2:1:0:0:
122,308,112816,1,8,2:0:0:0:
122,308,113206,1,8,2:0:0:0:
122,308,113400,1,8,2:0:0:0:
202,275,113595,2,0,P|248:260|307:261,1,85,8|0,2:1|2:0,2:0:0:0:
409,209,113985,6,0,P|455:266|410:347,1,170,4|8,1:2|2:0,2:0:0:0:
323,163,114569,1,0,2:0:0:0:
378,276,114764,1,0,1:0:0:0:
491,192,114959,2,0,P|445:207|386:206,1,85,0|8,2:0|2:0,2:0:0:0:
248,129,115348,1,0,2:0:0:0:
349,52,115543,6,0,P|419:4|498:72,1,170,0|8,1:0|2:0,2:0:0:0:
498,199,116128,1,0,2:0:0:0:
498,199,116225,1,0,1:0:0:0:
498,199,116322,1,0,1:0:0:0:
420,86,116517,2,0,L|421:185,1,85,0|8,2:0|2:0,2:0:0:0:
379,241,116907,6,0,P|327:276|279:272,1,85,0|0,2:0|1:0,2:0:0:0:
237,228,117296,2,0,P|288:192|336:196,1,85,0|8,2:0|2:0,2:0:0:0:
175,317,117686,2,0,P|108:359|23:294,1,170,0|0,2:0|2:0,2:0:0:0:
237,228,118270,1,8,2:0:0:0:
333,361,118465,6,0,L|213:352,1,85,0|0,2:0|1:0,2:0:0:0:
61,237,118855,2,0,L|145:230,1,85,0|8,2:0|2:0,2:0:0:0:
287,149,119244,1,0,2:0:0:0:
287,149,119634,1,0,2:0:0:0:
145,229,119829,2,0,L|138:139,1,85,8|0,2:0|1:0,2:0:0:0:
378,225,120219,6,0,P|330:263|230:213,1,170,4|8,1:2|2:0,2:0:0:0:
215,86,120803,1,0,2:0:0:0:
306,186,120998,1,0,1:0:0:0:
339,14,121193,1,0,1:0:0:0:
229,106,121387,2,0,P|183:126|110:119,1,85,8|0,2:0|2:0,2:0:0:0:
338,258,121777,6,0,P|385:191|321:112,1,170,0|8,1:0|2:0,2:0:0:0:
229,106,122361,1,0,2:0:0:0:
306,186,122556,2,0,P|348:199|413:171,1,85,0|0,1:0|2:0,2:0:0:0:
138,153,122946,2,0,P|96:140|31:168,1,85,8|0,2:0|2:0,2:0:0:0:
37,171,123238,1,0,2:0:0:0:
37,171,123335,6,0,L|42:274,1,85,0|0,1:0|2:0,2:0:0:0:
150,322,123725,1,8,2:0:0:0:
310,263,123920,1,0,2:0:0:0:
146,214,124115,1,0,1:0:0:0:
254,353,124309,1,0,1:0:0:0:
248,178,124504,1,8,2:0:0:0:
432,127,124699,6,0,P|472:177|412:270,1,170,0|8,1:0|2:3,2:0:0:0:
292,268,125283,1,8,2:0:0:0:
237,82,125478,1,0,1:0:0:0:
237,82,125576,1,0,3:0:0:0:
237,82,125673,1,2,1:2:0:0:
394,194,125868,2,0,L|324:189,1,42.5,0|0,2:0|2:0,2:0:0:0:
226,215,126063,2,0,P|208:255|220:308,1,85,8|0,2:0|1:0,2:0:0:0:
394,194,126452,6,0,L|402:52,1,127.50000000000033,12|2,2:0|2:3,2:0:0:0:
401,66,127037,2,0,P|453:35|529:79,1,127.50000000000033,8|8,2:0|2:0,2:0:0:0:
506,144,127621,2,0,L|434:133,1,63.75000000000016,8|0,2:1|2:0,2:0:0:0:
379,207,128011,6,0,P|319:233|249:213,1,127.50000000000033,8|2,2:0|2:3,2:0:0:0:
394,194,128595,2,0,P|380:245|305:279,1,127.50000000000033,8|8,2:0|2:0,2:0:0:0:
179,339,129180,5,8,2:1:0:0:
59,273,129374,1,8,2:0:0:0:
184,199,129569,2,0,L|330:194,1,127.50000000000033,8|2,2:0|2:3,2:0:0:0:
311,194,130154,2,0,P|338:136|309:76,1,127.50000000000033,8|8,2:0|2:0,2:0:0:0:
225,110,130738,1,8,2:1:0:0:
184,199,130933,6,0,P|231:236|243:263,1,63.75000000000016,0|8,2:0|2:0,2:0:0:0:
128,128,131322,2,0,P|71:150|42:147,1,63.75000000000016,0|2,2:0|2:3,2:0:0:0:
225,110,131712,2,0,P|269:55|345:70,1,127.50000000000033,8|8,2:0|2:0,2:0:0:0:
393,104,132296,1,8,2:1:0:0:
393,104,132491,1,8,2:0:0:0:
503,245,132686,6,0,B|445:257|443:222|370:238,1,127.50000000000033,12|2,2:0|2:3,2:0:0:0:
377,236,133270,2,0,P|332:260|326:335,1,127.50000000000033,8|8,2:0|2:0,2:0:0:0:
409,372,133855,2,0,L|402:292,1,63.75000000000016,8|0,2:1|2:0,2:0:0:0:
221,104,134244,6,0,P|266:127|272:202,1,127.50000000000033,8|2,2:0|2:3,2:0:0:0:
204,99,134829,2,0,L|277:89,1,63.75000000000016,8|0,2:0|2:0,2:0:0:0:
354,86,135219,1,8,2:0:0:0:
354,86,135316,1,8,2:0:0:0:
354,86,135413,1,8,2:1:0:0:
193,178,135608,6,0,L|54:197,1,127.49999999999997,4|0,1:2|2:0,2:0:0:0:
40,198,135998,2,0,P|25:158|60:89,1,85,8|8,2:3|2:1,2:0:0:0:
243,242,136387,2,0,P|258:282|223:351,1,85,8|8,2:3|2:1,2:0:0:0:
154,353,136777,5,8,2:3:0:0:
99,225,136972,1,4,2:3:0:0:
243,242,137167,2,0,B|298:238|298:238|346:263|346:263|408:260,1,170,4|8,1:2|2:0,2:0:0:0:
474,207,137751,1,8,2:0:0:0:
363,78,137946,6,0,L|363:31,2,28.333333333333325,8|8|8,2:3|2:3|2:3,2:0:0:0:
364,87,138141,6,0,P|406:69|465:85,1,63.74999999999997,8|8,2:1|2:3,2:0:0:0:
409,156,138335,6,0,P|367:174|308:158,1,63.74999999999997,2|0,2:0|2:0,2:0:0:0:
237,227,138530,2,0,P|241:189|294:149,1,63.74999999999997,8|0,2:0|1:0,2:0:0:0:
241,45,138725,2,0,P|271:67|280:133,1,63.74999999999997,4|0,2:3|1:0,2:0:0:0:
237,227,138920,6,0,L|54:203,1,170,4|8,1:0|2:0,2:0:0:0:
66,97,139504,1,2,2:3:0:0:
103,79,139602,1,8,2:3:0:0:
145,83,139699,1,0,1:0:0:0:
178,108,139796,1,8,2:3:0:0:
194,147,139894,1,2,2:3:0:0:
125,262,140089,2,0,P|86:239|66:181,1,85,8|2,2:0|2:3,2:0:0:0:
201,282,140478,6,0,P|119:344|53:298,1,170,0|8,1:0|2:0,2:0:0:0:
182,204,141063,1,2,2:3:0:0:
277,311,141257,2,0,P|228:302|183:254,1,85,0|2,1:0|2:3,2:0:0:0:
96,192,141647,5,8,2:0:0:0:
236,131,141842,1,2,2:3:0:0:
96,192,142037,2,0,L|102:80,1,85,0|2,1:0|2:3,2:0:0:0:
196,58,142426,2,0,P|241:47|294:68,1,85,8|2,2:0|2:3,2:0:0:0:
307,76,142719,1,8,2:3:0:0:
307,76,142816,1,0,1:0:0:0:
218,220,143011,1,2,2:3:0:0:
307,76,143206,1,8,2:0:0:0:
381,201,143400,5,2,2:3:0:0:
234,129,143595,1,0,1:0:0:0:
371,28,143790,2,0,P|387:67|385:110,1,85,2|8,2:3|2:0,2:0:0:0:
297,274,144180,1,2,2:3:0:0:
244,258,144277,1,8,2:3:0:0:
218,220,144374,1,0,1:0:0:0:
211,177,144472,1,8,2:3:0:0:
234,129,144569,1,2,2:3:0:0:
297,274,144764,2,0,P|264:322|206:325,1,85,8|2,2:0|2:3,2:0:0:0:
431,117,145154,6,0,P|348:124|297:189,1,170,4|8,1:2|2:0,2:0:0:0:
240,329,145738,1,2,2:3:0:0:
240,329,145835,1,8,2:3:0:0:
240,329,145933,1,0,1:0:0:0:
297,188,146128,2,0,L|290:81,1,85,2|8,2:3|2:0,2:0:0:0:
144,95,146517,5,2,2:3:0:0:
298,189,146712,1,0,1:0:0:0:
144,95,146907,1,2,2:3:0:0:
21,247,147102,2,0,P|57:267|123:254,1,85,8|2,2:0|2:3,2:0:0:0:
97,218,147394,1,8,2:3:0:0:
78,184,147491,2,0,P|41:163|-24:176,1,85,0|2,1:0|2:3,2:0:0:0:
212,341,147881,2,0,P|260:338|334:272,1,127.49999999999997,8|0,2:0|2:0,2:0:0:0:
323,293,148270,6,0,B|295:349|344:384|344:384|386:357,1,127.49999999999997,0|0,1:0|2:0,2:0:0:0:
404,296,148660,2,0,L|389:165,1,127.49999999999997,8|0,2:0|2:0,2:0:0:0:
468,73,149050,2,0,P|500:103|443:102,1,127.49999999999997,0|0,1:0|2:0,2:0:0:0:
394,51,149439,1,8,2:0:0:0:
255,246,149634,6,0,P|206:249|120:163,1,170,4|0,1:2|1:0,2:0:0:0:
121,171,150219,1,8,2:0:0:0:
292,324,150413,2,0,L|286:356,3,28.333333333333325,8|8|8|4,2:3|2:3|2:3|2:3,2:3:0:0:
223,108,150803,5,0,1:0:0:0:
292,324,150998,1,0,1:0:0:0:
273,172,151193,1,2,2:0:0:0:
243,247,151387,6,0,L|158:252,1,85,4|0,1:0|2:0,2:0:0:0:
55,173,151777,1,8,2:0:0:0:
223,108,151972,1,2,2:3:0:0:
257,133,152069,1,8,2:3:0:0:
273,172,152167,1,0,1:0:0:0:
268,213,152264,1,8,2:3:0:0:
243,247,152361,1,2,2:3:0:0:
150,150,152556,2,0,P|139:99|167:43,1,85,8|2,2:0|2:3,2:0:0:0:
361,117,152946,6,0,P|311:152|216:86,1,170,0|8,1:0|2:0,2:0:0:0:
321,35,153530,1,2,2:3:0:0:
288,181,153725,1,0,1:0:0:0:
432,68,153920,1,2,2:3:0:0:
222,107,154115,2,0,L|128:115,1,85,8|2,2:0|2:3,2:0:0:0:
256,304,154504,6,0,P|344:334|397:272,1,170,0|8,1:0|2:0,2:0:0:0:
399,126,155089,1,2,2:3:0:0:
399,126,155186,1,8,2:3:0:0:
399,126,155283,1,0,1:0:0:0:
198,239,155478,2,0,P|177:275|176:342,1,85,2|8,2:3|2:0,2:0:0:0:
393,288,155868,2,0,P|384:218|282:187,1,170,2|2,2:3|2:3,2:0:0:0:
198,239,156452,1,8,2:0:0:0:
331,347,156647,1,2,2:3:0:0:
366,369,156744,1,8,2:3:0:0:
408,370,156842,1,0,1:0:0:0:
445,352,156939,1,8,2:3:0:0:
468,316,157037,1,2,2:3:0:0:
357,193,157231,6,0,P|335:211|317:277,1,85,8|2,2:0|2:3,2:0:0:0:
361,275,157524,1,8,2:0:0:0:
406,259,157621,2,0,P|427:240|445:174,1,85,4|2,1:2|2:3,2:0:0:0:
404,57,158011,1,8,2:0:0:0:
446,188,158206,1,2,2:3:0:0:
446,188,158303,1,8,2:3:0:0:
446,188,158400,1,0,1:0:0:0:
289,38,158595,1,2,2:3:0:0:
230,176,158790,1,8,2:0:0:0:
362,153,158985,5,2,2:3:0:0:
344,133,159082,1,8,2:3:0:0:
317,123,159180,1,0,1:0:0:0:
168,236,159374,1,2,2:3:0:0:
332,273,159569,6,0,P|322:237|293:180,1,85,8|2,2:0|2:3,2:0:0:0:
115,149,159959,2,0,P|94:186|81:226,1,85,0|2,1:0|2:3,2:0:0:0:
243,268,160348,1,8,2:0:0:0:
80,226,160543,1,2,2:3:0:0:
301,193,160738,6,0,P|340:122|299:51,1,170,0|8,1:0|2:0,2:0:0:0:
84,230,161322,1,2,2:3:0:0:
120,249,161420,1,8,2:3:0:0:
163,249,161517,1,0,1:0:0:0:
200,230,161615,1,0,2:0:0:0:
226,197,161712,1,2,2:3:0:0:
87,88,161907,2,0,L|-16:75,1,85,8|2,2:0|2:3,2:0:0:0:
230,156,162296,6,0,P|304:165|382:78,1,170,4|8,1:2|2:0,2:0:0:0:
476,237,162881,1,8,2:0:0:0:
474,264,162978,1,8,2:0:0:0:
462,287,163076,1,8,2:3:0:0:
447,305,163173,1,8,2:3:0:0:
428,320,163270,1,8,2:3:0:0:
406,331,163368,1,8,2:3:0:0:
383,337,163465,1,4,2:3:0:0:
359,339,163563,1,0,1:3:0:0:
335,336,163660,1,4,2:3:0:0:
312,327,163757,1,4,2:3:0:0:
293,314,163855,6,0,L|300:217,1,85,4|2,1:0|2:3,2:0:0:0:
198,57,164244,2,0,L|209:163,1,85,8|2,2:0|2:3,2:0:0:0:
213,169,164537,1,8,2:3:0:0:
213,169,164634,1,0,1:0:0:0:
352,100,164829,1,2,2:3:0:0:
116,33,165024,2,0,P|155:50|197:56,1,85,8|2,2:0|2:3,2:0:0:0:
365,111,165413,6,0,P|323:116|284:133,1,85,0|2,1:0|2:3,2:0:0:0:
137,239,165803,1,8,2:0:0:0:
296,205,165998,1,2,2:3:0:0:
159,137,166193,1,0,1:0:0:0:
202,319,166387,1,2,2:3:0:0:
202,319,166485,1,2,2:0:0:0:
202,319,166582,1,8,2:0:0:0:
159,137,166777,1,2,2:0:0:0:
19,246,166972,6,0,P|-22:178|39:109,1,170,0|8,1:0|2:0,2:0:0:0:
137,239,167556,1,2,2:3:0:0:
137,239,167654,1,8,2:3:0:0:
137,239,167751,1,0,1:0:0:0:
25,112,167946,1,2,2:3:0:0:
136,15,168141,2,0,P|153:71|157:124,1,85,8|2,2:0|2:3,2:0:0:0:
160,128,168433,1,8,2:3:0:0:
160,128,168530,5,0,1:0:0:0:
316,56,168725,1,2,2:3:0:0:
230,213,168920,1,8,2:0:0:0:
216,34,169115,1,2,2:3:0:0:
335,174,169309,1,0,1:0:0:0:
335,174,169407,1,8,2:3:0:0:
335,174,169504,1,2,2:0:0:0:
146,239,169699,2,0,P|104:234|47:181,1,85,8|2,2:0|2:0,2:0:0:0:
305,307,170089,6,0,P|348:330|454:263,1,170,4|8,1:2|2:0,2:0:0:0:
385,110,170673,1,2,2:3:0:0:
351,135,170770,1,8,2:3:0:0:
335,174,170868,1,0,1:0:0:0:
342,215,170965,1,8,2:3:0:0:
368,248,171063,1,2,2:3:0:0:
497,204,171257,2,0,P|463:192|389:186,1,85,8|0,2:0|2:0,2:0:0:0:
262,234,171647,5,0,1:0:0:0:
384,280,171842,1,2,2:3:0:0:
262,234,172037,2,0,L|253:348,1,85,8|2,2:0|2:3,2:0:0:0:
254,342,172329,1,8,2:3:0:0:
254,342,172426,1,0,1:0:0:0:
384,280,172621,1,0,2:0:0:0:
261,233,172816,2,0,P|219:228|179:215,1,85,8|2,2:0|2:3,2:0:0:0:
420,105,173206,6,0,P|349:65|283:111,1,170,2|8,1:2|2:0,2:0:0:0:
124,240,173790,1,2,2:3:0:0:
154,269,173887,1,8,2:3:0:0:
195,279,173985,1,0,1:0:0:0:
234,266,174082,1,8,2:3:0:0:
261,233,174180,1,2,2:3:0:0:
126,148,174374,1,8,2:0:0:0:
386,236,174569,1,4,1:2:0:0:
386,236,174959,1,0,1:0:0:0:
466,219,175154,6,0,P|500:181|503:115,1,85,8|8,2:0|2:3,2:0:0:0:
497,127,175446,1,8,2:3:0:0:
497,127,175543,1,8,2:3:0:0:
305,242,175738,5,4,2:3:0:0:
443,292,175933,2,0,P|472:321|484:362,1,85,8|8,2:0|2:3,2:0:0:0:
269,314,176322,6,0,L|133:306,1,127.50000000000033,12|2,2:0|2:3,2:0:0:0:
141,306,176907,2,0,P|116:257|151:171,1,127.50000000000033,8|8,2:0|2:0,2:0:0:0:
201,149,177491,1,8,2:1:0:0:
34,222,177686,1,0,2:0:0:0:
201,149,177881,2,0,P|226:99|191:13,1,127.50000000000033,8|2,2:0|2:3,2:0:0:0:
132,190,178465,2,0,P|179:159|191:68,1,127.50000000000033,8|8,2:0|2:0,2:0:0:0:
125,57,179050,1,8,2:1:0:0:
198,93,179244,1,8,2:0:0:0:
262,46,179439,6,0,P|297:35|341:33,1,63.75000000000016,8|0,2:0|2:0,2:0:0:0:
490,111,179829,1,2,2:3:0:0:
346,209,180024,2,0,P|310:209|224:169,1,127.50000000000033,8|8,2:0|2:0,2:0:0:0:
380,97,180608,5,8,2:1:0:0:
490,111,180803,2,0,L|497:198,1,63.75000000000016,0|8,2:0|2:0,2:0:0:0:
410,238,181193,2,0,L|415:174,1,63.75000000000016,0|2,2:0|2:3,2:0:0:0:
305,286,181582,1,8,2:0:0:0:
359,335,181777,1,0,2:0:0:0:
430,335,181972,1,8,2:0:0:0:
486,285,182167,2,0,P|497:248|486:198,1,63.75000000000016,8|8,2:1|2:0,2:0:0:0:
235,250,182556,6,0,P|204:306|212:383,1,127.50000000000033,12|2,2:0|2:3,2:0:0:0:
206,367,183141,2,0,L|72:355,1,127.50000000000033,8|8,2:0|2:0,2:0:0:0:
20,282,183725,2,0,P|66:274|102:259,1,63.75000000000016,8|0,2:1|2:0,2:0:0:0:
298,172,184115,6,0,B|246:186|229:154|171:171,1,127.50000000000033,8|2,2:0|2:3,2:0:0:0:
172,170,184699,2,0,L|178:87,1,63.75000000000016,8|0,2:0|2:0,2:0:0:0:
135,38,185089,1,8,2:0:0:0:
298,172,185283,1,8,2:1:0:0:
135,38,185478,6,0,P|100:61|105:164,1,127.49999999999997,4|0,1:2|2:0,2:0:0:0:
88,140,185868,2,0,L|-15:151,1,85,8|8,2:3|2:1,2:0:0:0:
186,270,186257,2,0,L|270:261,1,85,8|8,2:3|2:1,2:0:0:0:
172,170,186647,1,0,2:3:0:0:
207,352,186842,1,8,2:1:0:0:
270,183,187037,1,8,2:3:0:0:
230,346,187231,1,8,2:1:0:0:
349,236,187426,1,8,2:3:0:0:
257,341,187621,1,8,2:1:0:0:
476,273,187816,6,0,P|417:286|377:317,1,85,8|8,2:3|2:1,2:0:0:0:
278,184,188206,1,8,2:3:0:0:
151,234,188400,2,0,P|188:253|230:259,1,85,8|8,2:1|2:3,2:0:0:0:
390,45,188790,6,0,P|343:85|382:181,1,170,8|8,2:1|2:1,2:0:0:0:
389,296,189374,5,8,2:3:0:0:
414,115,189569,1,8,2:1:0:0:
379,308,189764,1,8,2:3:0:0:
301,84,189959,1,8,2:1:0:0:
374,326,190154,1,4,1:2:0:0:
166,155,190543,1,8,2:0:0:0:
373,348,190738,1,8,2:0:0:0:
433,313,202426,5,8,2:0:0:0:
179,260,202621,2,0,P|161:223|253:153,1,170,4|8,1:2|2:3,2:0:0:0:
241,149,203108,1,8,2:3:0:0:
241,149,203206,1,8,2:0:0:0:
151,62,203400,5,8,2:3:0:0:
343,204,203595,1,4,2:3:0:0:
83,113,203790,1,0,1:0:0:0:
257,239,203985,1,0,1:0:0:0:
296,36,204180,1,4,2:3:0:0:
296,36,204277,1,0,1:0:0:0:
296,36,204374,1,2,1:2:0:0:
236,365,204764,5,12,2:1:0:0:
464,159,204959,1,2,2:3:0:0:
495,187,205056,1,8,2:3:0:0:
507,227,205154,1,0,1:0:0:0:
498,268,205251,1,8,2:3:0:0:
468,298,205348,1,2,2:3:0:0:
329,226,205543,2,0,L|452:230,1,85,8|2,2:0|2:3,2:0:0:0:
74,104,205933,6,0,P|141:58|215:93,1,170,0|8,1:0|2:0,2:0:0:0:
270,281,206517,1,2,2:3:0:0:
149,142,206712,1,0,1:0:0:0:
270,281,206907,1,2,2:3:0:0:
270,281,207004,1,8,2:3:0:0:
270,281,207102,1,8,2:0:0:0:
155,245,207296,1,2,2:3:0:0:
328,185,207491,6,0,P|317:122|279:86,1,85,0|2,1:0|2:3,2:0:0:0:
155,245,207881,2,0,P|165:307|203:343,1,85,8|2,2:0|2:3,2:0:0:0:
178,324,208173,1,8,2:3:0:0:
178,324,208270,1,0,1:0:0:0:
181,164,208465,1,2,2:3:0:0:
31,242,208660,1,8,2:0:0:0:
242,254,208855,5,2,2:3:0:0:
242,254,208952,1,8,2:3:0:0:
242,254,209050,1,0,1:0:0:0:
147,147,209244,2,0,P|99:133|39:140,1,85,2|8,2:3|2:0,2:0:0:0:
186,331,209634,1,2,2:3:0:0:
224,348,209731,1,8,2:3:0:0:
266,346,209829,1,0,1:0:0:0:
304,326,209926,1,8,2:3:0:0:
326,290,210024,1,2,2:3:0:0:
323,97,210219,2,0,P|317:146|340:197,1,85,8|2,2:0|2:3,2:0:0:0:
421,340,210608,6,0,P|375:273|414:202,1,170,4|8,1:2|2:0,2:0:0:0:
512,134,211193,1,2,2:3:0:0:
464,271,211387,1,0,1:0:0:0:
398,79,211582,1,2,2:3:0:0:
464,271,211777,1,8,2:0:0:0:
286,229,211972,5,2,2:3:0:0:
286,229,212069,1,8,2:3:0:0:
286,229,212167,1,0,1:0:0:0:
411,117,212361,1,2,2:3:0:0:
278,96,212556,2,0,P|240:114|204:174,1,85,8|2,2:0|2:3,2:0:0:0:
411,117,212946,2,0,P|457:110|503:57,1,85,0|2,1:0|2:3,2:0:0:0:
510,58,213238,1,0,2:0:0:0:
510,58,213335,1,8,2:0:0:0:
324,199,213530,1,2,2:3:0:0:
499,313,213725,6,0,P|497:236|392:229,1,170,4|8,1:2|2:0,2:0:0:0:
168,322,214309,1,2,2:3:0:0:
199,350,214407,1,8,2:3:0:0:
240,357,214504,1,0,1:0:0:0:
279,342,214602,1,8,2:3:0:0:
304,308,214699,1,2,2:3:0:0:
236,120,214894,2,0,P|170:150|156:192,1,85,8|2,2:0|2:3,2:0:0:0:
411,157,215283,6,0,P|448:111|374:19,1,170,4|8,1:2|2:0,2:0:0:0:
114,316,215868,2,0,L|118:343,3,28.333333333333325,8|8|8|8,2:3|2:3|2:3|2:3,2:0:0:0:
273,132,216257,1,8,2:3:0:0:
257,365,216452,1,4,2:3:0:0:
128,172,216647,1,0,1:0:0:0:
347,256,216842,2,0,L|452:266,1,85,4|0,1:0|2:0,2:0:0:0:
273,132,217231,6,0,P|256:78|280:33,1,85,8|2,2:0|2:3,2:0:0:0:
280,27,217524,1,8,2:3:0:0:
280,27,217621,1,0,1:0:0:0:
209,189,217816,1,2,2:3:0:0:
94,62,218011,1,8,2:0:0:0:
34,236,218206,1,2,2:3:0:0:
34,236,218303,1,8,2:3:0:0:
34,236,218400,1,0,1:0:0:0:
195,97,218595,6,0,P|139:129|86:137,1,85,2|8,2:3|2:0,2:0:0:0:
13,313,218985,1,2,2:3:0:0:
124,244,219180,2,0,P|164:257|199:281,1,85,0|2,1:0|2:3,2:0:0:0:
315,221,219569,5,8,2:0:0:0:
281,357,219764,1,2,2:3:0:0:
281,357,219861,1,8,2:3:0:0:
281,357,219959,1,0,1:0:0:0:
227,185,220154,1,2,2:3:0:0:
281,357,220348,2,0,L|374:351,1,85,8|2,2:0|2:3,2:0:0:0:
395,349,220641,1,8,2:3:0:0:
395,349,220738,1,0,1:0:0:0:
453,161,220933,5,2,2:3:0:0:
351,234,221128,1,8,2:0:0:0:
495,327,221322,2,0,P|502:290|478:231,1,85,2|0,2:3|1:0,2:0:0:0:
275,196,221712,2,0,P|268:233|292:292,1,85,2|8,2:3|2:0,2:0:0:0:
345,71,222102,1,2,2:3:0:0:
312,44,222199,1,8,2:3:0:0:
271,37,222296,1,0,1:0:0:0:
232,52,222394,1,8,2:3:0:0:
205,85,222491,1,2,2:3:0:0:
284,205,222686,2,0,L|278:98,1,85,8|2,2:0|2:3,2:0:0:0:
499,133,223076,6,0,P|438:185|351:149,1,170,4|8,1:0|2:0,2:0:0:0:
271,37,223660,1,2,2:3:0:0:
312,44,223757,1,8,2:3:0:0:
345,71,223855,1,0,1:0:0:0:
365,117,223952,1,8,2:3:0:0:
360,160,224050,1,2,2:3:0:0:
180,233,224244,6,0,L|83:222,1,85,8|2,2:0|2:3,2:0:0:0:
65,220,224537,1,8,2:3:0:0:
65,220,224634,1,0,1:0:0:0:
208,158,224829,2,0,P|258:167|302:208,1,85,2|8,2:3|2:0,2:0:0:0:
266,281,225219,5,2,2:3:0:0:
133,147,225413,1,0,1:0:0:0:
316,101,225608,1,2,2:3:0:0:
316,101,225706,1,8,2:3:0:0:
316,101,225803,2,0,P|319:46|284:-2,1,85,8|2,2:0|2:3,2:0:0:0:
212,245,226193,6,0,P|283:284|361:229,1,170,0|8,1:2|2:0,2:0:0:0:
485,229,226777,1,2,2:3:0:0:
485,229,226874,2,0,P|508:180|494:125,1,85,8|0,2:0|2:0,2:0:0:0:
494,119,227167,2,0,L|502:71,2,28.333333333333325,8|8|8,2:1|2:3|2:3,2:0:0:0:
424,165,227361,6,0,P|403:128|343:108,1,63.74999999999997,8|8,1:0|2:3,2:0:0:0:
248,55,227556,2,0,P|243:97|280:148,1,63.74999999999997,8|8,2:1|2:3,2:0:0:0:
317,293,227751,6,0,P|243:248|165:270,1,127.49999999999993,4|0,1:2|1:0,2:0:0:0:
171,269,228043,1,0,1:0:0:0:
139,300,228141,2,0,L|123:405,1,63.74999999999997,8|0,2:0|2:0,2:0:0:0:
333,154,228335,5,8,2:1:0:0:
350,187,228433,1,8,2:1:0:0:
377,211,228530,1,8,2:3:0:0:
412,225,228628,1,8,2:3:0:0:
449,224,228725,1,8,2:3:0:0:
483,211,228822,1,8,2:3:0:0:
511,186,228920,2,0,L|503:97,1,68,4|0,2:3|1:0,2:0:0:0:
426,44,229115,1,4,1:0:0:0:
256,192,229212,12,0,235543,2:0:0:0:
