osu file format v14

[General]
AudioFilename: audio.mp3
AudioLeadIn: 0
PreviewTime: 58013
Countdown: 0
SampleSet: Soft
StackLeniency: 0.2
Mode: 0
LetterboxInBreaks: 0
WidescreenStoryboard: 1

[Editor]
Bookmarks: 3018,8322,10974,13626,18930,24234,34842
DistanceSpacing: 1.1
BeatDivisor: 4
GridSize: 4
TimelineZoom: 3.699999

[Metadata]
Title:Sakura, Reincarnation
TitleUnicode:さくら、Reincarnation
Artist:Sasaki Sayaka
ArtistUnicode:佐咲紗花
Creator:Riana
Version:Sakura, Moyu.
Source:さくら、もゆ。-as the Night's, Reincarnation-
Tags:visual novel eroge short ver version Sakura Moyu as the Night's Reincarnation 山本美禰子 Yamamoto Mineko 石倉誉之 Ishikura Takashi 小高光太郎 Kodaka Koutarou favorite op opening galgame japanese video game mimari shizuku- log off now
BeatmapID:2121017
BeatmapSetID:1013342

[Difficulty]
HPDrainRate:6
CircleSize:5
OverallDifficulty:8.5
ApproachRate:9
SliderMultiplier:2
SliderTickRate:1

[Events]
//Background and Video events
0,0,"kuro.jpg",0,0
Video,150,"bgv2.avi"
//Break Periods
//Storyboard Layer 0 (Background)
//Storyboard Layer 1 (Fail)
//Storyboard Layer 2 (Pass)
//Storyboard Layer 3 (Foreground)
//Storyboard Layer 4 (Overlay)
//Storyboard Sound Samples

[TimingPoints]
588,331.491712707182,4,2,1,50,1,0
588,-111.111111111111,4,2,1,50,0,0
3239,-100,4,2,1,50,0,0
8543,-333.333333333333,4,2,1,50,0,0
9704,-133.333333333333,4,2,1,50,0,0
10201,-133.333333333333,4,2,1,50,0,0
10532,-133.333333333333,4,2,1,50,0,0
11527,-100,4,2,1,53,0,0
11692,-100,4,2,1,53,0,0
11858,-100,4,2,1,55,0,0
12024,-100,4,2,1,55,0,0
12190,-100,4,2,1,57,0,0
12355,-100,4,2,1,57,0,0
12521,-100,4,2,1,60,0,0
12853,-100,4,2,1,60,0,0
13350,-100,4,2,1,60,0,0
13847,-133.333333333333,4,2,1,60,0,0
14179,-133.333333333333,4,2,1,60,0,0
14510,-133.333333333333,4,2,1,60,0,0
15173,-111.111111111111,4,2,1,60,0,0
15670,-133.333333333333,4,2,1,60,0,0
16499,-125,4,2,1,60,0,0
18488,-100,4,2,1,60,0,0
19151,-100,4,2,1,60,0,0
19482,-100,4,2,1,53,0,0
19813,-100,4,2,1,55,0,0
20146,-100,4,2,1,57,0,0
20477,-83.3333333333333,4,2,1,60,0,0
21140,-83.3333333333333,4,2,1,60,0,0
21803,-100,4,2,1,50,0,0
22963,-100,4,2,1,50,0,0
23460,-100,4,2,1,50,0,0
23626,-100,4,2,1,50,0,0
23958,-100,4,2,1,50,0,0
24123,-100,4,2,1,50,0,0
24455,-166.666666666667,4,2,1,43,0,0
25117,-166.666666666667,4,2,1,43,0,0
25615,-166.666666666667,4,2,1,43,0,0
27107,-166.666666666667,4,2,1,43,0,0
28101,-166.666666666667,4,2,1,43,0,0
30753,-166.666666666667,4,2,1,43,0,0
34731,-166.666666666667,4,2,1,50,0,0
35063,-125,4,2,1,55,0,0
40698,-125,4,2,1,55,0,0
43350,-125,4,2,1,53,0,0
43681,-125,4,2,1,55,0,0
44013,-125,4,2,1,57,0,0
44344,-100,4,2,1,60,0,0
45670,-125,4,2,1,50,0,0
47328,-100,4,2,1,50,0,0
48322,-125,4,2,1,50,0,0
50974,-200,4,2,1,40,0,0
53295,-200,4,2,1,50,0,0
53626,-100,4,2,1,63,0,0
55615,-100,4,2,1,63,0,0
55947,-100,4,2,1,63,0,0
57438,-100,4,2,1,63,0,0
57770,-100,4,2,1,63,0,0
58433,-100,4,2,1,63,0,0
58930,-66.6666666666667,4,2,1,70,0,1
60919,-66.6666666666667,4,2,1,70,0,1
61582,-83.3333333333333,4,2,1,70,0,1
61913,-83.3333333333333,4,2,1,70,0,1
63571,-83.3333333333333,4,2,1,70,0,1
67217,-83.3333333333333,4,2,1,70,0,1
67714,-83.3333333333333,4,2,1,70,0,1
68046,-74.0740740740741,4,2,1,70,0,1
68543,-100,4,2,1,70,0,1
69041,-83.3333333333333,4,2,1,70,0,1
69538,-83.3333333333333,4,2,1,70,0,1
69869,-83.3333333333333,4,2,1,70,0,1
71195,-83.3333333333333,4,2,1,70,0,1
72521,-83.3333333333333,4,2,1,70,0,1
75173,-83.3333333333333,4,2,1,70,0,1
76002,-74.0740740740741,4,2,1,70,0,1
76333,-83.3333333333333,4,2,1,70,0,1
77494,-83.3333333333333,4,2,1,70,0,1
77825,-83.3333333333333,4,2,1,70,0,1
79648,-83.3333333333333,4,2,1,70,0,1
80146,-50,4,2,1,70,0,1
82134,-83.3333333333333,4,2,1,70,0,1
82797,-83.3333333333333,4,2,1,70,0,1
83128,-83.3333333333333,4,2,1,70,0,1
84787,-83.3333333333333,4,2,1,70,0,1
88433,-83.3333333333333,4,2,1,70,0,1
88930,-83.3333333333333,4,2,1,70,0,1
89262,-74.0740740740741,4,2,1,70,0,1
89759,-83.3333333333333,4,2,1,70,0,1
90256,-83.3333333333333,4,2,1,70,0,1
90753,-83.3333333333333,4,2,1,70,0,1
91085,-83.3333333333333,4,2,1,70,0,1
92410,-83.3333333333333,4,2,1,70,0,1
93736,-83.3333333333333,4,2,1,70,0,1
94565,-100,4,2,1,70,0,1
95228,-125,4,2,1,70,0,1
96057,-100,4,2,1,70,0,1
96388,-100,4,2,1,63,0,1
96719,-100,4,2,1,64,0,1
97052,-100,4,2,1,66,0,1
97383,-100,4,2,1,70,0,1
98378,-100,4,2,1,70,0,1
98709,-800,4,2,1,70,0,0
100034,-100,4,2,1,55,0,0
100532,-100,4,2,1,60,0,0
101361,-133.333333333333,4,2,1,60,0,0
102521,-100,4,2,1,60,0,0
104013,-133.333333333333,4,2,1,60,0,0
105339,-100,4,2,1,60,0,0
106665,-333.333333333333,4,2,1,60,0,0
107825,-133.333333333333,4,2,1,60,0,0
108323,-133.333333333333,4,2,1,60,0,0
108654,-133.333333333333,4,2,1,60,0,0
109317,-133.333333333333,4,2,1,60,0,0
109648,-100,4,2,1,53,0,0
109814,-100,4,2,1,53,0,0
109980,-100,4,2,1,55,0,0
110146,-100,4,2,1,55,0,0
110311,-100,4,2,1,57,0,0
110477,-100,4,2,1,57,0,0
110643,-100,4,2,1,60,0,0
110974,-100,4,2,1,60,0,0
111472,-100,4,2,1,60,0,0
111969,-133.333333333333,4,2,1,60,0,0
112301,-133.333333333333,4,2,1,60,0,0
112632,-133.333333333333,4,2,1,60,0,0
113295,-111.111111111111,4,2,1,60,0,0
113792,-133.333333333333,4,2,1,60,0,0
115118,-125,4,2,1,60,0,0
115781,-125,4,2,1,60,0,0
116278,-133.333333333333,4,2,1,60,0,0
116610,-100,4,2,1,60,0,0
117273,-100,4,2,1,60,0,0
117604,-100,4,2,1,53,0,0
117935,-100,4,2,1,55,0,0
118268,-100,4,2,1,57,0,0
118599,-100,4,2,1,60,0,0
118930,-83.3333333333333,4,2,1,60,0,0
119262,-83.3333333333333,4,2,1,60,0,0
119925,-100,4,2,1,50,0,0
121250,-133.333333333333,4,2,1,50,0,0
121581,-133.333333333333,4,2,1,50,0,0
121748,-133.333333333333,4,2,1,50,0,0
122079,-133.333333333333,4,2,1,50,0,0
122245,-133.333333333333,4,2,1,50,0,0
122576,-135.135135135135,4,2,1,50,0,0
126886,-135.135135135135,4,2,1,30,0,0
127052,-130.718954248366,4,2,1,30,0,0

[Colours]
Combo1 : 255,200,227
Combo2 : 225,218,217
Combo3 : 255,255,179

[HitObjects]
256,192,588,12,4,2908,0:3:0:0:
0,305,3239,6,0,P|78:264|194:316,1,200,6|2,0:0|0:0,0:2:0:0:
189,181,3902,2,0,P|267:222|383:170,1,200,2|2,0:0|0:0,0:2:0:0:
291,140,4400,5,0,1:0:0:0:
291,140,4483,1,0,1:0:0:0:
291,140,4565,2,0,P|280:208|405:271,1,200,12|2,0:0|0:0,0:2:0:0:
462,178,5063,6,0,P|386:177|342:215,1,100,8|0,0:3|0:0,0:2:0:0:
291,140,5394,2,0,P|252:205|263:262,1,100,2|4,0:0|0:3,0:2:0:0:
480,16,5891,6,0,P|402:57|286:5,1,200,6|2,0:0|0:0,0:2:0:0:
291,140,6554,2,0,P|213:99|97:151,1,200,2|2,0:0|0:0,0:2:0:0:
189,181,7052,5,0,1:0:0:0:
189,181,7134,1,0,1:0:0:0:
189,181,7217,2,0,P|200:113|75:50,1,200,12|0,0:0|1:2,0:2:0:0:
18,143,7715,6,0,P|94:144|126:118,1,100,8|0,0:3|0:0,0:2:0:0:
149,267,8046,2,0,P|188:202|177:145,1,100,8|4,0:3|0:3,0:2:0:0:
251,33,8543,6,0,L|265:156,1,119.999996337891,6|2,0:0|0:0,0:2:0:0:
264,152,9704,5,2,0:0:0:0:
319,276,9869,2,0,L|329:180,1,75.0000028610231,6|0,0:0|0:2,0:2:0:0:
384,27,10201,6,0,P|378:76|419:139,1,112.500004291535,2|0,0:0|0:2,0:2:0:0:
408,130,10532,2,0,P|358:120|331:131,1,75.0000028610231,2|0,0:0|1:0,0:2:0:0:
327,202,10781,1,0,1:0:0:0:
327,202,10864,1,12,0:0:0:0:
158,343,11195,6,0,P|152:306|161:270,1,75.0000028610231,4|0,1:2|0:2,0:2:0:0:
298,132,11526,1,8,0:0:0:0:
472,223,11691,5,8,0:0:0:0:
298,132,11857,1,8,0:0:0:0:
155,190,12024,5,8,0:0:0:0:
300,322,12189,1,8,0:0:0:0:
165,0,12354,1,8,0:0:0:0:
397,128,12521,6,0,P|317:120|286:45,1,150,6|0,1:2|0:2,0:2:0:0:
285,64,12853,1,8,0:0:0:0:
504,148,13018,2,0,P|424:156|390:239,1,150,6|0,1:2|0:2,0:2:0:0:
389,210,13350,1,2,1:2:0:0:
368,52,13516,1,8,0:0:0:0:
231,217,13847,6,0,L|242:317,1,75.0000028610231,6|0,1:2|0:2,0:2:0:0:
156,383,14179,2,0,L|165:308,1,75.0000028610231,0|0,1:0|3:2,0:2:0:0:
274,98,14510,6,0,P|194:103|154:188,1,150.000005722046,2|2,1:2|1:2,0:2:0:0:
142,232,15173,2,0,P|112:158|5:159,1,179.999994506836,2|2,1:2|1:2,0:2:0:0:
25,293,15670,6,0,P|73:303|108:287,1,75.0000028610231,2|0,0:0|1:0,0:2:0:0:
137,360,16002,2,0,P|169:323|173:285,1,75.0000028610231,2|2,0:0|1:2,0:2:0:0:
174,299,16499,6,0,P|224:355|319:355,1,160,6|2,1:2|1:2,0:2:0:0:
276,201,16996,2,0,P|262:260|281:296,1,80,2|0,0:0|1:0,0:2:0:0:
417,219,17328,2,0,P|358:236|337:270,1,80,2|0,0:0|1:0,0:2:0:0:
470,339,17659,6,0,P|484:280|400:219,1,160,2|2,0:0|0:0,0:2:0:0:
409,293,18157,1,2,1:2:0:0:
470,339,18322,1,2,0:0:0:0:
506,174,18488,5,0,1:0:0:0:
416,218,18654,1,0,1:0:0:0:
506,174,18820,5,10,0:0:0:0:
473,172,18902,1,2,0:0:0:0:
436,147,18985,1,2,0:0:0:0:
413,94,19068,1,2,0:0:0:0:
442,35,19151,2,0,P|373:6|290:103,2,200,6|0|0,1:2|1:0|1:0,0:2:0:0:
74,157,20146,5,0,1:0:0:0:
7,140,20311,1,4,0:3:0:0:
92,291,20477,5,0,1:0:0:0:
124,108,20643,1,4,0:3:0:0:
92,291,20808,2,0,P|162:277|200:214,1,119.999996337891,8|0,0:0|0:2,0:2:0:0:
86,20,21140,5,8,0:0:0:0:
107,199,21306,1,8,0:3:0:0:
130,375,21471,2,0,P|53:370|-2:321,1,119.999996337891,4|0,0:3|0:2,0:2:0:0:
196,80,21803,6,0,B|263:226|384:287|475:218|475:218|469:204|470:194|470:194|476:187|491:179|491:179|482:76|348:26|255:59,1,700,4|0,1:2|0:0,0:2:0:0:
116,40,23129,6,0,L|123:90,7,33.3333333333333,2|0|0|0|0|0|0|0,0:0|0:2|0:2|0:2|0:2|0:2|0:0|0:2,0:2:0:0:
70,120,23626,2,0,L|98:160,4,33.3333333333333,8|0|0|0|0,0:3|0:2|0:2|0:2|0:2,0:2:0:0:
65,214,23958,2,0,L|108:242,1,50,8|0,0:3|0:2,0:2:0:0:
88,310,24123,2,0,L|137:321,1,50,4|0,0:3|0:2,0:2:0:0:
331,219,24455,6,0,P|414:182|458:198,3,119.999996337891,6|0|0|0,1:2|0:2|0:0|0:2,0:2:0:0:
269,282,25615,1,2,0:0:0:0:
269,282,25781,6,0,P|243:194|257:162,1,119.999996337891,2|0,1:2|0:0,0:2:0:0:
314,127,26278,1,2,1:2:0:0:
152,194,26610,2,0,P|170:153|193:133,1,59.9999981689454,2|0,0:0|1:2,0:2:0:0:
245,94,26941,1,2,0:2:0:0:
173,68,27107,6,0,P|117:54|30:47,2,119.999996337891,2|0|0,1:2|0:2|0:2,0:2:0:0:
62,217,28101,6,0,P|72:244|92:267,1,59.9999981689454,2|0,0:0|0:0,0:2:0:0:
172,268,28433,2,0,P|260:294|292:280,1,119.999996337891,2|0,1:2|0:0,0:2:0:0:
327,222,28930,1,2,1:2:0:0:
263,384,29262,2,0,P|304:366|324:343,1,59.9999981689454,2|0,0:0|1:2,0:2:0:0:
360,292,29593,1,2,0:0:0:0:
327,222,29759,6,0,P|339:158|356:93,3,119.999996337891,2|0|0|0,1:2|0:2|0:2|0:0,0:2:0:0:
387,29,30919,5,2,0:0:0:0:
387,29,31085,2,0,P|328:24|282:60,1,119.999996337891,2|0,1:2|0:0,0:2:0:0:
276,137,31582,1,2,1:2:0:0:
155,109,31913,2,0,P|211:94|235:102,2,59.9999981689454,2|0|0,0:0|1:2|0:0,0:2:0:0:
205,173,32411,6,0,P|271:212|348:138,1,179.999994506836,2|0,1:2|0:0,0:2:0:0:
426,151,33074,2,0,P|359:188|352:242,1,119.999996337891,2|0,0:0|0:0,0:2:0:0:
373,299,33571,1,2,0:0:0:0:
401,375,33737,22,0,P|350:364|266:360,1,119.999996337891,0|0,1:0|0:0,0:2:0:0:
229,305,34234,1,2,1:2:0:0:
229,305,34400,2,0,P|208:340|208:371,2,59.9999981689454,2|2|2,0:0|0:0|0:3,0:2:0:0:
320,199,35063,22,0,P|305:129|225:89,1,160,4|0,1:2|1:0,0:2:0:0:
122,156,35560,2,0,P|160:216|248:226,2,160,2|2|2,0:0|0:0|0:0,0:2:0:0:
153,88,36389,5,0,1:0:0:0:
318,261,36720,6,0,P|280:297|240:305,1,80,2|0,1:2|0:0,0:2:0:0:
150,344,37052,2,0,P|200:358|227:389,2,80,2|2|2,1:2|0:0|1:2,0:2:0:0:
22,236,37715,6,0,P|15:157|83:96,1,160,2|0,1:2|1:0,0:2:0:0:
189,128,38212,2,0,P|168:204|83:238,2,160,2|2|2,0:0|0:0|0:0,0:2:0:0:
142,68,39041,6,0,P|137:30|127:-17,2,80,2|2|0,1:2|0:0|1:0,0:2:0:0:
267,129,39538,1,2,0:0:0:0:
318,70,39704,2,0,P|282:53|243:54,2,80,2|2|2,1:2|0:0|1:2,0:2:0:0:
458,167,40367,6,0,P|422:183|382:183,1,80,2|0,1:2|0:2,0:2:0:0:
324,241,40698,1,2,1:2:0:0:
230,156,40864,2,0,P|246:226|346:225,1,160,2|0,0:0|0:0,0:2:0:0:
382,183,41361,1,2,1:2:0:0:
476,268,41527,2,0,P|460:198|360:199,1,160,2|0,0:0|0:0,0:2:0:0:
324,241,42024,6,0,P|283:244|243:224,1,80,2|0,1:2|0:0,0:2:0:0:
253,326,42355,2,0,P|289:256|347:238,2,120,2|2|2,1:2|0:0|0:0,0:2:0:0:
176,133,43018,1,4,1:2:0:0:
176,133,43350,5,0,1:0:0:0:
131,284,43516,1,8,0:0:0:0:
138,220,43681,5,0,1:0:0:0:
232,264,43847,1,8,0:0:0:0:
202,206,44013,1,0,1:0:0:0:
189,314,44179,1,8,0:0:0:0:
295,211,44344,5,8,1:2:0:0:
440,277,44510,1,8,1:2:0:0:
295,211,44676,1,8,1:2:0:0:
448,167,44842,5,2,0:0:0:0:
259,292,45007,1,2,1:2:0:0:
138,115,45173,1,8,0:3:0:0:
375,199,45339,2,0,P|367:254|313:289,1,100,4|0,0:3|0:0,0:2:0:0:
16,169,45670,6,0,P|110:152|166:223,1,160,4|2,1:2|0:0,0:2:0:0:
192,253,46168,1,0,1:0:0:0:
192,253,46333,2,0,L|206:100,1,120,10|0,0:0|0:0,0:2:0:0:
206,137,46665,1,2,1:2:0:0:
167,65,46831,1,2,1:2:0:0:
167,65,47328,6,0,P|252:117|371:63,2,200,2|10|2,0:0|0:0|0:0,0:2:0:0:
194,176,48322,6,0,P|100:159|44:230,1,160,2|2,1:2|0:0,0:2:0:0:
18,260,48820,1,0,1:0:0:0:
18,260,48985,2,0,L|4:107,1,120,10|0,0:0|0:0,0:2:0:0:
7,140,49317,1,2,1:2:0:0:
68,92,49483,1,2,0:0:0:0:
134,243,49648,5,0,1:0:0:0:
134,243,49814,1,8,0:0:0:0:
118,321,49980,1,8,0:3:0:0:
247,99,50311,5,8,0:0:0:0:
247,99,50477,1,8,0:3:0:0:
262,177,50643,1,4,0:3:0:0:
256,328,50974,6,0,P|341:306|364:316,2,100,2|0|0,1:2|0:0|3:0,0:2:0:0:
511,325,51969,2,0,P|426:347|403:337,2,100,2|0|0,0:3|0:0|3:0,0:2:0:0:
398,138,52963,5,2,3:0:0:0:
337,370,53129,1,2,0:0:0:0:
368,255,53295,1,2,0:0:0:0:
77,237,53460,5,0,1:0:0:0:
77,237,53543,1,0,1:0:0:0:
77,237,53626,2,0,P|159:269|209:249,1,100,4|0,1:2|1:0,0:2:0:0:
293,132,53958,1,0,1:0:0:0:
75,115,54123,2,0,P|88:202|130:235,1,100,12|0,0:0|1:0,0:2:0:0:
281,241,54455,5,0,1:0:0:0:
309,31,54621,1,12,0:0:0:0:
281,241,54786,1,0,1:0:0:0:
34,45,54952,5,0,1:0:0:0:
189,117,55118,1,12,0:0:0:0:
23,302,55284,2,0,P|29:244|97:191,1,100,2|0,1:2|1:0,0:2:0:0:
204,312,55615,5,8,0:3:0:0:
142,333,55698,1,8,0:3:0:0:
103,281,55781,1,4,0:3:0:0:
140,228,55864,1,4,0:3:0:0:
202,247,55947,1,8,0:0:0:0:
204,312,56278,5,10,0:0:0:0:
480,157,56444,1,10,0:0:0:0:
140,228,56775,5,10,0:0:0:0:
84,39,57107,1,10,0:0:0:0:
199,138,57273,5,0,1:0:0:0:
199,138,57355,1,0,1:0:0:0:
199,138,57438,2,0,P|200:90|167:54,1,100,14|0,0:0|0:2,0:2:0:0:
61,178,57770,1,10,1:2:0:0:
221,0,57936,1,10,1:2:0:0:
473,250,58101,5,2,0:2:0:0:
428,228,58184,1,2,0:0:0:0:
418,193,58267,2,0,L|428:118,1,50,2|10,1:2|0:0,0:0:0:0:
418,4,58433,5,8,0:0:0:0:
404,75,58516,1,8,0:0:0:0:
355,125,58598,1,8,0:0:0:0:
291,137,58681,1,8,0:0:0:0:
231,117,58764,1,8,0:0:0:0:
193,67,58847,1,8,0:0:0:0:
193,67,58930,6,0,B|213:23|282:21|282:21|313:36|324:106,1,150.000005722046,6|0,1:2|0:0,0:2:0:0:
91,211,59262,2,0,B|55:177|75:112|75:112|99:87|169:98,1,150.000005722046,10|0,0:0|0:0,0:2:0:0:
201,356,59593,2,0,B|158:379|102:340|102:340|85:310|118:246,1,150.000005722046,2|0,1:2|0:0,0:2:0:0:
369,298,59925,2,0,B|377:345|323:387|323:387|289:393|239:343,1,150.000005722046,10|0,0:0|0:0,0:2:0:0:
370,118,60256,2,0,B|417:124|440:188|440:188|436:222|372:255,1,150.000005722046,2|0,1:2|0:0,0:2:0:0:
193,67,60587,2,0,B|213:23|282:21|282:21|313:36|324:106,1,150.000005722046,8|0,0:0|0:0,0:2:0:0:
246,215,60919,5,2,1:2:0:0:
126,15,61085,1,2,1:2:0:0:
246,215,61250,2,0,P|146:275|99:253,1,150.000005722046,10|0,0:0|0:0,0:2:0:0:
259,31,61582,6,0,P|331:8|394:99,1,179.999994506836,2|0,1:2|0:2,0:2:0:0:
394,77,61913,1,8,0:0:0:0:
256,141,62079,2,0,P|237:84|260:30,1,119.999996337891,2|0,0:0|0:0,0:2:0:0:
512,0,62411,2,0,P|457:22|400:4,1,119.999996337891,2|8,1:2|0:0,0:2:0:0:
149,179,62742,6,0,P|224:71|333:104,1,239.999992675781,2|0,1:2|1:0,0:2:0:0:
506,98,63239,2,0,P|452:163|347:144,1,179.999994506836,10|0,0:0|0:2,0:2:0:0:
363,156,63571,5,2,1:2:0:0:
392,13,63737,1,0,1:0:0:0:
279,209,63902,5,10,0:0:0:0:
253,79,64068,1,0,1:0:0:0:
23,174,64234,6,0,P|88:138|140:152,1,119.999996337891,6|0,1:2|0:0,0:2:0:0:
257,279,64565,2,0,P|191:314|139:300,1,119.999996337891,10|0,0:0|0:0,0:2:0:0:
30,99,64897,6,0,P|102:112|133:156,1,119.999996337891,2|0,1:2|0:0,0:2:0:0:
249,354,65228,2,0,P|175:338|144:294,1,119.999996337891,10|0,0:0|0:0,0:2:0:0:
213,138,65560,5,2,1:2:0:0:
213,138,65726,1,0,1:0:0:0:
94,382,65891,2,0,P|59:315|73:263,1,119.999996337891,10|0,0:2|0:0,0:2:0:0:
407,321,66223,5,2,1:2:0:0:
385,100,66389,1,2,1:2:0:0:
407,321,66554,2,0,P|464:310|500:263,1,119.999996337891,10|0,0:0|0:0,0:2:0:0:
385,100,66886,6,0,P|356:171|441:242,1,179.999994506836,2|0,1:2|0:2,0:2:0:0:
418,240,67217,1,8,0:0:0:0:
464,84,67383,2,0,P|417:23|313:61,1,179.999994506836,2|0,0:0|0:2,0:2:0:0:
325,43,67714,1,2,1:2:0:0:
439,163,67880,1,8,0:0:0:0:
72,285,68046,6,0,B|130:246|203:288|203:288|277:326|333:286,1,270.000001029968,4|0,1:2|1:0,0:2:0:0:
312,123,68543,2,0,P|273:186|276:218,1,100,10|0,0:0|0:0,0:2:0:0:
464,84,68875,1,0,1:0:0:0:
21,26,69041,5,8,0:0:0:0:
96,28,69124,1,8,0:0:0:0:
154,66,69206,1,8,0:0:0:0:
175,127,69289,1,8,0:0:0:0:
166,189,69372,1,8,0:0:0:0:
125,237,69455,1,8,0:0:0:0:
125,237,69538,6,0,P|103:176|164:124,1,119.999996337891,4|0,1:2|0:2,0:2:0:0:
319,48,69869,2,0,P|278:174|202:147,1,239.999992675781,8|0,0:0|1:0,0:2:0:0:
262,98,70367,1,0,1:0:0:0:
387,183,70532,1,10,0:0:0:0:
167,228,70698,1,2,0:0:0:0:
13,106,70864,6,0,P|77:142|59:275,1,179.999994506836,2|0,1:2|0:2,0:2:0:0:
87,240,71195,1,10,0:0:0:0:
6,201,71361,1,2,0:0:0:0:
205,150,71527,2,0,P|237:81|219:23,2,119.999996337891,0|2|8,1:0|1:2|0:0,0:2:0:0:
376,370,72024,5,2,0:0:0:0:
376,370,72190,2,0,P|329:309|341:252,1,119.999996337891,2|0,1:2|0:2,0:2:0:0:
447,120,72521,2,0,P|434:177|386:211,1,119.999996337891,8|0,0:0|0:0,0:2:0:0:
366,126,72853,1,0,1:0:0:0:
366,126,73019,1,0,1:0:0:0:
391,289,73184,1,10,0:0:0:0:
247,384,73350,1,2,0:0:0:0:
122,276,73516,6,0,P|176:236|226:240,1,119.999996337891,2|0,1:2|0:0,0:2:0:0:
391,289,73847,2,0,P|336:328|286:324,1,119.999996337891,10|2,0:0|0:2,0:2:0:0:
90,210,74179,5,0,1:0:0:0:
200,324,74344,1,2,1:2:0:0:
317,245,74510,2,0,P|347:194|338:136,1,119.999996337891,14|0,0:2|0:0,0:2:0:0:
156,255,74842,6,0,P|121:197|129:148,1,119.999996337891,6|0,1:2|0:2,0:2:0:0:
273,11,75173,2,0,P|240:69|193:87,1,119.999996337891,8|0,0:0|0:0,0:2:0:0:
7,37,75505,2,0,P|74:35|112:67,1,119.999996337891,0|0,1:0|0:0,0:2:0:0:
156,255,75836,5,10,0:0:0:0:
177,0,76002,2,0,P|126:42|135:191,1,202.500000772476,2|0,0:0|0:2,0:2:0:0:
120,170,76333,1,0,1:0:0:0:
7,13,76499,6,0,P|14:100|63:144,1,119.999996337891,8|0,0:0|0:0,0:2:0:0:
177,0,76831,2,0,P|126:42|112:137,1,119.999996337891,0|0,1:0|0:0,0:2:0:0:
42,250,77162,6,0,P|98:269|169:245,1,119.999996337891,10|0,0:0|0:2,0:2:0:0:
300,209,77494,2,0,P|224:287|247:381,1,179.999994506836,4|0,1:2|0:2,0:2:0:0:
228,351,77825,2,0,P|256:288|247:231,1,119.999996337891,8|0,0:0|0:0,0:2:0:0:
135,340,78157,1,0,1:0:0:0:
324,284,78322,5,2,1:2:0:0:
228,85,78488,1,10,0:0:0:0:
228,351,78654,2,0,P|253:372|438:306,1,239.999992675781,6|0,1:2|1:0,0:2:0:0:
106,230,79151,2,0,P|115:315|149:351,1,119.999996337891,8|8,0:0|0:3,0:2:0:0:
458,187,79483,5,4,0:3:0:0:
480,119,79565,1,4,0:3:0:0:
461,51,79648,1,8,0:0:0:0:
389,54,79731,1,8,0:0:0:0:
326,82,79814,1,8,0:0:0:0:
285,129,79897,1,8,0:0:0:0:
263,185,79980,1,8,0:0:0:0:
262,243,80063,1,8,0:0:0:0:
292,293,80146,6,0,B|316:313|347:319|388:304|388:304|380:267|360:237|332:224,1,200,4|0,1:2|0:0,0:2:0:0:
75,129,80477,2,0,B|43:126|15:140|-9:176|-9:176|19:201|52:214|83:208,1,200,10|0,0:0|0:0,0:2:0:0:
336,141,80809,2,0,B|362:124|377:96|376:53|376:53|338:49|303:59|282:81,1,200,2|0,1:2|0:0,0:2:0:0:
112,296,81140,2,0,B|100:325|104:356|131:390|131:390|163:371|186:343|189:312,1,200,10|0,0:0|0:0,0:2:0:0:
207,42,81471,2,0,B|199:11|177:-11|135:-23|135:-23|120:11|119:47|134:74,1,200,2|0,1:2|0:0,0:2:0:0:
285,302,81803,2,0,B|308:322|339:328|381:313|381:313|373:276|352:246|325:233,1,200,10|0,0:2|0:0,0:2:0:0:
96,217,82134,5,2,1:2:0:0:
316,121,82300,1,2,1:2:0:0:
96,217,82466,2,0,P|81:307|123:388,1,179.999994506836,10|0,0:0|0:2,0:2:0:0:
471,225,82797,6,0,P|406:184|321:255,1,179.999994506836,2|0,1:2|0:2,0:2:0:0:
326,233,83128,1,8,0:0:0:0:
448,333,83294,2,0,P|479:283|471:225,1,119.999996337891,2|0,0:0|0:0,0:2:0:0:
244,172,83626,2,0,P|275:221|331:239,1,119.999996337891,2|10,1:2|0:0,0:2:0:0:
448,65,83957,6,0,P|383:125|435:296,1,239.999992675781,2|0,0:0|1:0,0:2:0:0:
266,54,84455,2,0,P|157:99|141:200,1,179.999994506836,10|0,0:0|0:2,0:2:0:0:
149,230,84787,5,2,1:2:0:0:
55,140,84953,1,0,1:0:0:0:
259,288,85118,5,10,0:0:0:0:
289,145,85284,1,0,1:0:0:0:
413,248,85450,6,0,P|347:212|295:226,1,119.999996337891,6|0,1:2|0:0,0:2:0:0:
152,262,85781,2,0,P|217:297|269:283,1,119.999996337891,10|0,0:0|0:0,0:2:0:0:
397,118,86112,6,0,P|321:119|283:157,1,119.999996337891,2|0,1:2|0:0,0:2:0:0:
191,312,86444,2,0,P|264:309|302:271,1,119.999996337891,10|0,0:0|0:0,0:2:0:0:
211,125,86775,5,2,1:2:0:0:
211,125,86941,1,0,1:0:0:0:
259,337,87107,2,0,P|321:298|335:246,1,119.999996337891,10|0,0:0|0:0,0:2:0:0:
56,304,87439,5,2,1:2:0:0:
30,78,87605,1,2,1:2:0:0:
56,304,87770,2,0,P|113:293|149:246,1,119.999996337891,10|0,0:0|0:0,0:2:0:0:
30,78,88102,6,0,P|1:149|86:220,1,179.999994506836,2|0,1:2|0:2,0:2:0:0:
64,218,88433,1,8,0:0:0:0:
270,196,88599,2,0,P|223:135|119:173,1,179.999994506836,2|0,0:0|0:2,0:2:0:0:
131,155,88930,1,2,1:2:0:0:
342,97,89096,1,8,0:0:0:0:
512,355,89262,6,0,B|453:317|380:359|380:359|306:397|251:357,1,270.000001029968,4|0,1:2|1:0,0:2:0:0:
349,171,89759,2,0,P|406:245|403:277,1,119.999996337891,10|0,0:0|0:0,0:2:0:0:
100,278,90091,1,0,1:0:0:0:
342,97,90256,5,8,0:0:0:0:
267,99,90339,1,8,0:0:0:0:
209,137,90421,1,8,0:0:0:0:
188,198,90504,1,8,0:0:0:0:
197,260,90587,1,8,0:0:0:0:
238,308,90670,1,8,0:0:0:0:
238,308,90753,6,0,P|259:247|198:195,1,119.999996337891,4|0,1:2|0:2,0:2:0:0:
43,107,91085,2,0,P|93:240|167:206,1,239.999992675781,8|0,0:0|1:0,0:2:0:0:
105,161,91583,1,0,1:0:0:0:
35,305,91748,1,10,0:0:0:0:
230,204,91914,1,2,0:0:0:0:
157,0,92079,6,0,P|204:55|142:174,1,179.999994506836,2|0,1:2|0:2,0:2:0:0:
180,151,92410,1,10,0:0:0:0:
117,86,92576,1,2,0:0:0:0:
393,0,92742,2,0,P|320:15|271:78,2,119.999996337891,0|2|8,1:0|1:2|0:0,0:2:0:0:
491,61,93239,1,2,0:0:0:0:
421,312,93405,6,0,P|374:251|386:194,1,119.999996337891,2|0,1:2|0:2,0:2:0:0:
491,61,93736,2,0,P|478:118|430:152,1,119.999996337891,8|0,0:0|0:0,0:2:0:0:
410,72,94068,1,0,1:0:0:0:
410,72,94234,1,2,1:2:0:0:
454,229,94399,5,10,0:0:0:0:
282,320,94565,1,2,0:0:0:0:
454,229,94731,2,0,P|439:310|402:341,2,100,0|2|8,1:0|1:2|0:0,0:2:0:0:
282,320,95228,6,0,P|257:273|254:224,1,80,2|0,0:0|1:0,0:2:0:0:
355,296,95560,2,0,P|348:368|327:396,1,80,2|8,1:2|0:0,0:2:0:0:
252,247,95891,5,0,0:2:0:0:
37,382,96057,2,0,P|75:322|221:335,2,200,6|0|0,1:2|1:0|1:0,0:2:0:0:
89,137,97052,1,0,1:0:0:0:
206,183,97217,1,4,0:3:0:0:
95,284,97383,5,0,1:0:0:0:
95,284,97549,1,4,0:3:0:0:
196,45,97715,1,12,0:0:0:0:
471,18,97880,1,8,0:3:0:0:
442,80,97963,1,8,0:3:0:0:
377,101,98046,1,4,0:3:0:0:
259,15,98212,5,4,0:3:0:0:
377,101,98378,2,0,P|407:175|396:224,1,100,0|0,1:0|0:2,0:2:0:0:
197,175,98709,2,0,P|277:184|314:218,1,100,6|2,1:2|0:0,0:2:0:0:
357,159,100532,5,0,1:0:0:0:
388,137,100615,1,0,1:0:0:0:
398,98,100698,1,8,0:0:0:0:
398,98,100864,5,8,0:0:0:0:
357,159,100947,1,8,0:0:0:0:
355,228,101029,1,8,0:0:0:0:
392,281,101112,1,8,0:0:0:0:
448,309,101195,1,8,0:0:0:0:
512,303,101278,1,8,0:0:0:0:
512,303,101361,6,0,P|454:290|390:374,1,150.000005722046,6|2,0:0|0:0,0:2:0:0:
355,228,102024,2,0,P|297:241|233:157,1,150.000005722046,2|2,0:0|0:0,0:2:0:0:
362,236,102521,5,0,1:0:0:0:
362,236,102604,1,0,1:0:0:0:
362,236,102687,2,0,P|325:284|169:281,1,200,12|2,0:0|0:0,0:2:0:0:
280,306,103184,6,0,P|256:358|209:381,1,100,8|0,0:3|0:0,0:2:0:0:
110,289,103516,2,0,P|134:237|181:214,1,100,2|4,0:0|0:3,0:2:0:0:
0,95,104013,6,0,P|58:82|122:166,1,150.000005722046,6|2,0:0|0:0,0:2:0:0:
157,44,104676,2,0,P|215:57|279:-27,1,150.000005722046,2|2,0:0|0:0,0:2:0:0:
164,51,105173,5,0,1:0:0:0:
164,51,105256,1,0,1:0:0:0:
164,51,105339,2,0,P|201:99|357:96,1,200,12|0,0:0|1:0,0:2:0:0:
247,122,105836,6,0,P|271:174|318:197,1,100,8|0,0:3|0:0,0:2:0:0:
357,32,106168,2,0,P|398:59|417:105,1,100,8|4,0:3|0:3,0:2:0:0:
384,179,106665,6,0,L|507:165,1,119.999996337891,6|2,0:0|0:2,0:2:0:0:
503,165,107825,5,2,0:0:0:0:
460,327,107991,2,0,L|450:231,1,75.0000028610231,6|0,0:0|0:2,0:2:0:0:
309,133,108323,6,0,P|261:145|216:205,1,112.500004291535,2|0,0:0|0:2,0:2:0:0:
221,190,108654,2,0,P|190:149|188:120,1,75.0000028610231,2|0,0:0|1:0,0:2:0:0:
223,59,108903,1,0,1:0:0:0:
223,59,108986,1,12,0:0:0:0:
310,301,109317,6,0,P|316:264|307:228,1,75.0000028610231,4|0,1:2|0:2,0:2:0:0:
187,126,109648,1,8,0:0:0:0:
44,186,109813,5,8,0:0:0:0:
187,126,109979,1,8,0:0:0:0:
307,228,110146,5,8,0:0:0:0:
27,353,110311,1,8,0:0:0:0:
200,41,110476,1,8,0:0:0:0:
307,228,110643,6,0,P|260:293|179:282,1,150,6|0,1:2|0:2,0:2:0:0:
195,292,110974,1,8,0:0:0:0:
389,212,111140,2,0,P|341:145|252:157,1,150,6|0,1:2|0:2,0:2:0:0:
278,143,111472,1,2,1:2:0:0:
200,41,111638,1,8,0:0:0:0:
0,194,111969,6,0,L|100:205,1,75.0000028610231,6|0,1:2|0:2,0:2:0:0:
115,264,112301,2,0,L|190:255,1,75.0000028610231,0|0,1:0|0:2,0:2:0:0:
294,329,112632,6,0,P|337:263|431:270,1,150.000005722046,2|2,1:2|1:2,0:2:0:0:
504,257,113295,2,0,P|430:227|431:120,1,179.999994506836,2|2,1:2|1:2,0:2:0:0:
420,137,113792,6,0,P|383:169|345:173,1,75.0000028610231,2|0,0:0|1:0,0:2:0:0:
308,246,114124,2,0,P|261:229|239:199,1,75.0000028610231,2|2,0:0|1:2,0:2:0:0:
245,210,114621,6,0,P|309:245|311:332,1,150.000005722046,6|2,1:2|1:2,0:2:0:0:
182,252,115118,2,0,P|231:211|271:215,1,80,2|0,0:0|1:0,0:2:0:0:
117,290,115449,2,0,P|110:228|134:196,1,80,2|0,0:0|1:0,0:2:0:0:
45,323,115781,6,0,P|39:268|132:216,1,160,2|2,0:0|0:0,0:2:0:0:
117,290,116279,1,2,1:2:0:0:
45,323,116444,1,2,0:0:0:0:
0,179,116610,5,0,1:0:0:0:
117,213,116776,1,0,1:0:0:0:
88,95,116942,5,10,0:0:0:0:
120,114,117024,1,2,0:0:0:0:
164,110,117107,1,2,0:0:0:0:
208,72,117190,1,2,0:0:0:0:
214,9,117273,2,0,P|283:-19|366:76,2,200,6|0|0,1:2|1:0|1:0,0:2:0:0:
316,178,118267,5,0,1:0:0:0:
249,161,118433,1,4,0:3:0:0:
413,287,118599,5,0,1:0:0:0:
445,104,118765,1,4,0:3:0:0:
413,287,118930,2,0,P|483:273|521:210,1,119.999996337891,8|0,0:0|0:2,0:2:0:0:
407,16,119262,21,8,0:0:0:0:
428,195,119428,1,8,0:3:0:0:
451,371,119593,2,0,P|374:366|319:317,1,119.999996337891,4|0,0:3|0:2,0:2:0:0:
162,154,119925,22,0,B|190:70|313:-3|399:53|399:53|396:69|398:79|398:79|405:85|420:89|420:89|418:203|296:261|140:225,1,700,4|0,1:2|0:0,0:2:0:0:
10,317,121250,22,0,L|47:311,7,25.0000009536744,2|0|0|0|0|0|0|0,0:0|0:2|0:2|0:2|0:2|0:2|0:0|0:2,0:2:0:0:
81,360,121748,2,0,L|111:339,4,25.0000009536744,8|0|0|0|0,0:3|0:2|0:2|0:2|0:2,0:2:0:0:
160,376,122079,2,0,L|185:344,1,37.5000014305115,8|0,0:3|0:2,0:2:0:0:
247,359,122245,2,0,L|255:321,1,37.5000014305115,4|0,0:3|0:2,0:2:0:0:
202,115,122576,22,0,B|220:117|243:114|243:114|258:141|258:141|390:202|390:202|403:195|403:195|415:215|415:215|429:214|429:214|435:224|435:224|488:254|512:257|512:257|513:285|524:301|524:301|508:303|479:314|479:314|455:302|455:302|440:329|440:329|446:341|446:341|417:377|417:377|421:360|421:360|400:336|400:336|393:325|393:325|378:326|378:326|348:323|348:323|335:340|335:340|345:294|345:294|365:286|365:286|376:264|376:264|232:198|232:198|201:204|201:204|190:176|169:173|169:173|128:211|82:239|28:212|28:212|183:231|171:52|104:12|-42:36|-17:157|-17:157|-74:31|47:-33|114:-17|155:9,1,1924.00004697266,6|2,1:2|0:2,0:2:0:0:
165,19,126969,1,2,0:2:0:0:
170,31,127052,1,2,0:0:0:0:
