osu file format v14

[General]
AudioFilename: audio.mp3
AudioLeadIn: 0
PreviewTime: 58013
Countdown: 0
SampleSet: Soft
StackLeniency: 0.6
Mode: 0
LetterboxInBreaks: 0
WidescreenStoryboard: 1

[Editor]
Bookmarks: 3018,8322,10974,13626,18930,24234,34842,45449,58709,98488,111748,122355
DistanceSpacing: 1.1
BeatDivisor: 4
GridSize: 4
TimelineZoom: 2.7

[Metadata]
Title:Sakura, Reincarnation
TitleUnicode:さくら、Reincarnation
Artist:Sasaki Sayaka
ArtistUnicode:佐咲紗花
Creator:Riana
Version:Normal
Source:さくら、もゆ。-as the Night's, Reincarnation-
Tags:visual novel eroge short ver version Sakura Moyu as the Night's Reincarnation 山本美禰子 Yamamoto Mineko 石倉誉之 Ishikura Takashi 小高光太郎 Kodaka Koutarou favorite op opening galgame japanese video game mimari shizuku- log off now
BeatmapID:2245450
BeatmapSetID:1013342

[Difficulty]
HPDrainRate:4
CircleSize:3
OverallDifficulty:4
ApproachRate:5.5
SliderMultiplier:1.1
SliderTickRate:1

[Events]
//Background and Video events
0,0,"kuro.jpg",0,0
Video,150,"bgv2.avi"
//Break Periods
//Storyboard Layer 0 (Background)
//Storyboard Layer 1 (Fail)
//Storyboard Layer 2 (Pass)
//Storyboard Layer 3 (Foreground)
//Storyboard Layer 4 (Overlay)
//Storyboard Sound Samples

[TimingPoints]
588,331.491712707182,4,2,1,50,1,0
3239,-100,4,2,1,50,0,0
8543,-100,4,2,1,50,0,0
9869,-100,4,2,1,50,0,0
10201,-100,4,2,1,50,0,0
11526,-100,4,2,1,53,0,0
11858,-100,4,2,1,55,0,0
12189,-100,4,2,1,57,0,0
12521,-100,4,2,1,60,0,0
13847,-100,4,2,1,60,0,0
19151,-100,4,2,1,60,0,0
19482,-100,4,2,1,53,0,0
19813,-100,4,2,1,55,0,0
20146,-100,4,2,1,57,0,0
20477,-100,4,2,1,60,0,0
21803,-100,4,2,1,50,0,0
23129,-100,4,2,1,50,0,0
24455,-100,4,2,1,43,0,0
25118,-100,4,2,1,43,0,0
25615,-100,4,2,1,43,0,0
28101,-100,4,2,1,43,0,0
30256,-100,4,2,1,43,0,0
33737,-100,4,2,1,43,0,0
34731,-100,4,2,1,50,0,0
35063,-100,4,2,1,55,0,0
43018,-100,4,2,1,55,0,0
43349,-100,4,2,1,53,0,0
43681,-100,4,2,1,55,0,0
44012,-100,4,2,1,57,0,0
44344,-100,4,2,1,60,0,0
45670,-100,4,2,1,50,0,0
50974,-100,4,2,1,40,0,0
53294,-100,4,2,1,50,0,0
53626,-100,4,2,1,63,0,0
58599,-100,4,2,1,63,0,0
58930,-90.9090909090909,4,2,1,70,0,1
74842,-90.9090909090909,4,2,1,70,0,1
79814,-90.9090909090909,4,2,1,70,0,1
96057,-90.9090909090909,4,2,1,70,0,1
96388,-90.9090909090909,4,2,1,63,0,1
96719,-90.9090909090909,4,2,1,64,0,1
97052,-90.9090909090909,4,2,1,66,0,1
97383,-90.9090909090909,4,2,1,70,0,1
98378,-90.9090909090909,4,2,1,70,0,1
98709,-100,4,2,1,70,0,0
100035,-100,4,2,1,55,0,0
100532,-100,4,2,1,60,0,0
100698,-100,4,2,1,60,0,0
101361,-100,4,2,1,60,0,0
106665,-100,4,2,1,60,0,0
107991,-100,4,2,1,60,0,0
108322,-100,4,2,1,60,0,0
109648,-100,4,2,1,53,0,0
109980,-100,4,2,1,55,0,0
110311,-100,4,2,1,57,0,0
110643,-100,4,2,1,60,0,0
111969,-100,4,2,1,60,0,0
117273,-100,4,2,1,60,0,0
117604,-100,4,2,1,53,0,0
117935,-100,4,2,1,55,0,0
118268,-100,4,2,1,57,0,0
118599,-100,4,2,1,60,0,0
119925,-100,4,2,1,50,0,0
121250,-100,4,2,1,50,0,0
127052,-100,4,2,1,50,0,0

[Colours]
Combo1 : 255,200,227
Combo2 : 225,218,217
Combo3 : 255,255,179

[HitObjects]
99,85,3239,6,0,P|135:75|217:107,1,110,6|2,0:0|0:0,0:0:0:0:
288,180,3902,1,2,0:0:0:0:
362,84,4234,1,2,0:0:0:0:
483,90,4565,2,0,L|463:269,2,165,12|8|4,0:0|0:3|0:3,0:0:0:0:
390,168,5891,6,0,P|354:178|272:146,1,110,6|2,0:0|0:0,0:0:0:0:
211,62,6554,1,2,0:0:0:0:
90,75,6886,1,2,0:0:0:0:
55,190,7217,2,0,L|74:369,2,165,12|8|4,0:0|0:3|0:3,0:0:0:0:
162,245,8543,6,0,B|271:285|256:196|380:239,1,220,6|2,0:0|0:0,0:0:0:0:
214,152,9704,1,2,0:0:0:0:
214,152,9869,2,0,L|205:24,1,110,6|2,0:0|0:0,0:0:0:0:
83,20,10532,1,2,0:0:0:0:
104,139,10864,1,12,0:0:0:0:
33,236,11195,6,0,P|82:238|140:293,1,110,4|8,1:2|0:0,0:0:0:0:
150,330,11692,1,8,0:0:0:0:
150,330,11858,2,0,L|274:324,1,110,8|8,0:0|0:0,0:0:0:0:
380,318,12521,5,6,1:2:0:0:
359,199,12852,1,8,0:0:0:0:
408,163,13018,2,0,P|426:109|407:40,1,110,6|2,1:2|1:2,0:0:0:0:
364,26,13516,1,8,0:0:0:0:
245,52,13847,6,0,L|235:184,2,110,6|0|2,1:2|1:0|1:2,0:0:0:0:
145,121,14842,1,2,1:2:0:0:
183,235,15173,2,0,P|237:253|294:232,1,110,2|2,1:2|1:2,0:0:0:0:
331,195,15670,1,2,0:0:0:0:
416,282,16002,1,2,0:0:0:0:
490,116,16499,6,0,P|435:134|378:113,1,110,6|2,1:2|1:2,0:0:0:0:
343,77,16996,1,2,0:0:0:0:
254,158,17328,1,2,0:0:0:0:
291,272,17659,2,0,P|208:253|171:278,1,110,2|2,0:0|0:0,0:0:0:0:
153,309,18157,1,2,1:2:0:0:
153,309,18322,2,0,L|139:126,1,165,2|8,0:0|0:0,0:0:0:0:
231,63,19151,6,0,P|277:53|346:85,2,110,6|0|0,1:2|1:0|1:0,0:0:0:0:
116,20,20146,1,0,1:0:0:0:
70,131,20477,2,0,L|78:198,1,55,0|4,1:0|0:3,0:0:0:0:
84,246,20808,1,8,0:0:0:0:
202,220,21140,2,0,L|194:287,1,55,8|8,0:0|0:3,0:0:0:0:
188,334,21471,1,4,0:3:0:0:
297,282,21803,6,0,P|403:211|460:368,1,330,4|0,1:2|0:0,0:0:0:0:
347,367,23129,2,0,L|159:357,1,165,2|8,0:0|0:3,0:0:0:0:
91,289,23958,1,8,0:3:0:0:
91,289,24123,1,4,0:3:0:0:
121,176,24455,6,0,P|175:200|247:186,1,110,4|0,1:2|0:0,0:0:0:0:
305,120,25118,2,0,P|359:97|431:110,1,110,2|0,0:0|0:0,0:0:0:0:
458,135,25615,1,0,0:0:0:0:
458,135,25781,5,2,1:2:0:0:
370,274,26278,1,2,1:2:0:0:
224,195,26775,1,2,1:2:0:0:
114,204,27107,6,0,L|95:320,1,110,2|0,1:2|0:0,0:0:0:0:
121,361,27604,1,0,0:0:0:0:
216,304,27936,1,0,0:0:0:0:
216,304,28101,1,2,0:0:0:0:
325,295,28433,5,2,1:2:0:0:
382,140,28930,1,2,1:2:0:0:
241,50,29427,1,2,1:2:0:0:
172,136,29759,6,0,P|226:160|298:146,1,110,2|0,1:2|0:0,0:0:0:0:
321,124,30256,1,0,0:0:0:0:
352,229,30587,1,2,0:0:0:0:
240,350,31085,5,2,1:2:0:0:
99,263,31582,1,2,1:2:0:0:
137,102,32079,1,2,1:2:0:0:
240,139,32411,6,0,L|55:169,1,165,2|0,1:2|0:0,0:0:0:0:
46,211,33074,1,2,0:0:0:0:
46,211,33240,1,0,0:0:0:0:
175,313,33737,5,0,1:0:0:0:
321,236,34234,1,2,1:2:0:0:
335,71,34731,1,2,0:3:0:0:
228,14,35063,6,0,P|217:72|244:136,2,110,4|0|0,1:2|1:0|1:0,0:0:0:0:
335,71,36057,1,0,1:0:0:0:
329,192,36389,2,0,P|270:223|210:203,1,110,0|2,1:0|1:2,0:0:0:0:
132,143,37052,2,0,P|176:113|231:118,1,110,2|2,1:2|1:2,0:0:0:0:
350,100,37715,6,0,P|357:49|324:-6,2,110,2|0|0,1:2|1:0|1:0,0:0:0:0:
395,212,38709,1,0,1:0:0:0:
502,155,39041,2,0,L|510:84,2,55,2|2|0,1:2|0:0|1:0,0:0:0:0:
495,276,39704,2,0,P|445:328|398:335,1,110,2|2,1:2|1:2,0:0:0:0:
292,307,40367,6,0,L|176:317,2,110,2|2|0,1:2|1:2|1:0,0:0:0:0:
326,190,41361,1,2,1:2:0:0:
235,109,41692,1,0,1:0:0:0:
119,145,42024,2,0,P|75:138|21:85,2,110,2|2|0,1:2|1:2|0:0,0:0:0:0:
235,110,43018,6,0,L|215:240,1,110,4|0,1:2|1:0,0:0:0:0:
175,261,43516,1,8,0:0:0:0:
175,261,43681,2,0,L|188:377,1,110,0|0,1:0|1:0,0:0:0:0:
295,316,44344,2,0,P|337:314|354:321,1,55,8|8,1:2|1:2,0:0:0:0:
391,353,44676,1,8,1:2:0:0:
422,236,45007,2,0,P|405:194|412:117,1,110,2|4,1:2|0:3,0:0:0:0:
287,113,45670,6,0,P|248:166|139:170,2,165,4|0|2,1:2|1:0|1:2,0:0:0:0:
297,53,46831,1,2,1:2:0:0:
343,228,47328,2,0,P|386:232|425:294,2,110,2|10|2,0:0|0:0|0:0,0:0:0:0:
222,238,48322,6,0,P|184:291|75:295,2,165,2|0|2,1:2|1:0|1:2,0:0:0:0:
235,181,49483,1,2,0:0:0:0:
235,181,49648,2,0,L|219:104,2,55,0|8|8,1:0|0:0|0:3,0:0:0:0:
344,129,50311,1,8,0:0:0:0:
325,248,50643,1,4,0:3:0:0:
221,280,50974,6,0,L|91:294,2,110,0|0|0,1:0|0:0|3:0,0:0:0:0:
304,352,51969,2,0,L|433:367,1,110,2|0,3:0|0:0,0:0:0:0:
425,255,52632,1,0,3:0:0:0:
318,229,52963,2,0,P|301:173|329:104,1,110,2|2,3:0|0:0,0:0:0:0:
383,25,53626,6,0,L|250:43,1,110,4|0,1:2|1:0,0:0:0:0:
228,80,54123,2,0,L|96:63,1,110,12|0,0:0|1:0,0:0:0:0:
81,25,54621,1,12,0:0:0:0:
81,25,54786,1,2,1:2:0:0:
27,198,55284,2,0,P|90:194|138:229,2,110,2|8|8,1:2|0:3|0:0,0:0:0:0:
62,313,56278,5,10,0:0:0:0:
62,313,56444,1,10,0:0:0:0:
174,358,56775,1,10,0:0:0:0:
251,265,57107,1,10,0:0:0:0:
366,228,57438,1,14,0:0:0:0:
455,145,57770,1,10,1:2:0:0:
441,86,57936,1,10,1:2:0:0:
334,28,58267,6,0,P|287:52|224:40,1,110,2|8,1:2|0:0,0:0:0:0:
179,16,58764,1,8,0:0:0:0:
179,16,58930,6,0,P|190:61|148:138,1,121.000003692627,6|10,1:2|0:0,0:0:0:0:
75,229,59593,2,0,L|82:296,1,60.5000018463135,2|0,1:2|1:0,0:0:0:0:
129,336,59925,2,0,P|80:332|8:391,2,121.000003692627,10|2|8,0:0|1:2|0:0,0:0:0:0:
252,284,60919,2,0,L|262:217,1,60.5000018463135,2|2,1:2|1:2,0:0:0:0:
291,165,61250,1,10,0:0:0:0:
203,64,61582,5,2,1:2:0:0:
79,112,61913,1,8,0:0:0:0:
79,112,62079,2,0,P|147:156|161:205,1,121.000003692627,2|2,0:0|1:2,0:0:0:0:
139,257,62576,1,8,0:0:0:0:
139,257,62742,2,0,P|234:223|310:268,1,181.500005538941,2|10,1:2|0:0,0:0:0:0:
244,136,63571,1,2,1:2:0:0:
335,39,63902,1,10,0:0:0:0:
450,104,64234,6,0,P|447:179|403:227,1,121.000003692627,6|10,1:2|0:0,0:0:0:0:
288,208,64897,2,0,L|271:273,1,60.5000018463135,2|0,1:2|1:0,0:0:0:0:
298,328,65229,2,0,P|253:307|164:338,1,121.000003692627,10|2,0:0|1:2,0:0:0:0:
137,366,65726,1,0,1:0:0:0:
137,366,65891,1,10,0:2:0:0:
54,261,66223,2,0,L|64:194,1,60.5000018463135,2|2,1:2|1:2,0:0:0:0:
51,136,66554,1,10,0:0:0:0:
136,33,66886,6,0,P|209:70|258:57,1,121.000003692627,2|8,1:2|0:0,0:0:0:0:
309,82,67383,2,0,P|240:126|226:175,1,121.000003692627,2|2,0:0|1:2,0:0:0:0:
179,205,67880,1,8,0:0:0:0:
179,205,68046,1,4,1:2:0:0:
306,357,68543,1,10,0:0:0:0:
430,311,68875,6,0,L|440:236,1,60.5000018463135,0|8,1:0|0:0,0:0:0:0:
388,206,69206,2,0,L|379:131,1,60.5000018463135,8|8,0:0|0:0,0:0:0:0:
408,85,69538,6,0,P|344:108|277:85,2,121.000003692627,4|8|0,1:2|0:0|1:0,0:0:0:0:
446,30,70367,1,0,1:0:0:0:
446,30,70532,1,10,0:0:0:0:
482,158,70864,2,0,L|468:293,1,121.000003692627,2|10,1:2|0:0,0:0:0:0:
414,316,71361,1,2,0:0:0:0:
359,353,71527,2,0,L|346:232,1,121.000003692627,0|8,1:0|0:0,0:0:0:0:
233,163,72190,6,0,L|220:283,1,121.000003692627,2|8,1:2|0:0,0:0:0:0:
111,360,72853,1,0,1:0:0:0:
104,227,73184,2,0,L|112:152,1,60.5000018463135,10|2,0:0|0:0,0:0:0:0:
148,111,73516,1,2,1:2:0:0:
73,12,73847,1,10,0:0:0:0:
73,12,74013,2,0,P|34:39|26:131,1,121.000003692627,2|2,0:0|1:2,0:0:0:0:
26,246,74676,1,2,0:0:0:0:
26,246,74842,5,6,1:2:0:0:
147,299,75173,1,8,0:0:0:0:
238,202,75505,1,0,1:0:0:0:
168,88,75836,2,0,L|156:147,1,60.5000018463135,10|2,0:0|0:0,0:0:0:0:
96,178,76168,2,0,P|136:199|163:282,1,121.000003692627,0|8,1:0|0:0,0:0:0:0:
275,341,76831,1,0,1:0:0:0:
393,280,77162,1,10,0:0:0:0:
407,148,77494,6,0,P|335:176|269:155,1,121.000003692627,4|8,1:2|0:0,0:0:0:0:
174,110,78157,2,0,L|166:43,2,60.5000018463135,0|2|10,1:0|1:2|0:0,0:0:0:0:
133,162,78654,2,0,P|178:188|193:274,1,121.000003692627,6|0,1:2|1:0,0:0:0:0:
169,311,79151,1,8,0:0:0:0:
299,280,79483,2,0,L|310:204,1,60.5000018463135,4|8,0:3|0:0,0:0:0:0:
357,175,79814,1,8,0:0:0:0:
311,50,80146,6,0,P|351:74|437:61,1,121.000003692627,4|10,1:2|0:0,0:0:0:0:
440,201,80809,2,0,L|433:268,1,60.5000018463135,2|0,1:2|1:0,0:0:0:0:
386,309,81141,2,0,P|435:304|507:364,2,121.000003692627,10|2|10,0:0|1:2|0:2,0:0:0:0:
253,290,82135,2,0,L|243:223,1,60.5000018463135,2|2,1:2|1:2,0:0:0:0:
214,171,82466,1,10,0:0:0:0:
290,61,82797,5,2,1:2:0:0:
409,127,83128,1,8,0:0:0:0:
409,127,83295,2,0,P|340:171|327:220,1,121.000003692627,2|2,0:0|1:2,0:0:0:0:
360,268,83792,1,10,0:0:0:0:
360,268,83958,2,0,P|266:233|189:278,1,181.500005538941,2|10,0:0|0:0,0:0:0:0:
263,151,84786,1,2,1:2:0:0:
182,45,85118,1,10,0:2:0:0:
61,104,85450,6,0,P|64:179|108:227,1,121.000003692627,6|10,1:2|0:0,0:0:0:0:
222,224,86113,2,0,L|238:289,1,60.5000018463135,2|0,1:2|1:0,0:0:0:0:
215,340,86445,2,0,P|259:319|348:350,1,121.000003692627,10|2,0:0|1:2,0:0:0:0:
373,382,86942,1,0,1:0:0:0:
373,382,87107,1,10,0:0:0:0:
457,261,87439,2,0,L|447:194,1,60.5000018463135,2|2,1:2|1:2,0:0:0:0:
460,136,87770,1,10,0:0:0:0:
375,33,88102,6,0,P|301:70|252:57,1,121.000003692627,2|8,1:2|0:0,0:0:0:0:
202,82,88599,2,0,P|270:126|284:175,1,121.000003692627,2|2,0:0|1:2,0:0:0:0:
332,205,89096,1,8,0:0:0:0:
332,205,89262,1,4,1:2:0:0:
205,357,89759,1,10,0:0:0:0:
81,311,90091,6,0,L|71:236,1,60.5000018463135,0|8,1:0|0:0,0:0:0:0:
123,206,90422,2,0,L|132:131,1,60.5000018463135,8|8,0:0|0:0,0:0:0:0:
103,85,90754,6,0,P|167:108|234:85,2,121.000003692627,4|8|0,1:2|0:0|1:0,0:0:0:0:
70,32,91583,1,0,1:0:0:0:
70,32,91748,1,10,0:0:0:0:
29,158,92080,2,0,L|43:293,1,121.000003692627,2|10,1:2|0:0,0:0:0:0:
94,318,92576,1,2,0:0:0:0:
152,353,92743,2,0,P|146:286|164:232,1,121.000003692627,0|8,1:0|0:0,0:0:0:0:
273,163,93405,6,0,P|290:220|283:279,1,121.000003692627,2|8,1:2|0:0,0:0:0:0:
386,363,94068,1,0,1:0:0:0:
386,363,94234,2,0,L|398:298,1,60.5000018463135,2|10,1:2|0:0,0:0:0:0:
439,251,94565,2,0,P|374:246|330:202,2,121.000003692627,2|2|2,0:0|1:2|0:0,0:0:0:0:
488,126,95560,2,0,P|442:88|383:85,1,121.000003692627,2|0,1:2|0:0,0:0:0:0:
323,115,96057,6,0,P|274:132|196:108,2,121.000003692627,6|0|0,1:2|1:0|1:0,0:0:0:0:
249,226,97052,2,0,P|247:266|254:289,1,60.5000018463135,0|4,1:0|0:3,0:0:0:0:
292,339,97383,1,0,1:0:0:0:
419,293,97715,1,12,0:0:0:0:
419,293,97880,2,0,L|493:304,2,60.5000018463135,8|4|4,0:3|0:3|0:3,0:0:0:0:
375,241,98378,1,0,1:0:0:0:
443,141,98709,5,6,1:2:0:0:
256,192,98875,12,2,100035,0:0:0:0:
403,291,100698,6,0,L|394:225,1,55,8|8,0:0|0:0,0:0:0:0:
435,192,101029,2,0,L|444:126,1,55,8|8,0:0|0:0,0:0:0:0:
412,85,101361,6,0,P|376:75|294:107,1,110,6|2,0:0|0:0,0:0:0:0:
216,174,102024,1,2,0:0:0:0:
95,179,102355,1,2,0:0:0:0:
1,102,102687,2,0,L|21:281,2,165,12|8|4,0:0|0:3|0:3,0:0:0:0:
116,64,104013,6,0,P|152:74|234:42,1,110,6|2,0:0|0:0,0:0:0:0:
333,10,104676,1,2,0:0:0:0:
409,103,105007,1,2,0:0:0:0:
345,206,105339,2,0,L|326:385,2,165,12|8|4,0:0|0:3|0:3,0:0:0:0:
461,172,106665,6,0,B|352:212|367:123|243:166,1,220,6|2,0:0|0:2,0:0:0:0:
108,279,107826,1,2,0:0:0:0:
108,279,107991,2,0,L|117:151,1,110,6|2,0:0|0:0,0:0:0:0:
79,53,108654,1,2,0:0:0:0:
192,11,108986,1,12,0:0:0:0:
233,124,109317,6,0,P|282:122|340:67,1,110,4|8,1:2|0:0,0:0:0:0:
372,44,109814,1,8,0:0:0:0:
372,44,109980,2,0,L|491:55,1,110,8|8,0:0|0:0,0:0:0:0:
457,172,110643,5,6,1:2:0:0:
433,290,110974,1,8,0:0:0:0:
384,324,111140,2,0,P|327:322|268:280,1,110,6|2,1:2|1:2,0:0:0:0:
261,239,111638,1,8,0:0:0:0:
163,168,111969,6,0,L|153:36,2,110,6|0|2,1:2|1:0|1:2,0:0:0:0:
76,253,112964,1,2,1:2:0:0:
124,363,113295,2,0,P|178:381|235:360,1,110,2|2,1:2|1:2,0:0:0:0:
269,323,113792,1,2,0:0:0:0:
285,202,114124,1,2,0:0:0:0:
155,75,114621,6,0,P|210:93|267:72,1,110,6|2,1:2|1:2,0:0:0:0:
295,30,115118,1,2,0:0:0:0:
399,91,115450,1,2,0:0:0:0:
371,208,115781,2,0,P|352:291|377:328,1,110,2|2,0:0|0:0,0:0:0:0:
420,339,116279,1,2,1:2:0:0:
420,339,116444,2,0,L|237:353,1,165,2|8,0:0|0:0,0:0:0:0:
182,254,117273,6,0,P|136:244|67:276,2,110,6|0|0,1:2|1:0|1:0,0:0:0:0:
225,140,118268,1,0,1:0:0:0:
344,122,118599,2,0,L|352:189,1,55,0|4,1:0|0:3,0:0:0:0:
358,237,118930,1,8,0:0:0:0:
474,268,119262,2,0,L|466:335,1,55,8|8,0:0|0:3,0:0:0:0:
460,382,119593,1,4,0:3:0:0:
338,378,119925,6,0,P|301:254|157:338,1,330,4|0,1:2|0:0,0:0:0:0:
69,240,121251,2,0,L|48:67,1,165,2|8,0:0|0:3,0:0:0:0:
158,20,122080,1,8,0:3:0:0:
158,20,122245,1,4,0:3:0:0:
276,42,122576,5,6,1:2:0:0:
256,192,122742,12,2,127052,0:0:0:0:
