osu file format v14

[General]
AudioFilename: audio.mp3
AudioLeadIn: 0
PreviewTime: 58013
Countdown: 0
SampleSet: Soft
StackLeniency: 0.3
Mode: 0
LetterboxInBreaks: 0
WidescreenStoryboard: 1

[Editor]
Bookmarks: 3018,8322,10974,13626,18930,24234,34842,59920,77157
DistanceSpacing: 1.1
BeatDivisor: 4
GridSize: 4
TimelineZoom: 3.699999

[Metadata]
Title:Sakura, Reincarnation
TitleUnicode:さくら、Reincarnation
Artist:Sasaki Sayaka
ArtistUnicode:佐咲紗花
Creator:Riana
Version:Insane
Source:さくら、もゆ。-as the Night's, Reincarnation-
Tags:visual novel eroge short ver version Sakura Moyu as the Night's Reincarnation 山本美禰子 Yamamoto Mineko 石倉誉之 Ishikura Takashi 小高光太郎 Kodaka Koutarou favorite op opening galgame japanese video game mimari shizuku- log off now
BeatmapID:2412739
BeatmapSetID:1013342

[Difficulty]
HPDrainRate:6
CircleSize:4
OverallDifficulty:8
ApproachRate:9
SliderMultiplier:1.6
SliderTickRate:1

[Events]
//Background and Video events
0,0,"kuro.jpg",0,0
Video,150,"bgv2.avi"
//Break Periods
//Storyboard Layer 0 (Background)
//Storyboard Layer 1 (Fail)
//Storyboard Layer 2 (Pass)
//Storyboard Layer 3 (Foreground)
//Storyboard Layer 4 (Overlay)
//Storyboard Sound Samples

[TimingPoints]
588,331.491712707182,4,2,1,50,1,0
588,-111.111111111111,4,2,1,50,0,0
3239,-133.333333333333,4,2,1,50,0,0
4565,-100,4,2,1,50,0,0
5891,-133.333333333333,4,2,1,50,0,0
7217,-100,4,2,1,50,0,0
8543,-333.333333333333,4,2,1,50,0,0
9704,-133.333333333333,4,2,1,50,0,0
11195,-100,4,2,1,50,0,0
11527,-100,4,2,1,53,0,0
11858,-100,4,2,1,55,0,0
12190,-100,4,2,1,57,0,0
12521,-100,4,2,1,60,0,0
13847,-133.333333333333,4,2,1,60,0,0
15173,-111.111111111111,4,2,1,60,0,0
15670,-133.333333333333,4,2,1,60,0,0
16499,-125,4,2,1,60,0,0
18488,-100,4,2,1,60,0,0
19483,-100,4,2,1,53,0,0
19814,-100,4,2,1,55,0,0
20146,-100,4,2,1,57,0,0
20477,-83.3333333333333,4,2,1,60,0,0
21803,-100,4,2,1,50,0,0
23129,-105.263157894737,4,2,1,50,0,0
24455,-166.666666666667,4,2,1,43,0,0
34731,-166.666666666667,4,2,1,50,0,0
35063,-125,4,2,1,55,0,0
43350,-125,4,2,1,53,0,0
43681,-125,4,2,1,55,0,0
44013,-125,4,2,1,57,0,0
44344,-100,4,2,1,60,0,0
45670,-125,4,2,1,50,0,0
47328,-100,4,2,1,50,0,0
48322,-125,4,2,1,50,0,0
50974,-200,4,2,1,40,0,0
52963,-100,4,2,1,40,0,0
53295,-100,4,2,1,50,0,0
53626,-100,4,2,1,63,0,0
55615,-100,4,2,1,63,0,0
58433,-100,4,2,1,63,0,0
58930,-66.6666666666667,4,2,1,70,0,1
61582,-83.3333333333333,4,2,1,70,0,1
68046,-74.0740740740741,4,2,1,70,0,1
68543,-100,4,2,1,70,0,1
69041,-83.3333333333333,4,2,1,70,0,1
79648,-83.3333333333333,4,2,1,70,0,1
80146,-66.6666666666667,4,2,1,70,0,1
82134,-83.3333333333333,4,2,1,70,0,1
89262,-74.0740740740741,4,2,1,70,0,1
89759,-83.3333333333333,4,2,1,70,0,1
92079,-74.0740740740741,4,2,1,70,0,1
92411,-83.3333333333333,4,2,1,70,0,1
94565,-100,4,2,1,70,0,1
95228,-83.3333333333333,4,2,1,70,0,1
96057,-100,4,2,1,70,0,1
96389,-100,4,2,1,63,0,1
96720,-100,4,2,1,64,0,1
97052,-100,4,2,1,66,0,1
97383,-100,4,2,1,70,0,1
98709,-800,4,2,1,70,0,0
99206,-100,4,2,1,70,0,0
99869,-100,4,2,1,70,0,0
100034,-100,4,2,1,55,0,0
100532,-100,4,2,1,60,0,0
101361,-133.333333333333,4,2,1,60,0,0
102521,-100,4,2,1,60,0,0
104013,-133.333333333333,4,2,1,60,0,0
105339,-100,4,2,1,60,0,0
106665,-333.333333333333,4,2,1,60,0,0
107825,-133.333333333333,4,2,1,60,0,0
109317,-100,4,2,1,60,0,0
109648,-100,4,2,1,53,0,0
109980,-100,4,2,1,55,0,0
110311,-100,4,2,1,57,0,0
110643,-100,4,2,1,60,0,0
111969,-133.333333333333,4,2,1,60,0,0
113295,-111.111111111111,4,2,1,60,0,0
113792,-133.333333333333,4,2,1,60,0,0
115118,-125,4,2,1,60,0,0
115781,-125,4,2,1,60,0,0
116278,-133.333333333333,4,2,1,60,0,0
116610,-100,4,2,1,60,0,0
117604,-100,4,2,1,53,0,0
117936,-100,4,2,1,55,0,0
118267,-100,4,2,1,57,0,0
118599,-100,4,2,1,60,0,0
118930,-83.3333333333333,4,2,1,60,0,0
119925,-100,4,2,1,50,0,0
121250,-133.333333333333,4,2,1,50,0,0
121996,-133.333333333333,4,2,1,50,0,0
122079,-133.333333333333,4,2,1,50,0,0
122576,-172.413793103448,4,2,1,50,0,0

[Colours]
Combo1 : 255,200,227
Combo2 : 225,218,217
Combo3 : 255,255,179

[HitObjects]
256,192,588,12,4,2908,0:3:0:0:
315,379,3239,6,0,P|247:342|236:282,1,120.000004577637,6|2,0:0|0:0,0:0:0:0:
92,303,3902,2,0,P|125:254|116:196,1,120.000004577637,2|2,0:0|0:0,0:0:0:0:
9,154,4399,1,0,1:0:0:0:
9,154,4482,1,0,1:0:0:0:
9,154,4565,6,0,P|82:169|153:90,1,160,12|2,0:0|0:0,0:0:0:0:
202,182,5062,1,8,0:3:0:0:
336,99,5394,2,0,P|347:60|352:3,1,80,2|4,0:0|0:3,0:0:0:0:
295,186,5891,6,0,P|363:223|374:283,1,120.000004577637,6|2,0:0|0:0,0:0:0:0:
501,248,6554,2,0,P|469:296|478:354,1,120.000004577637,2|2,0:0|0:0,0:0:0:0:
375,351,7051,1,0,1:0:0:0:
375,351,7134,1,0,1:0:0:0:
375,351,7217,6,0,P|302:366|231:287,1,160,12|0,0:0|1:2,0:0:0:0:
182,379,7714,1,8,0:3:0:0:
48,296,8046,2,0,P|38:257|32:200,1,80,8|4,0:3|0:3,0:0:0:0:
243,96,8543,6,0,P|250:148|257:201,1,95.9999970703126,6|2,0:0|0:0,0:0:0:0:
256,191,9703,1,2,0:0:0:0:
128,324,9869,6,0,P|138:287|136:260,1,60.0000022888184,6|0,0:0|0:0,0:0:0:0:
58,223,10200,2,0,P|108:231|185:238,1,120.000004577637,2|2,0:0|0:0,0:0:0:0:
256,191,10698,1,0,1:0:0:0:
256,191,10780,1,0,1:0:0:0:
256,191,10863,1,12,0:0:0:0:
469,207,11195,6,0,P|398:220|351:307,1,160,4|8,1:2|0:0,0:0:0:0:
296,76,11692,1,8,0:0:0:0:
257,190,11858,1,8,0:0:0:0:
372,101,12024,1,8,0:0:0:0:
257,190,12189,1,8,0:0:0:0:
447,130,12355,1,8,0:0:0:0:
257,190,12521,6,0,P|229:126|190:109,1,80,6|0,1:2|0:0,0:0:0:0:
91,190,12852,1,8,0:0:0:0:
91,190,13018,2,0,P|161:197|197:171,1,80,6|0,1:2|0:0,0:0:0:0:
193,40,13349,1,2,1:2:0:0:
168,194,13515,1,8,0:0:0:0:
55,322,13847,6,0,P|144:291|182:285,1,120.000004577637,6|0,1:2|1:0,0:0:0:0:
245,239,14344,1,0,0:0:0:0:
314,295,14510,2,0,P|336:242|335:213,1,60.0000022888184,2|0,1:2|0:0,0:0:0:0:
395,185,14841,2,0,P|361:139|335:125,1,60.0000022888184,2|0,1:2|0:0,0:0:0:0:
475,246,15173,6,0,P|488:168|492:89,1,143.999995605469,2|2,1:2|1:2,0:0:0:0:
492,103,15670,1,2,0:0:0:0:
317,52,16001,1,2,0:0:0:0:
317,52,16499,6,0,P|330:130|335:197,1,128,6|0,1:2|0:0,0:0:0:0:
334,178,16996,1,2,0:0:0:0:
159,246,17327,1,2,0:0:0:0:
51,72,17659,6,0,P|54:114|40:156,1,64,2|0,0:0|1:0,0:0:0:0:
0,193,17991,1,2,0:0:0:0:
0,268,18157,1,2,1:2:0:0:
54,321,18323,1,2,0:0:0:0:
146,365,18489,2,0,P|268:320|328:317,1,160,0|8,1:0|0:0,0:0:0:0:
365,384,19151,6,0,P|347:302|407:250,2,160,6|0|0,1:2|1:0|1:0,0:0:0:0:
453,178,20145,6,0,P|449:126|444:91,1,80,0|4,1:0|0:3,0:0:0:0:
341,23,20477,1,0,1:0:0:0:
341,23,20643,1,4,0:3:0:0:
296,200,20808,6,0,P|249:177|198:162,1,95.9999970703126,8|0,0:0|0:0,0:0:0:0:
72,160,21140,1,8,0:0:0:0:
72,160,21306,1,8,0:3:0:0:
129,270,21471,6,0,P|78:264|24:267,1,95.9999970703126,4|0,0:3|0:0,0:0:0:0:
216,267,21803,22,0,B|233:221|331:163|400:208|400:208|398:221|399:229|399:229|405:233|417:237|417:237|415:328|318:374|173:343,1,560,4|0,1:2|0:0,0:0:0:0:
21,190,23129,6,0,P|74:198|127:116,1,151.999995941162,2|0,0:0|0:0,0:0:0:0:
202,41,23626,2,0,P|207:88|235:198,1,151.999995941162,8|8,0:3|0:3,0:0:0:0:
293,273,24123,1,4,0:3:0:0:
293,273,24455,6,0,P|340:276|391:310,3,95.9999970703126,6|0|0|0,1:2|0:0|0:0|0:0,0:0:0:0:
456,257,25615,1,2,0:0:0:0:
456,257,25781,6,0,P|465:207|457:159,1,95.9999970703126,2|0,1:2|0:0,0:0:0:0:
393,114,26278,1,2,1:2:0:0:
288,191,26610,2,0,L|225:187,1,47.9999985351563,2|0,0:0|1:2,0:0:0:0:
176,126,26941,1,2,0:0:0:0:
176,126,27107,6,0,P|202:173|194:234,2,95.9999970703126,2|0|0,1:2|0:0|0:0,0:0:0:0:
97,97,27936,1,2,0:0:0:0:
97,97,28101,2,0,P|97:53|100:30,1,47.9999985351563,2|0,0:0|0:0,0:0:0:0:
166,5,28433,6,0,P|216:-4|261:15,1,95.9999970703126,2|0,1:2|0:0,0:0:0:0:
296,82,28930,1,2,1:2:0:0:
171,155,29262,2,0,L|167:218,1,47.9999985351563,2|0,0:0|1:0,0:0:0:0:
106,267,29593,1,2,0:0:0:0:
106,267,29759,6,0,P|153:241|214:249,2,95.9999970703126,2|0|0,1:2|0:0|0:0,0:0:0:0:
85,348,30587,1,2,0:0:0:0:
246,384,30919,1,2,0:0:0:0:
246,384,31085,6,0,P|255:293|254:270,1,95.9999970703126,2|0,1:2|0:0,0:0:0:0:
343,281,31582,2,0,P|320:192|311:171,1,95.9999970703126,2|0,1:2|0:0,0:0:0:0:
356,111,32079,1,2,1:2:0:0:
446,222,32411,6,0,P|382:230|307:168,1,143.999995605469,2|0,1:2|0:0,0:0:0:0:
260,55,33074,2,0,P|234:114|160:144,1,143.999995605469,2|2,0:0|0:0,0:0:0:0:
63,178,33737,1,0,1:0:0:0:
63,178,34234,1,2,1:2:0:0:
103,253,34400,2,0,P|101:292|98:317,2,47.9999985351563,2|2|2,0:0|0:0|0:3,0:0:0:0:
315,176,35063,22,0,P|300:106|236:70,1,128,4|0,1:2|1:0,0:0:0:0:
141,119,35560,2,0,P|179:179|249:192,2,128,2|2|2,0:0|0:0|0:0,0:0:0:0:
141,119,36389,1,0,1:0:0:0:
372,210,36720,6,0,P|329:234|294:236,1,64,2|0,1:2|0:0,0:0:0:0:
230,194,37052,2,0,P|232:240|242:339,1,128,2|2,1:2|1:2,0:0:0:0:
27,354,37715,22,0,P|20:275|68:224,1,128,2|0,1:2|1:0,0:0:0:0:
195,266,38212,2,0,P|173:322|88:356,2,128,2|2|2,0:0|0:0|0:0,0:0:0:0:
135,195,39041,6,0,P|130:157|127:127,2,64,2|2|0,1:2|0:0|1:0,0:0:0:0:
266,126,39538,1,2,0:0:0:0:
266,126,39704,2,0,P|230:109|202:109,2,64,2|2|2,1:2|0:0|1:2,0:0:0:0:
438,196,40367,6,0,P|402:212|310:167,1,128,2|2,1:2|1:2,0:0:0:0:
241,201,40864,2,0,P|257:271|332:301,1,128,2|0,0:0|0:0,0:0:0:0:
301,299,41361,1,2,1:2:0:0:
364,363,41527,2,0,P|295:341|231:391,1,128,2|0,0:0|0:0,0:0:0:0:
177,309,42024,6,0,P|137:312|97:292,1,64,2|0,1:2|0:0,0:0:0:0:
106,365,42355,2,0,P|130:327|188:309,2,96,2|2|2,1:2|0:0|0:0,0:0:0:0:
143,178,43018,1,4,1:2:0:0:
143,178,43350,5,0,1:0:0:0:
71,86,43516,1,8,0:0:0:0:
193,0,43681,2,0,P|194:39|186:82,1,64,0|8,1:0|0:0,0:0:0:0:
143,178,44013,2,0,P|141:217|150:260,1,64,0|8,1:0|0:0,0:0:0:0:
295,211,44344,5,8,1:2:0:0:
238,351,44510,1,8,1:2:0:0:
295,211,44676,1,8,1:2:0:0:
371,258,44842,5,2,0:0:0:0:
435,194,45007,2,0,P|402:269|381:354,1,160,2|4,1:2|0:3,0:0:0:0:
469,80,45670,6,0,P|375:97|333:61,1,128,4|2,1:2|0:0,0:0:0:0:
277,20,46168,1,0,1:0:0:0:
277,20,46333,2,0,L|263:109,1,64,10|0,0:0|0:0,0:0:0:0:
240,158,46665,1,2,1:2:0:0:
302,208,46831,1,2,1:2:0:0:
327,339,47328,6,0,P|423:368|481:322,2,160,2|10|2,0:0|0:0|0:0,0:0:0:0:
194,291,48322,6,0,P|126:279|77:323,1,128,2|2,1:2|0:0,0:0:0:0:
18,260,48820,1,0,1:0:0:0:
18,260,48985,2,0,L|-3:126,1,128,10|2,0:0|1:2,0:0:0:0:
47,62,49483,1,2,0:0:0:0:
138,119,49648,6,0,L|201:114,1,64,0|8,1:0|0:0,0:0:0:0:
271,82,49979,1,8,0:3:0:0:
362,0,50311,6,0,L|425:6,1,64,8|8,0:0|0:3,0:0:0:0:
491,45,50643,1,4,0:3:0:0:
367,180,50974,6,0,P|417:152|455:161,2,80,0|0|0,1:0|0:0|3:0,0:0:0:0:
335,274,51969,2,0,P|285:246|247:255,2,80,2|0|0,0:3|0:0|3:0,0:0:0:0:
217,332,52963,2,0,P|218:232|235:161,1,160,2|2,3:0|0:0,0:0:0:0:
271,57,53460,5,0,1:0:0:0:
271,57,53543,1,0,1:0:0:0:
271,57,53626,2,0,P|210:80|177:78,1,80,4|0,1:2|1:0,0:0:0:0:
128,28,53958,1,0,1:0:0:0:
101,203,54123,2,0,P|50:161|35:132,1,80,12|0,0:0|1:0,0:0:0:0:
128,28,54455,5,0,1:0:0:0:
185,169,54621,1,12,0:0:0:0:
4,72,54786,1,0,1:0:0:0:
185,169,54952,6,0,P|191:211|189:258,1,80,0|12,1:0|0:0,0:0:0:0:
224,372,55284,2,0,P|253:340|299:324,1,80,2|0,1:2|1:0,0:0:0:0:
400,359,55615,1,8,0:3:0:0:
394,329,55697,1,8,0:3:0:0:
388,300,55780,1,4,0:3:0:0:
382,270,55863,1,4,0:3:0:0:
377,241,55946,1,8,0:0:0:0:
185,169,56278,5,10,0:0:0:0:
366,95,56444,1,10,0:0:0:0:
190,248,56775,5,10,0:0:0:0:
29,99,57107,1,10,0:0:0:0:
258,123,57273,5,0,1:0:0:0:
258,123,57355,1,0,1:0:0:0:
258,123,57438,2,0,P|259:75|235:46,1,80,14|0,0:0|0:0,0:0:0:0:
104,230,57770,1,10,1:2:0:0:
241,50,57936,1,10,1:2:0:0:
29,99,58101,5,2,0:0:0:0:
130,77,58267,1,2,1:2:0:0:
171,101,58350,1,2,0:0:0:0:
174,127,58433,2,0,L|165:198,1,40,10|8,0:0|0:0,0:0:0:0:
240,294,58599,1,8,0:0:0:0:
240,294,58681,1,8,0:0:0:0:
240,294,58764,1,8,0:0:0:0:
240,294,58847,1,8,0:0:0:0:
240,294,58930,6,0,B|275:236|342:269|342:269|386:334|340:401,1,240.000009155274,6|10,1:2|0:0,0:0:0:0:
240,294,59427,1,0,0:0:0:0:
374,124,59593,2,0,P|370:233|333:258,1,120.000004577637,2|0,1:2|1:0,0:0:0:0:
292,87,59925,2,0,P|388:34|427:54,1,120.000004577637,10|0,0:0|0:0,0:0:0:0:
301,176,60256,6,0,B|188:232|191:110|70:171,1,240.000009155274,2|8,1:2|0:0,0:0:0:0:
132,244,60753,1,0,0:0:0:0:
138,44,60919,1,2,1:2:0:0:
16,106,61085,1,2,1:2:0:0:
132,244,61250,2,0,P|157:133|160:75,1,120.000004577637,10|0,0:0|0:0,0:0:0:0:
51,285,61582,6,0,P|109:272|202:359,1,191.999994140625,2|8,1:2|0:0,0:0:0:0:
336,262,62079,2,0,P|368:188|357:146,1,95.9999970703126,2|0,0:0|1:0,0:0:0:0:
287,106,62411,1,2,1:2:0:0:
287,106,62576,1,8,0:0:0:0:
483,72,62742,6,0,P|402:81|372:191,1,191.999994140625,2|0,1:2|1:0,0:0:0:0:
503,325,63239,2,0,P|418:310|377:309,1,95.9999970703126,10|0,0:0|0:0,0:0:0:0:
245,380,63571,5,2,1:2:0:0:
205,219,63737,1,0,1:0:0:0:
245,380,63902,2,0,P|259:301|266:243,1,95.9999970703126,10|0,0:0|0:0,0:0:0:0:
47,141,64234,6,0,B|36:141|13:165|13:165|103:203|161:139,1,191.999994140625,6|10,1:2|0:0,0:0:0:0:
200,71,64731,1,0,0:0:0:0:
101,222,64897,2,0,P|99:288|126:331,1,95.9999970703126,2|0,1:2|1:0,0:0:0:0:
289,255,65228,2,0,P|232:220|182:222,1,95.9999970703126,10|0,0:0|0:0,0:0:0:0:
244,347,65560,5,2,1:2:0:0:
244,347,65726,1,0,1:0:0:0:
389,276,65891,2,0,P|399:207|372:155,1,95.9999970703126,10|0,0:2|0:0,0:0:0:0:
244,95,66223,5,2,1:2:0:0:
289,255,66389,1,2,1:2:0:0:
486,188,66554,2,0,P|362:186|351:188,1,95.9999970703126,10|0,0:0|0:0,0:0:0:0:
156,230,66886,6,0,P|238:184|238:84,1,191.999994140625,2|8,1:2|0:0,0:0:0:0:
67,48,67383,2,0,P|116:74|184:85,1,95.9999970703126,2|0,0:0|1:0,0:0:0:0:
337,43,67715,1,2,1:2:0:0:
292,255,67880,1,8,0:0:0:0:
247,99,68046,6,0,B|355:53|350:154|456:109,1,216.000000823975,4|0,1:2|1:0,0:0:0:0:
247,99,68543,1,10,0:0:0:0:
247,99,68875,5,0,1:0:0:0:
34,187,69041,2,0,L|41:247,1,47.9999985351563,8|8,0:0|0:0,0:0:0:0:
117,293,69206,1,8,0:0:0:0:
117,293,69289,1,8,0:0:0:0:
117,293,69372,1,8,0:0:0:0:
117,293,69455,1,8,0:0:0:0:
117,293,69538,6,0,P|197:272|255:389,1,191.999994140625,4|8,1:2|0:0,0:0:0:0:
348,295,70035,1,2,0:0:0:0:
237,147,70201,2,0,P|225:221|228:260,1,95.9999970703126,0|0,1:0|1:0,0:0:0:0:
396,78,70532,1,10,0:0:0:0:
237,147,70698,1,2,0:0:0:0:
396,78,70864,6,0,B|360:114|305:91|305:91|267:46|204:64,1,191.999994140625,2|10,1:2|0:0,0:0:0:0:
148,113,71361,1,2,0:0:0:0:
31,35,71527,2,0,P|100:86|97:187,1,191.999994140625,0|8,1:0|0:0,0:0:0:0:
25,229,72024,1,2,0:0:0:0:
114,346,72190,6,0,P|108:253|181:196,1,191.999994140625,2|8,1:2|0:0,0:0:0:0:
261,207,72687,1,2,0:0:0:0:
399,286,72853,2,0,P|351:293|304:287,1,95.9999970703126,0|0,1:0|1:0,0:0:0:0:
420,137,73184,5,10,0:0:0:0:
457,220,73350,1,2,0:0:0:0:
384,51,73516,6,0,P|339:96|327:154,1,95.9999970703126,2|0,1:2|1:0,0:0:0:0:
457,220,73847,2,0,P|502:175|514:117,1,95.9999970703126,10|0,0:0|0:2,0:0:0:0:
233,117,74179,6,0,P|249:178|293:217,1,95.9999970703126,2|0,1:2|1:2,0:0:0:0:
420,137,74510,1,14,0:2:0:0:
384,51,74676,1,2,0:0:0:0:
156,56,74842,6,0,B|130:39|114:23|114:23|186:-18|251:23,1,191.999994140625,6|8,1:2|0:0,0:0:0:0:
328,125,75339,1,0,0:0:0:0:
127,204,75505,2,0,P|184:171|230:163,1,95.9999970703126,0|0,1:0|1:0,0:0:0:0:
273,310,75836,1,10,0:0:0:0:
214,165,76002,1,2,0:0:0:0:
379,246,76168,6,0,P|395:326|378:364,2,95.9999970703126,0|0|8,1:0|1:0|0:0,0:0:0:0:
300,200,76665,1,0,0:0:0:0:
450,98,76831,2,0,P|406:117|377:154,1,95.9999970703126,2|0,1:2|1:0,0:0:0:0:
214,165,77162,2,0,P|252:192|299:199,1,95.9999970703126,10|0,0:0|0:0,0:0:0:0:
485,255,77494,6,0,P|413:278|391:338,1,143.999995605469,4|0,1:2|0:0,0:0:0:0:
391,338,77825,2,0,P|339:325|285:321,1,95.9999970703126,8|0,0:0|0:0,0:0:0:0:
96,367,78157,1,0,1:0:0:0:
47,170,78322,1,2,1:2:0:0:
1,286,78488,1,10,0:0:0:0:
173,177,78654,6,0,P|162:86|64:49,1,191.999994140625,6|0,1:2|1:0,0:0:0:0:
208,96,79151,2,0,P|269:75|301:25,1,95.9999970703126,8|8,0:0|0:3,0:0:0:0:
429,0,79483,1,4,0:3:0:0:
365,141,79648,2,0,L|380:214,1,47.9999985351563,8|8,0:0|0:0,0:0:0:0:
340,271,79814,1,8,0:0:0:0:
340,271,79896,1,8,0:0:0:0:
340,271,79979,1,8,0:0:0:0:
340,271,80062,1,8,0:0:0:0:
340,271,80146,6,0,B|375:213|442:246|442:246|486:311|440:378,1,240.000009155274,4|10,1:2|0:0,0:0:0:0:
340,271,80642,1,0,0:0:0:0:
305,87,80808,2,0,P|349:125|357:183,1,120.000004577637,2|0,1:2|1:0,0:0:0:0:
264,321,81140,2,0,P|247:265|270:211,1,120.000004577637,10|0,0:0|0:0,0:0:0:0:
163,358,81471,6,0,B|55:367|33:261|33:261|70:261|128:292,1,240.000009155274,2|10,1:2|0:2,0:0:0:0:
163,358,81968,1,0,0:0:0:0:
270,211,82134,1,2,1:2:0:0:
93,184,82300,1,2,1:2:0:0:
265,322,82466,2,0,P|339:301|381:275,1,95.9999970703126,10|0,0:0|0:0,0:0:0:0:
382,73,82797,6,0,B|357:60|324:64|324:64|301:138|382:178,1,191.999994140625,2|8,1:2|0:0,0:0:0:0:
442,322,83295,2,0,P|368:290|326:301,1,95.9999970703126,2|0,0:0|1:0,0:0:0:0:
265,322,83627,1,2,1:2:0:0:
265,322,83792,1,10,0:0:0:0:
127,277,83958,6,0,P|205:298|286:218,1,191.999994140625,2|0,0:0|1:0,0:0:0:0:
260,59,84455,2,0,P|238:118|255:159,1,95.9999970703126,10|0,0:0|0:0,0:0:0:0:
386,176,84786,1,2,1:2:0:0:
345,37,84952,1,0,1:0:0:0:
152,134,85118,2,0,P|198:145|246:147,1,95.9999970703126,10|0,0:0|0:0,0:0:0:0:
512,130,85449,6,0,P|444:150|423:273,1,191.999994140625,6|10,1:2|0:0,0:0:0:0:
480,326,85947,1,0,0:0:0:0:
386,176,86112,2,0,P|311:198|284:238,1,95.9999970703126,2|0,1:2|1:0,0:0:0:0:
317,384,86444,2,0,P|334:307|314:264,1,95.9999970703126,10|0,0:0|0:0,0:0:0:0:
275,116,86775,5,2,1:2:0:0:
275,116,86941,1,0,1:0:0:0:
135,238,87107,2,0,P|130:298|137:354,1,95.9999970703126,10|0,0:0|0:0,0:0:0:0:
330,292,87438,1,2,1:2:0:0:
198,167,87604,1,2,1:2:0:0:
269,20,87770,2,0,P|271:144|269:155,1,95.9999970703126,10|0,0:0|0:0,0:0:0:0:
44,119,88101,6,0,P|136:101|200:178,1,191.999994140625,2|8,1:2|0:0,0:0:0:0:
188,335,88599,2,0,P|162:286|151:218,1,95.9999970703126,2|0,0:0|1:0,0:0:0:0:
192,76,88931,1,2,1:2:0:0:
280,211,89096,1,8,0:0:0:0:
78,204,89262,6,0,B|186:158|181:259|287:214,1,216.000000823975,4|0,1:2|1:0,0:0:0:0:
78,204,89759,1,10,0:0:0:0:
78,204,90091,5,0,1:0:0:0:
242,28,90256,2,0,L|253:95,1,47.9999985351563,8|8,0:0|0:0,0:0:0:0:
332,139,90422,1,8,0:0:0:0:
332,139,90504,1,8,0:0:0:0:
332,139,90587,1,8,0:0:0:0:
332,139,90670,1,8,0:0:0:0:
332,139,90753,6,0,B|399:91|471:122|471:122|437:138|423:177,1,191.999994140625,4|8,1:2|0:0,0:0:0:0:
501,207,91250,1,2,0:0:0:0:
367,312,91416,2,0,P|355:263|370:218,1,95.9999970703126,0|0,1:0|1:0,0:0:0:0:
467,384,91748,1,10,0:0:0:0:
240,278,91913,1,2,0:0:0:0:
368,220,92079,6,0,B|260:174|265:275|159:230,1,216.000000823975,2|10,1:2|0:0,0:0:0:0:
146,69,92576,1,2,0:0:0:0:
301,20,92742,2,0,P|306:90|271:137,2,95.9999970703126,0|2|8,1:0|1:2|0:0,0:0:0:0:
301,20,93239,1,2,0:0:0:0:
47,0,93405,6,0,P|61:94|87:187,1,191.999994140625,2|8,1:2|0:0,0:0:0:0:
219,63,93902,2,0,P|282:92|306:147,1,95.9999970703126,2|0,0:0|1:0,0:0:0:0:
209,242,94234,1,2,1:2:0:0:
140,105,94400,1,10,0:0:0:0:
294,206,94565,1,2,0:0:0:0:
151,357,94731,6,0,P|133:311|124:272,2,80,0|2|8,1:0|1:2|0:0,0:0:0:0:
294,206,95228,2,0,B|391:164|386:255|481:214,1,191.999994140625,2|2,0:0|1:2,0:0:0:0:
280,119,95726,1,8,0:0:0:0:
267,296,95891,1,0,0:0:0:0:
267,296,96057,6,0,P|202:225|221:147,2,160,6|0|0,1:2|1:0|1:0,0:0:0:0:
267,296,97052,2,0,P|285:227|289:205,1,80,0|4,1:0|0:3,0:0:0:0:
154,185,97383,5,0,1:0:0:0:
318,142,97549,1,4,0:3:0:0:
96,294,97715,1,12,0:0:0:0:
354,337,97880,1,8,0:3:0:0:
354,337,97963,1,8,0:3:0:0:
354,337,98046,1,4,0:3:0:0:
236,154,98212,5,4,0:3:0:0:
96,294,98378,2,0,L|188:287,1,80,0|0,1:0|0:0,0:0:0:0:
244,117,98709,2,0,L|165:104,1,80,6|2,1:2|0:0,0:0:0:0:
58,80,100532,5,0,1:0:0:0:
58,80,100615,1,0,1:0:0:0:
58,80,100698,2,0,L|70:136,1,40,8|0,0:0|0:0,0:0:0:0:
115,188,100864,2,0,L|103:244,1,40,8|8,0:0|0:0,0:0:0:0:
72,316,101029,1,8,0:0:0:0:
111,309,101111,1,8,0:0:0:0:
149,319,101194,1,8,0:0:0:0:
180,344,101277,1,8,0:0:0:0:
197,379,101361,6,0,P|265:342|276:282,1,120.000004577637,6|2,0:0|0:0,0:0:0:0:
406,227,102024,2,0,P|373:178|382:120,1,120.000004577637,2|2,0:0|0:0,0:0:0:0:
414,234,102521,1,0,1:0:0:0:
414,234,102604,1,0,1:0:0:0:
414,234,102687,6,0,P|341:249|270:170,1,160,12|2,0:0|0:0,0:0:0:0:
197,174,103184,1,8,0:3:0:0:
197,174,103516,2,0,P|186:135|181:78,1,80,2|4,0:0|0:3,0:0:0:0:
197,174,104013,6,0,P|129:211|118:271,1,120.000004577637,6|2,0:0|0:0,0:0:0:0:
15,278,104676,2,0,P|47:326|38:384,1,120.000004577637,2|2,0:0|0:0,0:0:0:0:
124,256,105173,1,0,1:0:0:0:
124,256,105256,1,0,1:0:0:0:
124,256,105339,6,0,P|197:271|268:192,1,160,12|0,0:0|1:0,0:0:0:0:
362,239,105836,1,8,0:3:0:0:
362,239,106168,2,0,P|372:200|378:143,1,80,8|4,0:3|0:3,0:0:0:0:
230,289,106665,6,0,P|223:341|216:394,1,95.9999970703126,6|2,0:0|0:2,0:0:0:0:
217,384,107825,1,2,0:0:0:0:
422,270,107991,6,0,P|385:260|358:262,1,60.0000022888184,6|0,0:3|0:3,0:3:0:0:
316,326,108322,2,0,P|324:276|284:208,1,120.000004577637,2|2,0:3|0:3,0:3:0:0:
214,203,108820,1,0,1:3:0:0:
214,203,108902,1,0,1:3:0:0:
214,203,108985,1,12,0:3:0:0:
22,164,109317,6,0,P|93:177|140:264,1,160,4|8,1:2|0:0,0:0:0:0:
233,106,109814,1,8,0:0:0:0:
335,100,109980,1,8,0:0:0:0:
214,203,110146,1,8,0:0:0:0:
357,173,110311,1,8,0:0:0:0:
202,311,110477,1,8,0:0:0:0:
385,250,110643,6,0,P|435:201|438:159,1,80,6|0,1:2|0:0,0:0:0:0:
335,100,110974,1,8,0:0:0:0:
335,100,111140,2,0,P|352:168|389:193,1,80,6|0,1:2|0:0,0:0:0:0:
498,135,111471,1,2,1:2:0:0:
358,173,111637,1,8,0:0:0:0:
457,322,111969,6,0,P|368:291|330:285,1,120.000004577637,6|0,1:2|1:0,0:0:0:0:
266,335,112466,1,0,0:0:0:0:
192,384,112632,2,0,P|179:327|185:299,1,60.0000022888184,2|0,1:2|0:0,0:0:0:0:
152,251,112963,2,0,P|193:211|221:202,1,60.0000022888184,2|0,1:2|0:0,0:0:0:0:
291,100,113295,6,0,P|213:85|137:62,1,143.999995605469,2|2,1:2|1:2,0:0:0:0:
150,67,113792,1,2,0:0:0:0:
50,184,114123,1,2,0:0:0:0:
267,239,114621,6,0,P|254:317|248:378,1,120.000004577637,6|2,1:2|1:2,0:0:0:0:
249,357,115118,1,2,0:0:0:0:
109,257,115449,1,2,0:0:0:0:
397,46,115781,6,0,P|386:86|393:130,1,64,2|0,0:0|1:0,0:0:0:0:
459,137,116112,1,2,0:0:0:0:
463,215,116278,1,2,1:2:0:0:
400,259,116444,1,2,0:0:0:0:
344,369,116610,2,0,P|287:276|227:273,1,160,0|8,1:0|0:0,0:0:0:0:
154,261,117273,6,0,P|235:236|317:189,2,160,6|0|0,1:2|1:0|1:0,0:0:0:0:
59,178,118267,6,0,P|63:126|68:91,1,80,0|4,1:0|0:3,0:0:0:0:
171,23,118599,1,0,1:0:0:0:
171,23,118765,1,4,0:3:0:0:
216,200,118930,6,0,P|263:177|314:162,1,95.9999970703126,8|0,0:0|0:0,0:0:0:0:
440,160,119262,1,8,0:0:0:0:
440,160,119428,1,8,0:3:0:0:
383,270,119593,6,0,P|434:264|488:267,1,95.9999970703126,4|0,0:3|0:0,0:0:0:0:
297,265,119925,6,0,B|280:219|182:161|113:206|113:206|115:219|114:227|114:227|108:231|96:235|96:235|98:326|195:372|340:341,1,560,4|0,1:2|0:0,0:0:0:0:
485,258,121250,6,0,P|432:266|379:202,1,120.000004577637,2|0,0:0|0:0,0:0:0:0:
283,70,121748,2,0,P|278:117|263:198,1,120.000004577637,8|8,0:3|0:3,0:0:0:0:
204,248,122245,1,4,0:3:0:0:
283,70,122576,5,6,1:2:0:0:
256,192,122659,12,2,127052,0:0:0:0:
