osu file format v14

[General]
AudioFilename: audio.mp3
AudioLeadIn: 0
PreviewTime: 57771
Countdown: 0
SampleSet: Drum
StackLeniency: 0.7
Mode: 3
LetterboxInBreaks: 0
SpecialStyle: 0
WidescreenStoryboard: 1

[Editor]
Bookmarks: 2992,13600,18904,24208,34816,45423,50727,53379,58683,79899,101114,111722,117026,122329
DistanceSpacing: 1.2
BeatDivisor: 4
GridSize: 4
TimelineZoom: 2.3

[Metadata]
Title:Sakura, Reincarnation
TitleUnicode:さくら、Reincarnation
Artist:Sasaki Sayaka
ArtistUnicode:佐咲紗花
Creator:Muse Dash
Version:Madoka's Easy
Source:さくら、もゆ。-as the Night's, Reincarnation-
Tags:Drum-Hitnormal dudehacker Madoka2574 Paran sakura moyu as the nights reincarnation galgame visual novel opening short version favorite japanese OP eroge video game
BeatmapID:2499217
BeatmapSetID:1088021

[Difficulty]
HPDrainRate:7
CircleSize:4
OverallDifficulty:7
ApproachRate:5
SliderMultiplier:1.4
SliderTickRate:1

[Events]
//Background and Video events
0,0,"owo.jpg",0,0
//Break Periods
//Storyboard Layer 0 (Background)
//Storyboard Layer 1 (Fail)
//Storyboard Layer 2 (Pass)
//Storyboard Layer 3 (Foreground)
//Storyboard Layer 4 (Overlay)
//Storyboard Sound Samples
Sample,2661,0,"Tom1.wav",60
Sample,7799,0,"Tom3.wav",60
Sample,13269,0,"Tom1.wav",60
Sample,20561,0,"Tom2.wav",60
Sample,21224,0,"Tom2.wav",60
Sample,44097,0,"Tom2.wav",60
Sample,56031,0,"Tom1.wav",60
Sample,56197,0,"Tom1.wav",60
Sample,56528,0,"Tom1.wav",60
Sample,56860,0,"Tom1.wav",60
Sample,89843,0,"Tom1.wav",60
Sample,100451,0,"LR_Drum Finish.wav",40
Sample,105921,0,"Tom3.wav",60
Sample,118683,0,"Tom2.wav",60
Sample,119346,0,"Tom2.wav",60

[TimingPoints]
341,331.491712707182,4,3,1,60,1,0
58683,-100,4,3,1,60,0,1
78904,-100,4,3,1,60,0,0
79899,-100,4,3,1,60,0,1
101114,-100,4,3,1,60,0,0

[HitObjects]
448,192,341,128,0,2661:0:0:0:0:
192,192,2661,1,2,0:0:0:0:
64,192,2992,1,2,0:0:0:0:
448,192,2992,1,0,0:0:0:40:LR_Drum Finish.wav
320,192,3324,1,0,0:0:0:0:
448,192,3655,1,0,0:0:0:0:
192,192,3987,1,0,0:0:0:0:
64,192,4318,1,8,0:0:0:0:
448,192,4318,1,0,0:0:0:40:LR_Drum Finish.wav
320,192,4650,1,0,0:0:0:0:
192,192,4816,1,0,0:0:0:60:Tom1.wav
448,192,5147,1,0,0:0:0:0:
64,192,5644,1,2,0:0:0:0:
320,192,5644,1,0,0:0:0:40:LR_Drum Finish.wav
192,192,5976,1,0,0:0:0:0:
448,192,6307,1,0,0:0:0:0:
64,192,6639,1,4,0:0:0:0:
192,192,6970,1,8,0:0:0:0:
320,192,6970,1,0,0:0:0:40:LR_Drum Finish.wav
448,192,7302,1,2,0:0:0:0:
64,192,7468,1,0,0:0:0:60:Tom1.wav
320,192,7799,1,2,0:0:0:0:
64,192,8296,1,2,0:0:0:0:
192,192,8296,1,0,0:0:0:40:LR_Drum Finish.wav
448,192,8959,1,0,0:0:0:0:
192,192,9457,1,0,0:0:0:0:
64,192,9622,1,2,0:0:0:0:
448,192,9622,1,0,0:0:0:40:LR_Drum Finish.wav
320,192,9954,1,0,0:0:0:0:
64,192,10285,1,0,0:0:0:0:
192,192,10617,1,8,0:0:0:0:
320,192,10617,1,0,0:0:0:40:LR_Drum Finish.wav
64,192,10948,1,2,0:0:0:0:
448,192,10948,1,0,0:0:0:40:LR_Drum Finish.wav
192,192,11445,1,8,0:0:0:0:
320,192,11611,1,8,0:0:0:0:
64,192,12274,1,8,0:0:0:0:
320,192,12274,1,0,0:0:0:40:LR_Drum Finish.wav
192,192,12606,1,8,0:0:0:0:
448,192,12771,1,2,0:0:0:0:
320,192,13103,1,2,0:0:0:0:
192,192,13269,1,8,0:0:0:0:
64,192,13600,1,2,0:0:0:0:
448,192,13600,1,0,0:0:0:40:LR_Drum Finish.wav
192,192,13932,1,6,0:0:0:0:
320,192,14263,1,6,0:0:0:0:
448,192,14595,1,6,0:0:0:0:
64,192,14926,1,2,0:0:0:0:
192,192,14926,1,4,0:0:0:0:
320,192,15258,1,6,0:0:0:0:
192,192,15589,1,6,0:0:0:0:
64,192,15921,1,6,0:0:0:0:
192,192,16252,1,2,0:0:0:0:
448,192,16252,1,0,0:0:0:40:LR_Drum Finish.wav
320,192,16584,1,6,0:0:0:0:
192,192,16915,1,6,0:0:0:0:
448,192,17247,1,6,0:0:0:0:
64,192,17578,1,2,0:0:0:0:
320,192,17578,1,4,0:0:0:0:
192,192,17910,1,6,0:0:0:0:
64,192,18241,1,6,0:0:0:0:
448,192,18407,1,2,0:0:0:0:
64,192,18573,1,8,0:0:0:0:
192,192,18573,1,0,0:0:0:40:LR_Drum Finish.wav
320,192,18904,1,2,0:0:0:0:
448,192,18904,1,0,0:0:0:40:LR_Drum Finish.wav
192,192,19236,1,2,0:0:0:0:
64,192,19567,1,2,0:0:0:0:
448,192,19899,1,2,0:0:0:0:
64,192,20230,1,8,0:0:0:0:
320,192,20230,1,0,0:0:0:60:Tom2.wav
192,192,20561,1,8,0:0:0:0:
320,192,20893,1,8,0:0:0:0:
448,192,20893,1,0,0:0:0:60:Tom2.wav
192,192,21224,1,8,0:0:0:0:
64,192,21556,1,8,0:0:0:0:
448,192,21556,128,0,22882:0:0:0:40:LR_Drum Finish.wav
64,192,22882,128,4,24208:0:0:0:0:
320,192,22882,1,0,0:0:0:0:
320,192,24208,1,2,0:0:0:0:
448,192,24208,1,0,0:0:0:40:LR_Drum Finish.wav
448,192,25368,1,0,0:0:0:0:
64,192,25534,1,2,0:0:0:0:
448,192,25865,1,0,0:0:0:0:
192,192,26031,1,2,0:0:0:0:
64,192,26363,1,0,0:0:0:0:
320,192,26528,1,2,0:0:0:0:
192,192,26694,1,0,0:0:0:0:
64,192,26860,1,2,0:0:0:0:
448,192,26860,1,0,0:0:0:0:
320,192,27191,1,0,0:0:0:0:
64,192,27357,1,0,0:0:0:0:
448,192,27689,1,0,0:0:0:0:
192,192,27854,1,0,0:0:0:0:
448,192,28186,1,2,0:0:0:0:
320,192,28517,1,0,0:0:0:0:
64,192,28683,1,2,0:0:0:0:
448,192,29015,1,0,0:0:0:0:
192,192,29180,1,2,0:0:0:0:
320,192,29346,1,0,0:0:0:0:
64,192,29512,1,2,0:0:0:0:
448,192,29512,1,0,0:0:0:0:
192,192,29843,1,0,0:0:0:0:
448,192,30009,1,0,0:0:0:0:
64,192,30340,1,0,0:0:0:0:
320,192,30672,1,0,0:0:0:0:
192,192,30838,1,2,0:0:0:0:
448,192,31169,1,0,0:0:0:0:
192,192,31335,1,2,0:0:0:0:
320,192,31666,1,0,0:0:0:0:
64,192,31832,1,2,0:0:0:0:
448,192,31998,1,0,0:0:0:0:
64,192,32164,1,2,0:0:0:0:
192,192,32164,1,0,0:0:0:0:
448,192,32827,1,0,0:0:0:0:
192,192,32992,1,0,0:0:0:0:
320,192,33324,1,0,0:0:0:0:
64,192,33490,1,2,0:0:0:0:
448,192,33490,1,0,0:0:0:0:
64,192,33987,1,2,0:0:0:0:
192,192,34153,1,0,0:0:0:0:
320,192,34318,1,0,0:0:0:0:
448,192,34484,1,4,0:0:0:0:
64,192,34816,1,2,0:0:0:0:
192,192,34816,1,0,0:0:0:40:LR_Drum Finish.wav
448,192,35147,1,2,0:0:0:0:
64,192,35479,1,2,0:0:0:0:
448,192,35810,1,2,0:0:0:0:
192,192,36142,1,2,0:0:0:0:
320,192,36473,1,2,0:0:0:0:
448,192,36805,1,2,0:0:0:0:
192,192,36970,1,0,0:0:0:0:
64,192,37136,1,2,0:0:0:0:
320,192,37468,1,2,0:0:0:0:
448,192,37468,1,0,0:0:0:0:
192,192,37799,1,2,0:0:0:0:
448,192,38131,1,2,0:0:0:0:
64,192,38462,1,2,0:0:0:0:
320,192,38794,1,2,0:0:0:0:
192,192,39125,1,2,0:0:0:0:
448,192,39291,1,0,0:0:0:0:
64,192,39457,1,2,0:0:0:0:
320,192,39622,1,0,0:0:0:0:
448,192,39788,1,2,0:0:0:0:
64,192,40120,1,2,0:0:0:0:
320,192,40120,1,4,0:0:0:0:
192,192,40451,1,2,0:0:0:0:
448,192,40782,1,2,0:0:0:0:
320,192,41114,1,2,0:0:0:0:
64,192,41445,1,2,0:0:0:0:
192,192,41777,1,2,0:0:0:0:
320,192,42108,1,2,0:0:0:0:
64,192,42440,1,6,0:0:0:0:
192,192,42771,1,2,0:0:0:0:
448,192,42771,1,0,0:0:0:40:LR_Drum Finish.wav
320,192,43103,1,2,0:0:0:0:
448,192,43434,1,2,0:0:0:0:
320,192,43600,1,8,0:0:0:0:
192,192,43766,1,2,0:0:0:0:
64,192,43932,1,8,0:0:0:0:
448,192,44097,128,8,44429:0:0:0:0:
64,192,44595,1,0,0:0:0:0:
192,192,44760,1,2,0:0:0:0:
320,192,44926,1,0,0:0:0:60:Tom1.wav
448,192,45092,1,0,0:0:0:60:Tom2.wav
64,192,45423,1,2,0:0:0:0:
192,192,45423,1,0,0:0:0:40:LR_Drum Finish.wav
192,192,45921,1,2,0:0:0:0:
448,192,46086,1,8,0:0:0:0:
320,192,46418,1,2,0:0:0:0:
64,192,46584,1,2,0:0:0:0:
448,192,47247,1,2,0:0:0:0:
192,192,47412,1,8,0:0:0:0:
320,192,48075,1,2,0:0:0:0:
64,192,48573,1,2,0:0:0:0:
448,192,48738,1,8,0:0:0:0:
192,192,49070,1,2,0:0:0:0:
320,192,49401,1,2,0:0:0:0:
64,192,49567,1,8,0:0:0:0:
448,192,49733,1,0,0:0:0:60:Tom1.wav
192,192,50064,1,8,0:0:0:0:
448,192,50230,1,2,0:0:0:60:Tom2.wav
64,192,50396,1,0,0:0:0:60:Tom3.wav
320,192,50727,1,2,0:0:0:0:
448,192,51059,1,0,0:0:0:0:
192,192,51390,1,0,0:0:0:0:
448,192,51722,1,0,0:0:0:0:
320,192,52053,1,0,0:0:0:0:
64,192,52385,1,0,0:0:0:0:
192,192,52716,1,0,0:0:0:0:
320,192,52882,1,0,0:0:0:0:
448,192,53048,1,0,0:0:0:0:
64,192,53379,1,8,0:0:0:0:
192,192,53379,1,0,0:0:0:40:LR_Drum Finish.wav
320,192,53711,1,2,0:0:0:0:
192,192,53876,1,8,0:0:0:0:
448,192,53876,1,0,0:0:0:40:LR_Drum Finish.wav
64,192,54208,1,2,0:0:0:0:
192,192,54374,1,8,0:0:0:0:
320,192,54374,1,0,0:0:0:40:LR_Drum Finish.wav
448,192,54539,1,2,0:0:0:0:
64,192,54871,1,8,0:0:0:0:
192,192,54871,1,0,0:0:0:40:LR_Drum Finish.wav
448,192,55037,1,2,0:0:0:0:
320,192,55368,128,8,55700:0:0:0:0:
64,192,55700,1,8,0:0:0:0:
192,192,55700,1,0,0:0:0:40:LR_Drum Finish.wav
448,192,56031,1,8,0:0:0:0:
64,192,56197,1,8,0:0:0:0:
448,192,56528,1,8,0:0:0:0:
64,192,56860,1,8,0:0:0:0:
320,192,57191,1,8,0:0:0:0:
448,192,57191,1,4,0:0:0:0:
192,192,57523,1,8,0:0:0:0:
320,192,57689,1,8,0:0:0:0:
448,192,58020,1,2,0:0:0:0:
64,192,58186,128,8,58683:0:0:0:0:
320,192,58683,1,2,0:0:0:0:
448,192,58683,1,0,0:0:0:40:LR_Drum Finish.wav
64,192,59015,1,8,0:0:0:0:
192,192,59015,1,0,0:0:0:0:
320,192,59346,1,2,0:0:0:0:
192,192,59512,1,2,0:0:0:0:
64,192,59678,1,8,0:0:0:0:
448,192,59678,1,0,0:0:0:0:
320,192,60009,1,2,0:0:0:0:
64,192,60175,1,2,0:0:0:0:
192,192,60340,1,8,0:0:0:0:
448,192,60340,1,0,0:0:0:0:
64,192,60672,1,2,0:0:0:0:
448,192,60838,1,2,0:0:0:0:
192,192,61003,1,8,0:0:0:0:
320,192,61003,1,0,0:0:0:0:
64,192,61335,1,2,0:0:0:0:
320,192,61666,1,8,0:0:0:0:
448,192,61666,1,0,0:0:0:0:
192,192,61998,1,2,0:0:0:0:
448,192,62164,1,2,0:0:0:0:
64,192,62329,1,8,0:0:0:0:
192,192,62495,1,2,0:0:0:0:
320,192,62495,1,0,0:0:0:0:
448,192,62827,1,2,0:0:0:0:
64,192,62992,1,8,0:0:0:0:
192,192,62992,1,0,0:0:0:0:
320,192,63324,1,2,0:0:0:0:
192,192,63490,1,2,0:0:0:0:
64,192,63655,1,8,0:0:0:0:
448,192,63655,1,0,0:0:0:0:
192,192,63987,1,2,0:0:0:0:
320,192,63987,1,0,0:0:0:40:LR_Drum Finish.wav
64,192,64318,1,8,0:0:0:0:
448,192,64318,1,0,0:0:0:0:
192,192,64650,1,2,0:0:0:0:
448,192,64816,1,2,0:0:0:0:
64,192,64981,1,8,0:0:0:0:
192,192,64981,1,0,0:0:0:0:
320,192,65313,1,2,0:0:0:0:
192,192,65479,1,2,0:0:0:0:
320,192,65644,1,8,0:0:0:0:
448,192,65644,1,0,0:0:0:0:
64,192,65976,1,2,0:0:0:0:
192,192,66142,1,2,0:0:0:0:
320,192,66307,1,8,0:0:0:0:
448,192,66307,1,0,0:0:0:0:
192,192,66639,1,2,0:0:0:0:
64,192,66970,1,8,0:0:0:0:
448,192,66970,1,0,0:0:0:0:
320,192,67302,1,2,0:0:0:0:
192,192,67468,1,2,0:0:0:0:
448,192,67633,1,8,0:0:0:0:
64,192,67799,1,2,0:0:0:0:
320,192,67799,1,0,0:0:0:40:LR_Drum Finish.wav
192,192,68131,1,2,0:0:0:0:
64,192,68296,1,8,0:0:0:0:
448,192,68296,1,0,0:0:0:0:
320,192,68628,1,2,0:0:0:0:
192,192,68794,128,8,69291:0:0:0:0:
320,192,69291,1,2,0:0:0:0:
448,192,69291,1,0,0:0:0:40:LR_Drum Finish.wav
64,192,69622,1,8,0:0:0:0:
192,192,69622,1,0,0:0:0:0:
320,192,69954,1,2,0:0:0:0:
64,192,70120,1,2,0:0:0:0:
320,192,70285,1,8,0:0:0:0:
448,192,70285,1,0,0:0:0:0:
192,192,70617,1,2,0:0:0:0:
320,192,70782,1,2,0:0:0:0:
64,192,70948,1,8,0:0:0:0:
448,192,70948,1,0,0:0:0:0:
320,192,71280,1,2,0:0:0:0:
64,192,71445,1,2,0:0:0:0:
192,192,71611,1,8,0:0:0:0:
448,192,71611,1,0,0:0:0:0:
320,192,71943,1,2,0:0:0:0:
64,192,72274,1,8,0:0:0:0:
192,192,72274,1,0,0:0:0:0:
448,192,72606,1,2,0:0:0:0:
192,192,72771,1,2,0:0:0:0:
64,192,72937,1,8,0:0:0:0:
320,192,72937,1,0,0:0:0:0:
448,192,73269,1,2,0:0:0:0:
192,192,73434,1,2,0:0:0:0:
320,192,73600,1,8,0:0:0:0:
448,192,73600,1,0,0:0:0:0:
64,192,73932,1,2,0:0:0:0:
320,192,74097,1,2,0:0:0:0:
192,192,74263,1,8,0:0:0:0:
448,192,74263,1,0,0:0:0:40:LR_Drum Finish.wav
64,192,74595,1,2,0:0:0:0:
320,192,74595,1,0,0:0:0:40:LR_Drum Finish.wav
192,192,74926,1,8,0:0:0:0:
448,192,74926,1,4,0:0:0:0:
320,192,75258,1,6,0:0:0:0:
192,192,75423,1,2,0:0:0:0:
64,192,75589,1,8,0:0:0:0:
448,192,75589,1,4,0:0:0:0:
192,192,75921,1,6,0:0:0:0:
448,192,76086,1,2,0:0:0:0:
64,192,76252,1,8,0:0:0:0:
320,192,76252,1,4,0:0:0:0:
448,192,76584,1,6,0:0:0:0:
64,192,76749,1,2,0:0:0:0:
192,192,76915,1,8,0:0:0:0:
320,192,76915,1,4,0:0:0:0:
64,192,77247,1,2,0:0:0:0:
448,192,77247,1,0,0:0:0:40:LR_Drum Finish.wav
192,192,77578,1,8,0:0:0:0:
320,192,77578,1,4,0:0:0:0:
64,192,77910,1,6,0:0:0:0:
192,192,78075,1,2,0:0:0:0:
320,192,78241,1,8,0:0:0:0:
64,192,78407,1,2,0:0:0:0:
448,192,78407,1,0,0:0:0:40:LR_Drum Finish.wav
192,192,78738,1,2,0:0:0:0:
64,192,78904,1,8,0:0:0:0:
320,192,78904,1,0,0:0:0:40:LR_Drum Finish.wav
192,192,79236,1,2,0:0:0:0:
448,192,79401,128,8,79899:0:0:0:0:
64,192,79899,1,2,0:0:0:0:
192,192,79899,1,0,0:0:0:40:LR_Drum Finish.wav
320,192,80230,1,8,0:0:0:0:
448,192,80230,1,0,0:0:0:0:
192,192,80561,1,2,0:0:0:0:
320,192,80727,1,2,0:0:0:0:
64,192,80893,1,8,0:0:0:0:
448,192,80893,1,0,0:0:0:0:
192,192,81224,1,2,0:0:0:0:
448,192,81390,1,2,0:0:0:0:
64,192,81556,1,8,0:0:0:0:
320,192,81556,1,0,0:0:0:0:
448,192,81887,1,2,0:0:0:0:
64,192,82053,1,2,0:0:0:0:
192,192,82219,1,8,0:0:0:0:
320,192,82219,1,0,0:0:0:0:
448,192,82550,1,2,0:0:0:0:
64,192,82882,1,8,0:0:0:0:
192,192,82882,1,0,0:0:0:0:
320,192,83213,1,2,0:0:0:0:
64,192,83379,1,2,0:0:0:0:
320,192,83545,1,8,0:0:0:0:
448,192,83545,1,0,0:0:0:0:
192,192,83876,1,2,0:0:0:0:
448,192,84042,1,2,0:0:0:0:
64,192,84208,1,8,0:0:0:0:
320,192,84208,1,0,0:0:0:0:
192,192,84539,1,2,0:0:0:0:
320,192,84705,1,2,0:0:0:0:
64,192,84871,1,8,0:0:0:0:
448,192,84871,1,0,0:0:0:0:
192,192,85202,1,2,0:0:0:0:
320,192,85202,1,0,0:0:0:40:LR_Drum Finish.wav
64,192,85534,1,8,0:0:0:0:
448,192,85534,1,0,0:0:0:0:
192,192,85865,1,2,0:0:0:0:
320,192,86031,1,2,0:0:0:0:
192,192,86197,1,8,0:0:0:0:
448,192,86197,1,0,0:0:0:0:
64,192,86528,1,2,0:0:0:0:
320,192,86694,1,2,0:0:0:0:
64,192,86860,1,8,0:0:0:0:
192,192,86860,1,0,0:0:0:0:
320,192,87191,1,2,0:0:0:0:
192,192,87357,1,2,0:0:0:0:
64,192,87523,1,8,0:0:0:0:
448,192,87523,1,0,0:0:0:0:
320,192,87854,1,2,0:0:0:0:
64,192,88186,1,8,0:0:0:0:
192,192,88186,1,0,0:0:0:0:
448,192,88517,1,2,0:0:0:0:
320,192,88683,1,2,0:0:0:0:
64,192,88849,1,8,0:0:0:0:
192,192,89015,1,2,0:0:0:0:
448,192,89015,1,0,0:0:0:40:LR_Drum Finish.wav
320,192,89346,1,2,0:0:0:0:
64,192,89512,1,8,0:0:0:0:
448,192,89512,1,0,0:0:0:60:Tom1.wav
192,192,89843,1,2,0:0:0:0:
320,192,90009,128,8,90506:0:0:0:0:
64,192,90506,1,2,0:0:0:0:
192,192,90506,1,0,0:0:0:40:LR_Drum Finish.wav
320,192,90838,1,8,0:0:0:0:
448,192,90838,1,0,0:0:0:0:
64,192,91169,1,2,0:0:0:0:
448,192,91335,1,2,0:0:0:0:
64,192,91501,1,8,0:0:0:0:
192,192,91501,1,0,0:0:0:0:
320,192,91832,1,2,0:0:0:0:
192,192,91998,1,2,0:0:0:0:
64,192,92164,1,8,0:0:0:0:
448,192,92164,1,0,0:0:0:0:
192,192,92495,1,2,0:0:0:0:
320,192,92661,1,2,0:0:0:0:
64,192,92827,1,8,0:0:0:0:
448,192,92827,1,0,0:0:0:0:
192,192,93158,1,2,0:0:0:0:
320,192,93490,1,8,0:0:0:0:
448,192,93490,1,0,0:0:0:0:
64,192,93821,1,2,0:0:0:0:
320,192,93987,1,2,0:0:0:0:
192,192,94153,1,8,0:0:0:0:
448,192,94153,1,0,0:0:0:0:
64,192,94484,1,2,0:0:0:0:
448,192,94650,1,2,0:0:0:0:
64,192,94816,1,8,0:0:0:0:
192,192,94816,1,0,0:0:0:0:
448,192,95147,1,2,0:0:0:0:
192,192,95313,1,2,0:0:0:0:
64,192,95479,1,8,0:0:0:0:
320,192,95479,1,0,0:0:0:0:
192,192,95810,1,2,0:0:0:0:
448,192,95810,1,0,0:0:0:40:LR_Drum Finish.wav
64,192,96142,1,2,0:0:0:0:
448,192,96473,1,8,0:0:0:0:
320,192,96805,1,10,0:0:0:0:
64,192,97136,128,10,97468:0:0:0:0:
320,192,97468,1,8,0:0:0:0:
448,192,97468,128,0,97799:0:0:0:40:LR_Drum Finish.wav
192,192,97799,128,0,98131:0:0:0:60:Tom2.wav
320,192,98131,1,2,0:0:0:0:
64,192,98462,1,2,0:0:0:0:
448,192,98462,1,0,0:0:0:40:LR_Drum Finish.wav
64,192,99788,1,0,0:0:0:0:
192,192,99788,1,0,0:0:0:0:
448,192,100285,1,2,0:0:0:0:
192,192,100451,128,8,101114:0:0:0:0:
64,192,101114,1,2,0:0:0:0:
448,192,101114,1,0,0:0:0:40:LR_Drum Finish.wav
320,192,101445,1,0,0:0:0:0:
192,192,101777,1,0,0:0:0:0:
448,192,102108,1,0,0:0:0:0:
64,192,102440,1,8,0:0:0:0:
320,192,102440,1,0,0:0:0:40:LR_Drum Finish.wav
192,192,102771,1,0,0:0:0:0:
448,192,102937,1,0,0:0:0:60:Tom1.wav
64,192,103269,1,0,0:0:0:0:
192,192,103766,1,2,0:0:0:0:
448,192,103766,1,0,0:0:0:40:LR_Drum Finish.wav
320,192,104097,1,0,0:0:0:0:
64,192,104429,1,0,0:0:0:0:
448,192,104760,1,4,0:0:0:0:
192,192,105092,1,8,0:0:0:0:
320,192,105092,1,0,0:0:0:40:LR_Drum Finish.wav
64,192,105423,1,2,0:0:0:0:
448,192,105589,1,0,0:0:0:60:Tom1.wav
192,192,105921,1,2,0:0:0:0:
64,192,106418,1,2,0:0:0:0:
320,192,106418,1,0,0:0:0:40:LR_Drum Finish.wav
192,192,107081,1,0,0:0:0:0:
448,192,107578,1,0,0:0:0:0:
64,192,107744,1,2,0:0:0:0:
192,192,107744,1,0,0:0:0:40:LR_Drum Finish.wav
320,192,108075,1,0,0:0:0:0:
64,192,108407,1,0,0:0:0:0:
192,192,108738,1,8,0:0:0:0:
320,192,108738,1,0,0:0:0:40:LR_Drum Finish.wav
64,192,109070,1,2,0:0:0:0:
448,192,109070,1,0,0:0:0:40:LR_Drum Finish.wav
64,192,109567,1,8,0:0:0:0:
320,192,109733,1,8,0:0:0:0:
192,192,110396,1,8,0:0:0:0:
448,192,110396,1,0,0:0:0:40:LR_Drum Finish.wav
320,192,110727,1,8,0:0:0:0:
64,192,110893,1,2,0:0:0:0:
192,192,111224,1,2,0:0:0:0:
320,192,111390,1,8,0:0:0:0:
64,192,111722,1,2,0:0:0:0:
448,192,111722,1,0,0:0:0:40:LR_Drum Finish.wav
320,192,112053,1,6,0:0:0:0:
192,192,112385,1,6,0:0:0:0:
448,192,112716,1,6,0:0:0:0:
64,192,113048,1,2,0:0:0:0:
320,192,113048,1,4,0:0:0:0:
192,192,113379,1,6,0:0:0:0:
320,192,113711,1,6,0:0:0:0:
448,192,114042,1,6,0:0:0:0:
64,192,114374,1,2,0:0:0:0:
192,192,114374,1,4,0:0:0:0:
448,192,114705,1,6,0:0:0:0:
320,192,115037,1,6,0:0:0:0:
64,192,115368,1,6,0:0:0:0:
192,192,115700,1,2,0:0:0:0:
448,192,115700,1,4,0:0:0:0:
320,192,116031,1,6,0:0:0:0:
448,192,116363,1,6,0:0:0:0:
64,192,116528,1,2,0:0:0:0:
320,192,116694,1,8,0:0:0:0:
448,192,116694,1,0,0:0:0:40:LR_Drum Finish.wav
64,192,117026,1,2,0:0:0:0:
192,192,117026,1,0,0:0:0:40:LR_Drum Finish.wav
320,192,117357,1,2,0:0:0:0:
192,192,117689,1,2,0:0:0:0:
448,192,118020,1,2,0:0:0:0:
64,192,118352,1,8,0:0:0:0:
192,192,118352,1,0,0:0:0:60:Tom2.wav
448,192,118683,1,8,0:0:0:0:
64,192,119015,1,8,0:0:0:0:
320,192,119015,1,0,0:0:0:60:Tom2.wav
192,192,119346,1,8,0:0:0:0:
64,192,119678,128,8,121003:0:0:0:0:
448,192,119678,1,0,0:0:0:40:LR_Drum Finish.wav
320,192,121003,1,4,0:0:0:0:
448,192,121003,128,0,122329:0:0:0:0:
64,192,122329,1,2,0:0:0:0:
192,192,122329,1,0,0:0:0:40:LR_Drum Finish.wav
