osu file format v14

[General]
AudioFilename: audio.mp3
AudioLeadIn: 0
PreviewTime: 57799
Countdown: 0
SampleSet: Soft
StackLeniency: 0.7
Mode: 0
LetterboxInBreaks: 0
WidescreenStoryboard: 1

[Editor]
DistanceSpacing: 0.4
BeatDivisor: 4
GridSize: 8
TimelineZoom: 0.9

[Metadata]
Title:Sakura, Reincarnation
TitleUnicode:さくら、Reincarnation
Artist:Sasaki Sayaka
ArtistUnicode:佐咲紗花
Creator:Flower
Version:Insane
Source:さくら、もゆ。-as the Night's, Reincarnation-
Tags:Sakura, Moyu. as the Night's, Reincarnation 山本美禰子 Yamamoto Mineko 石倉誉之 Ishikura Takashi 小高光太郎 Kodaka Koutarou favorite opening galgame KaedekaShizuru xLolicore- Kencho
BeatmapID:1867048
BeatmapSetID:884081

[Difficulty]
HPDrainRate:6
CircleSize:4
OverallDifficulty:7
ApproachRate:9
SliderMultiplier:1.6
SliderTickRate:1

[Events]
//Background and Video events
0,0,"bg01.jpg",0,0
Video,0,"bgv.flv"
//Break Periods
//Storyboard Layer 0 (Background)
//Storyboard Layer 1 (Fail)
//Storyboard Layer 2 (Pass)
//Storyboard Layer 3 (Foreground)
//Storyboard Sound Samples

[TimingPoints]
367,331.491712707182,4,2,1,50,1,0
367,-133.333333333333,4,2,1,50,0,0
11306,-133.333333333333,4,2,1,35,0,0
11471,-133.333333333333,4,2,1,40,0,0
11637,-133.333333333333,4,2,1,45,0,0
11803,-133.333333333333,4,2,1,50,0,0
11969,-133.333333333333,4,2,1,55,0,0
12134,-133.333333333333,4,2,1,60,0,0
12300,-100,4,2,1,50,0,0
18267,-100,4,2,1,40,0,0
18930,-100,4,2,1,50,0,0
21582,-200,4,2,1,50,0,0
22742,-100,4,2,1,40,0,0
24234,-133.333333333333,4,2,1,35,0,0
34842,-100,4,2,1,40,0,0
44123,-100,4,2,1,45,0,0
45449,-133.333333333333,4,2,1,50,0,0
50753,-133.333333333333,4,2,1,45,0,0
53405,-100,4,2,1,55,0,0
55394,-100,4,2,1,40,0,0
55726,-100,4,2,1,55,0,0
58709,-100,4,2,1,70,0,1
68820,-100,4,2,1,60,0,1
69317,-100,4,2,1,70,0,1
79427,-100,4,2,1,60,0,1
79925,-100,4,2,1,70,0,1
90035,-100,4,2,1,60,0,1
90532,-100,4,2,1,70,0,1
98488,-200,4,2,1,60,0,0
99151,-133.333333333333,4,2,1,40,0,0
100146,-100,4,2,1,45,0,0
101140,-133.333333333333,4,2,1,50,0,0
109427,-133.333333333333,4,2,1,35,0,0
109593,-100,4,2,1,40,0,0
109759,-100,4,2,1,45,0,0
109925,-100,4,2,1,50,0,0
110090,-100,4,2,1,55,0,0
110256,-100,4,2,1,60,0,0
110422,-100,4,2,1,55,0,0
116389,-100,4,2,1,45,0,0
117052,-100,4,2,1,55,0,0
121029,-100,4,2,1,40,0,0
123681,-100,4,2,1,35,0,0
124344,-100,4,2,1,30,0,0
125007,-100,4,2,1,25,0,0
125670,-100,4,2,1,20,0,0
126333,-100,4,2,1,15,0,0

[Colours]
Combo1 : 62,54,105
Combo2 : 225,218,217
Combo3 : 170,53,53
Combo4 : 250,238,197

[HitObjects]
256,192,367,12,0,2521,0:0:0:0:
256,272,2687,5,4,0:0:0:0:
177,330,2853,1,0,0:0:0:0:
177,330,2936,1,0,0:0:0:0:
177,330,3018,2,0,B|143:337|143:337|89:318|89:318|54:322,2,120.000004577637,4|0|2,0:1|0:0|0:0,0:0:0:0:
301,246,4013,1,0,0:0:0:0:
335,330,4179,1,4,0:0:0:0:
335,330,4262,1,4,0:0:0:0:
335,330,4344,6,0,B|369:337|369:337|423:318|423:318|458:322,1,120.000004577637,4|0,0:1|0:0,0:0:0:0:
301,246,4842,2,0,P|324:209|305:128,1,120.000004577637,6|0,0:0|0:0,0:0:0:0:
244,185,5339,1,4,0:0:0:0:
244,185,5670,6,0,B|210:178|210:178|156:197|156:197|121:193,2,120.000004577637,4|0|2,0:1|0:0|0:0,0:0:0:0:
62,156,6665,1,0,0:0:0:0:
160,113,6831,1,4,0:0:0:0:
160,113,6913,1,4,0:0:0:0:
160,113,6996,6,0,B|188:95|188:95|233:118|294:91,1,120.000004577637,4|0,0:1|0:0,0:0:0:0:
347,121,7494,2,0,P|373:104|399:24,1,120.000004577637,6|0,0:0|0:0,0:0:0:0:
288,171,7991,1,4,0:0:0:0:
196,346,8322,5,4,0:1:0:0:
207,330,8985,1,2,0:0:0:0:
18,215,9483,1,2,0:0:0:0:
82,163,9648,6,0,P|95:137|100:97,1,60.0000022888184,4|0,0:1|0:0,0:0:0:0:
92,240,9980,2,0,L|162:246,1,60.0000022888184,2|0,0:0|0:0,0:0:0:0:
304,261,10311,1,0,0:0:0:0:
250,203,10477,1,0,3:0:0:0:
250,203,10560,1,0,3:0:0:0:
250,203,10643,2,0,P|237:162|245:130,1,60.0000022888184,4|0,0:0|0:0,0:0:0:0:
444,157,10974,6,0,B|403:155|403:155|362:167|362:167|311:160,1,120.000004577637,4|4,0:1|0:0,0:0:0:0:
352,79,11471,1,4,0:0:0:0:
444,157,11637,1,4,0:0:0:0:
416,37,11803,1,4,0:0:0:0:
437,177,11969,1,4,0:0:0:0:
493,40,12134,1,4,0:0:0:0:
430,197,12300,6,0,B|414:232|414:232|349:261|349:261|327:307,1,160,4|8,0:1|0:0,0:0:0:0:
245,77,12797,2,0,P|315:97|344:179,1,160,6|2,0:0|0:0,0:0:0:0:
256,344,13295,1,8,0:0:0:0:
256,344,13626,6,0,L|165:353,1,80,12|0,0:1|0:0,0:0:0:0:
165,260,13958,2,0,B|142:248|142:248|128:228|128:228|100:211,1,80,4|0,0:0|0:0,0:0:0:0:
204,96,14289,2,0,P|212:136|198:178,1,80,6|0,0:0|0:0,0:0:0:0:
300,112,14621,2,0,L|383:90,1,80,4|0,0:2|0:0,0:0:0:0:
102,212,14952,6,0,P|61:156|80:58,1,160,12|4,0:3|0:0,0:0:0:0:
300,112,15449,2,0,P|259:144|153:120,1,160,2|2,0:0|0:0,0:0:0:0:
192,235,15947,2,0,L|179:359,1,120,4|0,0:0|0:0,0:0:0:0:
187,359,16278,6,0,P|234:348|276:354,1,80,12|0,0:1|0:0,0:0:0:0:
101,289,16610,2,0,L|5:282,1,80,4|2,0:0|0:0,0:0:0:0:
192,235,16941,2,0,P|223:196|229:153,1,80,4|2,0:0|0:0,0:0:0:0:
92,209,17273,2,0,L|101:298,1,80,4|2,0:0|0:0,0:0:0:0:
286,254,17604,5,4,0:0:0:0:
92,299,17770,1,2,0:0:0:0:
138,109,17936,1,4,0:0:0:0:
170,223,18101,1,2,0:0:0:0:
263,136,18267,2,0,B|266:113|266:113|284:92|284:92|291:53,1,80,0|0,1:0|1:0,0:0:0:0:
398,232,18599,1,0,1:0:0:0:
393,216,18681,1,0,1:0:0:0:
388,200,18764,1,0,1:0:0:0:
384,184,18847,1,0,1:0:0:0:
380,168,18930,6,0,L|364:261,1,80,12|0,0:1|0:0,0:0:0:0:
263,339,19262,2,0,P|317:326|345:332,1,80,4|0,0:0|0:0,0:0:0:0:
231,240,19593,2,0,L|143:229,1,80,4|0,0:0|0:0,0:0:0:0:
263,339,19925,1,4,0:0:0:0:
221,152,20090,1,0,0:0:0:0:
243,329,20256,5,4,0:0:0:0:
135,350,20422,1,4,0:0:0:0:
5,247,20587,1,8,0:0:0:0:
113,268,20753,1,4,0:0:0:0:
91,121,20919,1,4,0:0:0:0:
141,267,21085,1,4,0:0:0:0:
243,151,21250,1,8,0:0:0:0:
249,159,21582,6,0,B|262:127|301:107|301:107|320:141|318:181|318:181|356:183|386:221|386:221|363:243|338:247,1,280,4|0,0:1|0:0,0:0:0:0:
207,329,22908,5,2,0:0:0:0:
203,333,22991,1,0,0:0:0:0:
199,337,23074,1,0,0:0:0:0:
195,341,23157,1,0,0:0:0:0:
191,345,23239,1,0,0:0:0:0:
187,349,23322,1,0,0:0:0:0:
183,353,23405,2,0,B|175:299|175:299|186:249|186:249|176:176,1,160,4|4,0:0|0:0,0:0:0:0:
113,65,23902,2,0,P|87:96|107:169,1,120,8|0,0:0|0:0,0:0:0:0:
109,171,24234,6,0,B|157:175|157:175|186:167|186:167|232:171,1,120.000004577637,12|0,0:3|0:0,0:0:0:0:
398,128,24897,2,0,P|419:101|402:9,1,120.000004577637,0|0,0:0|0:0,0:0:0:0:
344,66,25394,1,0,0:0:0:0:
356,196,25560,6,0,L|368:325,1,120.000004577637,8|0,0:3|0:0,0:0:0:0:
254,226,26057,2,0,P|283:194|365:203,1,120.000004577637,8|0,0:3|0:0,0:0:0:0:
264,318,26554,2,0,B|221:326|221:326|182:324|182:324|132:333,1,120.000004577637,4|12,0:0|0:3,0:0:0:0:
132,243,27052,5,0,0:0:0:0:
67,298,27217,2,0,P|47:239|72:181,1,120.000004577637
205,283,27715,1,0,0:0:0:0:
132,243,27880,1,0,0:0:0:0:
206,199,28046,1,0,0:0:0:0:
275,242,28212,6,0,B|289:206|289:206|277:161|277:161|289:122,1,120.000004577637,12|0,0:3|0:0,0:0:0:0:
461,115,28709,2,0,P|417:157|356:148,1,120.000004577637,4|0,0:0|0:0,0:0:0:0:
159,88,29206,2,0,L|219:83,1,60.0000022888184,4|0,0:0|0:0,0:0:0:0:
103,29,29538,6,0,P|79:77|102:147,1,120.000004577637,8|0,0:3|0:0,0:0:0:0:
169,184,30035,1,0,0:0:0:0:
93,227,30201,2,0,L|23:238,1,60.0000022888184,0|0,0:0|0:0,0:0:0:0:
170,272,30532,2,0,L|230:280,1,60.0000022888184,0|0,0:0|0:0,0:0:0:0:
67,319,30864,6,0,B|106:325|106:325|136:349|136:349|190:358,1,120.000004577637,12|0,0:3|0:0,0:0:0:0:
316,279,31361,2,0,P|335:244|315:161,1,120.000004577637,4|0,0:0|0:0,0:0:0:0:
264,342,31858,1,4,0:0:0:0:
365,360,32024,1,0,0:0:0:0:
316,279,32190,6,0,P|265:260|201:291,2,120.000004577637,4|0|0,0:0|0:0|0:0,0:0:0:0:
129,248,33018,2,0,L|120:185,1,60.0000022888184,4|0,0:3|0:0,0:0:0:0:
176,58,33350,1,0,0:0:0:0:
267,162,33516,1,4,0:0:0:0:
271,148,34013,5,4,0:0:0:0:
212,90,34179,1,0,0:0:0:0:
356,152,34344,1,0,0:0:0:0:
234,245,34510,2,0,L|141:256,1,90.0000034332277,4|0,0:3|0:0,0:0:0:0:
124,268,34842,6,0,P|103:228|113:184,1,80,12|0,0:1|0:0,0:0:0:0:
234,245,35173,2,0,P|255:285|245:329,1,80,4|0,0:0|0:0,0:0:0:0:
451,331,35505,2,0,L|361:325,1,80,4|0,0:0|0:0,0:0:0:0:
309,168,35836,2,0,L|391:157,1,80,4|0,0:0|0:0,0:0:0:0:
490,49,36168,6,0,B|481:102|481:102|491:145|491:145|481:208,1,160,10|4,0:3|0:0,0:0:0:0:
364,307,36665,1,2,0:0:0:0:
297,185,36831,2,0,L|376:174,1,80,4|0,0:0|0:0,0:0:0:0:
344,292,37162,1,6,0:0:0:0:
238,132,37328,1,0,0:0:0:0:
324,274,37494,6,0,P|279:268|213:364,1,160,12|4,0:3|0:0,0:0:0:0:
137,258,37991,2,0,L|52:264,1,80,0|4,0:0|0:0,0:0:0:0:
57,120,38322,1,0,0:0:0:0:
57,120,38488,2,0,L|137:126,1,80,4|0,0:0|0:0,0:0:0:0:
252,73,38820,5,4,0:0:0:0:
199,183,38985,1,2,0:0:0:0:
337,140,39151,2,0,P|295:137|261:112,1,80,12|0,0:0|0:0,0:0:0:0:
344,242,39483,1,4,0:0:0:0:
221,188,39648,1,0,0:0:0:0:
414,192,39814,2,0,P|429:234|417:285,1,80,4|0,0:0|0:0,0:0:0:0:
300,349,40146,6,0,B|256:346|256:346|207:316|207:316|145:307,1,160,12|4,0:3|0:0,0:0:0:0:
39,146,40643,1,0,0:0:0:0:
39,146,40808,2,0,P|64:191|55:236,1,80,4|0,0:0|0:0,0:0:0:0:
5,343,41140,2,0,L|95:358,1,80,4|0,0:0|0:0,0:0:0:0:
218,217,41471,1,10,0:3:0:0:
210,198,41803,6,0,P|197:157|214:110,1,80,4|0,0:0|0:0,0:0:0:0:
214,108,42052,1,0,0:0:0:0:
222,94,42134,2,0,L|92:112,1,120,4|0,0:0|0:0,0:0:0:0:
90,110,42466,2,0,P|113:156|110:192,1,80,12|0,0:3|0:0,0:0:0:0:
144,349,42797,6,0,P|163:309|155:261,1,80,4|0,0:0|0:0,0:0:0:0:
83,295,43129,1,4,0:0:0:0:
241,259,43295,1,0,0:0:0:0:
124,116,43460,2,0,P|141:160|136:199,1,80,4|0,0:0|0:0,0:0:0:0:
249,271,43792,2,0,L|329:279,1,80,4|8,0:0|0:0,0:0:0:0:
321,126,44123,5,4,0:0:0:0:
256,286,44289,1,4,0:0:0:0:
428,258,44455,1,8,0:0:0:0:
308,140,44621,5,4,0:0:0:0:
269,297,44786,1,4,0:0:0:0:
412,260,44952,1,8,0:0:0:0:
328,224,45118,1,8,0:0:0:0:
79,352,45449,6,0,B|61:299|103:287|89:236,1,120.000004577637,4|0,0:3|0:0,0:0:0:0:
29,180,45947,1,4,0:0:0:0:
29,180,46112,2,0,P|13:132|31:56,1,120.000004577637,8|4,0:0|0:0,0:0:0:0:
183,129,46610,2,0,P|199:177|181:253,1,120.000004577637,8|0,0:0|0:0,0:0:0:0:
233,312,47107,6,0,L|298:321,1,60.0000022888184,0|4,0:0|0:0,0:0:0:0:
98,352,47438,1,8,0:0:0:0:
297,332,47770,2,0,L|237:323,1,60.0000022888184,0|0,0:0|0:0,0:0:0:0:
382,282,48101,6,0,B|386:246|386:246|371:199|371:199|377:153,1,120.000004577637,4|0,0:0|0:0,0:0:0:0:
463,192,48599,1,4,0:0:0:0:
294,244,48764,2,0,B|248:241|248:241|214:228|214:228|166:221,1,120.000004577637,8|0,0:0|0:0,0:0:0:0:
115,127,49262,1,4,0:0:0:0:
91,203,49427,5,4,0:0:0:0:
197,109,49593,1,8,0:0:0:0:
59,184,49759,2,0,P|35:131|51:86,1,90.0000034332277,4|0,0:0|0:0,0:0:0:0:
33,89,50090,2,0,L|28:23,1,60.0000022888184,8|4,0:0|0:0,0:0:0:0:
114,248,50422,2,0,L|104:342,1,90.0000034332277,4|0,0:0|0:0,0:0:0:0:
94,343,50753,6,0,B|145:330|154:365|213:348,1,120.000004577637,2|0,0:3|0:0,0:0:0:0:
499,268,51416,2,0,B|448:281|439:246|380:263,1,120.000004577637,0|2,3:2|0:0,0:0:0:0:
319,213,51913,1,0,0:0:0:0:
390,183,52079,2,0,L|402:112,1,60.0000022888184,4|0,0:3|0:0,0:0:0:0:
309,290,52411,2,0,P|280:296|242:281,1,60.0000022888184,0|0,0:0|0:0,0:0:0:0:
324,114,52742,2,0,P|353:108|391:123,1,60.0000022888184,0|0,3:2|0:0,0:0:0:0:
203,217,53074,2,0,L|140:232,1,60.0000022888184,0|0,0:0|0:0,0:0:0:0:
137,240,53322,1,0,0:0:0:0:
127,253,53405,6,0,P|128:208|108:170,1,80,10|4,0:3|0:0,0:0:0:0:
41,231,53737,1,4,0:0:0:0:
154,339,53902,2,0,L|240:348,1,80,8|4,0:0|0:0,0:0:0:0:
311,243,54234,1,4,0:0:0:0:
167,320,54400,1,8,0:0:0:0:
320,161,54565,1,4,0:0:0:0:
381,284,54731,5,4,0:0:0:0:
239,175,54897,1,8,0:0:0:0:
400,105,55063,2,0,P|416:146|409:195,1,80,4|8,0:0|0:0,0:0:0:0:
272,275,55394,1,8,0:0:0:0:
248,269,55477,1,8,0:0:0:0:
224,263,55560,1,8,0:0:0:0:
200,257,55643,1,8,0:0:0:0:
176,251,55726,1,8,0:0:0:0:
70,94,56057,5,0,1:0:0:0:
70,94,56223,1,0,1:0:0:0:
116,350,56554,1,0,1:0:0:0:
21,195,56886,1,0,1:0:0:0:
93,235,57052,1,4,0:0:0:0:
84,248,57134,1,4,0:0:0:0:
75,261,57217,2,0,B|148:283|162:243|234:265,1,160,0|0,1:0|1:0,0:0:0:0:
232,264,57715,1,0,1:0:0:0:
406,350,58046,5,4,0:3:0:0:
476,283,58212,1,0,1:0:0:0:
476,283,58295,1,0,1:0:0:0:
476,283,58378,1,0,1:0:0:0:
476,283,58460,1,0,1:0:0:0:
476,283,58543,1,0,1:0:0:0:
476,283,58626,1,0,1:0:0:0:
476,283,58709,6,0,P|493:234|485:190,1,80,12|0,0:1|0:0,0:0:0:0:
379,42,59041,2,0,L|389:127,1,80,8|0,0:0|0:0,0:0:0:0:
378,211,59372,1,6,0:0:0:0:
477,127,59538,1,4,0:0:0:0:
379,42,59704,2,0,L|250:58,1,120,8|0,0:0|0:0,0:0:0:0:
247,53,60035,6,0,P|263:96|256:140,1,80,4|4,0:0|0:0,0:0:0:0:
138,234,60366,2,0,B|201:209|225:262|294:237,1,160,8|4,0:0|0:0,0:0:0:0:
170,311,60864,1,2,0:0:0:0:
61,223,61029,1,8,0:0:0:0:
61,223,61361,6,0,L|76:103,1,120,10|0,0:3|0:0,0:0:0:0:
67,97,61692,2,0,P|111:96|145:83,1,80,8|2,0:0|0:0,0:0:0:0:
256,187,62024,1,4,0:0:0:0:
186,335,62190,2,0,P|168:290|178:252,1,80,6|8,0:0|0:0,0:0:0:0:
406,289,62521,6,0,B|345:284|345:284|305:293|305:293|243:285,1,160,4|4,0:3|0:0,0:0:0:0:
395,199,63018,2,0,L|376:66,1,120,8|0,0:0|0:0,0:0:0:0:
372,70,63350,2,0,P|427:77|459:69,1,80,6|4,0:0|0:0,0:0:0:0:
304,152,63681,2,0,L|221:161,1,80,8|0,0:0|0:0,0:0:0:0:
187,354,64013,6,0,P|213:317|254:293,1,80,12|0,0:1|0:0,0:0:0:0:
136,247,64344,2,0,B|109:241|109:241|91:230|91:230|58:222,1,80,8|0,0:0|0:0,0:0:0:0:
216,154,64676,1,6,0:0:0:0:
252,286,64842,1,4,0:0:0:0:
363,195,65007,2,0,P|371:114|342:74,1,120,8|0,0:0|0:0,0:0:0:0:
332,68,65339,5,4,0:0:0:0:
466,157,65505,1,6,0:0:0:0:
376,274,65670,2,0,L|461:284,1,80,8|0,0:0|0:0,0:0:0:0:
234,372,66002,1,12,0:3:0:0:
289,232,66168,1,0,0:0:0:0:
136,260,66333,1,8,0:0:0:0:
136,260,66665,6,0,B|142:196|142:196|159:167|159:167|166:102,1,160,10|8,0:3|0:0,0:0:0:0:
116,40,67162,1,2,0:0:0:0:
66,202,67328,2,0,L|58:285,1,80,4|6,0:0|0:0,0:0:0:0:
165,105,67659,1,8,0:0:0:0:
116,338,67825,6,0,P|179:326|210:235,1,160,4|2,0:3|0:0,0:0:0:0:
261,168,68322,2,0,B|311:166|311:166|360:186|360:186|421:184,1,160,8|4,0:0|0:0,0:0:0:0:
458,269,68820,1,0,1:0:0:0:
474,258,68902,1,0,1:0:0:0:
488,243,68985,1,0,1:0:0:0:
499,226,69068,1,0,1:0:0:0:
505,208,69151,1,0,1:0:0:0:
507,188,69234,1,0,1:0:0:0:
505,168,69317,6,0,L|498:80,1,80,12|0,0:1|0:0,0:0:0:0:
261,91,69648,2,0,P|251:139|270:180,1,80,8|0,0:0|0:0,0:0:0:0:
332,130,69980,2,0,L|433:111,1,80,6|4,0:0|0:0,0:0:0:0:
303,240,70311,1,8,0:0:0:0:
165,140,70477,1,0,0:0:0:0:
200,345,70643,5,12,0:3:0:0:
283,235,70808,1,0,0:0:0:0:
165,140,70974,2,0,L|186:261,1,120,8|0,0:0|0:0,0:0:0:0:
176,266,71306,1,10,0:3:0:0:
60,169,71471,1,4,0:0:0:0:
169,61,71637,2,0,P|209:74|241:148,1,120,8|0,0:0|0:0,0:0:0:0:
256,153,71969,6,0,L|352:159,1,80,10|0,0:3|0:0,0:0:0:0:
353,276,72300,1,8,0:0:0:0:
420,142,72466,2,0,P|431:89|413:48,1,80,0|6,0:0|0:0,0:0:0:0:
282,234,72797,1,4,0:0:0:0:
415,222,72963,2,0,L|503:215,1,80,8|0,0:0|0:0,0:0:0:0:
254,346,73295,6,0,L|170:340,1,80,12|0,0:3|0:0,0:0:0:0:
23,256,73626,2,0,P|67:240|137:269,1,120,8|0,0:0|0:0,0:0:0:0:
152,253,73958,2,0,L|169:170,1,80,4|6,0:0|0:0,0:0:0:0:
270,50,74289,2,0,P|278:87|262:132,1,80,8|0,0:0|0:0,0:0:0:0:
22,94,74621,6,0,B|95:117|99:55|177:82,1,160,12|8,0:1|0:0,0:0:0:0:
49,18,75118,1,0,0:0:0:0:
23,195,75284,1,6,0:0:0:0:
185,153,75449,1,4,0:0:0:0:
44,202,75615,1,8,0:0:0:0:
115,298,75781,1,0,0:0:0:0:
65,208,75947,6,0,P|85:164|83:128,1,80,8|4,0:0|0:0,0:0:0:0:
252,314,76278,2,0,P|211:283|197:251,1,80,8|0,0:0|0:0,0:0:0:0:
429,199,76610,1,4,0:0:0:0:
268,325,76775,1,4,0:0:0:0:
239,120,76941,2,0,P|292:159|298:220,1,120,8|0,0:0|0:0,0:0:0:0:
295,223,77273,1,10,0:3:0:0:
166,353,77604,5,8,0:0:0:0:
290,235,77770,1,0,0:0:0:0:
80,308,77936,1,6,0:0:0:0:
221,280,78101,1,4,0:0:0:0:
52,166,78267,1,8,0:0:0:0:
193,139,78433,6,0,P|228:193|171:273,1,160,12|4,0:3|0:0,0:0:0:0:
123,111,78930,2,0,P|151:74|192:64,1,80,8|0,0:0|0:0,0:0:0:0:
380,155,79262,2,0,L|294:141,1,80,4|0,0:0|1:0,0:0:0:0:
308,156,79510,1,0,1:0:0:0:
315,169,79593,1,0,1:0:0:0:
322,182,79676,1,0,1:0:0:0:
329,195,79759,1,0,1:0:0:0:
336,208,79842,1,0,1:0:0:0:
344,221,79925,6,0,P|386:232|426:219,1,80,12|0,0:1|0:0,0:0:0:0:
498,57,80256,2,0,L|411:72,1,80,8|0,0:0|0:0,0:0:0:0:
473,273,80587,2,0,P|494:227|477:178,1,80,6|0,0:0|0:0,0:0:0:0:
249,30,80919,2,0,L|263:153,1,120,8|0,0:0|0:0,0:0:0:0:
255,163,81250,5,4,0:0:0:0:
129,53,81416,1,4,0:0:0:0:
99,221,81582,2,0,P|61:172|71:103,1,120,8|0,0:0|0:0,0:0:0:0:
75,107,81913,1,4,0:0:0:0:
169,199,82079,1,6,0:0:0:0:
14,293,82245,2,0,L|149:306,1,120,8|0,0:0|0:0,0:0:0:0:
145,318,82576,6,0,P|197:297|276:364,1,160,4|8,0:0|0:0,0:0:0:0:
369,281,83074,1,2,0:0:0:0:
307,146,83239,2,0,L|315:231,1,80,4|6,0:0|0:0,0:0:0:0:
299,65,83571,1,8,0:0:0:0:
230,191,83737,1,0,0:0:0:0:
369,281,83902,6,0,P|391:242|387:198,1,80,4|2,0:0|0:0,0:0:0:0:
381,117,84234,2,0,L|466:128,1,80,8|0,0:0|0:0,0:0:0:0:
230,191,84565,2,0,L|144:199,1,80,12|4,0:3|0:0,0:0:0:0:
62,366,84897,2,0,P|12:315|13:249,1,120,8|0,0:0|0:0,0:0:0:0:
30,251,85228,6,0,B|59:185|-6:163|29:88,1,160,10|8,0:3|0:0,0:0:0:0:
103,131,85726,1,0,0:0:0:0:
185,291,85891,2,0,L|104:272,1,80,6|4,0:0|0:0,0:0:0:0:
267,256,86223,2,0,P|311:246|355:263,1,80,8|0,0:0|0:0,0:0:0:0:
383,153,86554,5,12,0:3:0:0:
306,326,86720,1,0,0:0:0:0:
491,308,86886,2,0,L|365:286,1,120,8|0,0:0|0:0,0:0:0:0:
384,298,87217,1,6,0:0:0:0:
458,175,87383,1,4,0:0:0:0:
316,52,87549,2,0,P|293:116|318:172,1,120,8|0,0:0|0:0,0:0:0:0:
303,177,87880,6,0,L|213:192,1,80,10|0,0:3|0:0,0:0:0:0:
62,316,88212,2,0,B|118:321|118:321|154:349|154:349|223:355,1,160,8|4,0:0|0:0,0:0:0:0:
314,277,88709,1,2,0:0:0:0:
160,146,88875,1,8,0:0:0:0:
326,43,89041,6,0,P|351:96|301:177,1,160,4|0,0:3|0:0,0:0:0:0:
415,181,89538,2,0,L|498:188,1,80,8|0,0:0|0:0,0:0:0:0:
268,101,89869,1,8,0:0:0:0:
190,180,90035,1,8,0:0:0:0:
191,206,90118,1,8,0:0:0:0:
192,233,90201,1,8,0:0:0:0:
194,259,90284,1,8,0:0:0:0:
195,286,90366,1,8,0:0:0:0:
197,313,90449,1,8,0:0:0:0:
198,339,90532,6,0,P|248:329|288:344,1,80,12|0,0:1|0:0,0:0:0:0:
337,279,90864,1,8,0:0:0:0:
284,127,91029,2,0,L|295:211,1,80,0|6,0:0|0:0,0:0:0:0:
198,339,91361,1,4,0:0:0:0:
371,354,91527,1,8,0:0:0:0:
294,206,91692,1,0,0:0:0:0:
113,270,91858,6,0,L|199:261,1,80,4|0,0:0|0:0,0:0:0:0:
363,168,92190,2,0,P|319:133|245:146,1,120,8|0,0:0|0:0,0:0:0:0:
237,150,92521,2,0,L|150:142,1,80,10|6,0:3|0:0,0:0:0:0:
104,325,92853,2,0,L|83:197,1,120,8|0,0:0|0:0,0:0:0:0:
87,191,93184,6,0,P|42:189|7:208,1,80,12|0,0:3|0:0,0:0:0:0:
179,350,93516,2,0,L|264:359,1,80,8|0,0:0|0:0,0:0:0:0:
203,231,93847,1,6,0:0:0:0:
104,325,94013,1,4,0:0:0:0:
291,343,94179,2,0,P|312:279|290:211,1,120,8|0,0:0|0:0,0:0:0:0:
285,214,94510,6,0,L|375:199,1,80,10|0,0:3|3:0,0:0:0:0:
445,261,94842,2,0,P|463:219|455:166,1,80,8|0,0:0|3:0,0:0:0:0:
285,41,95173,2,0,L|297:135,1,80,8|8,3:3|3:0,0:0:0:0:
445,261,95505,2,0,P|396:272|367:302,1,80,0|0,1:3|0:0,0:0:0:0:
269,346,95836,6,0,L|141:339,1,120,12|0,0:3|0:0,0:0:0:0:
139,344,96168,1,4,0:0:0:0:
252,256,96333,1,0,0:0:0:0:
123,117,96499,2,0,P|112:174|127:205,1,80,4|0,0:0|0:0,0:0:0:0:
201,159,96831,1,4,0:0:0:0:
47,290,96996,1,0,0:0:0:0:
47,290,97079,1,0,0:0:0:0:
47,290,97162,5,4,0:0:0:0:
5,96,97328,1,0,0:0:0:0:
201,159,97494,1,4,0:0:0:0:
84,185,97659,1,0,0:0:0:0:
193,82,97825,2,0,P|207:125|194:171,1,80,4|0,0:0|0:0,0:0:0:0:
161,328,98157,2,0,L|283:345,1,120,0|0,3:0|0:0,0:0:0:0:
298,331,98488,6,0,B|334:257|259:256|292:178,1,160,4|0,0:1|0:0,0:0:0:0:
289,163,99814,1,2,0:3:0:0:
119,341,100311,6,0,L|69:352,2,40,0|0|0,1:0|1:0|1:0,0:0:0:0:
181,287,100643,1,0,1:0:0:0:
178,267,100726,1,0,1:0:0:0:
176,247,100808,1,0,1:0:0:0:
173,227,100891,1,0,1:0:0:0:
171,207,100974,1,0,1:0:0:0:
169,187,101057,1,0,1:0:0:0:
167,165,101140,6,0,B|135:153|135:153|85:166|85:166|51:158,2,120.000004577637,12|2|8,0:1|0:0|0:0,0:0:0:0:
335,335,102134,1,2,0:0:0:0:
404,274,102300,1,0,3:0:0:0:
404,274,102383,1,0,3:0:0:0:
404,274,102466,6,0,P|429:218|405:149,1,120.000004577637,4|0,0:0|0:0,0:0:0:0:
347,120,102963,2,0,P|368:98|457:94,1,120.000004577637,2|0,0:0|0:0,0:0:0:0:
336,212,103460,1,8,0:0:0:0:
336,212,103792,6,0,B|302:219|302:219|248:200|248:200|213:204,2,120.000004577637,12|2|8,0:1|0:0|0:0,0:0:0:0:
238,288,104786,1,2,0:0:0:0:
293,128,104952,1,0,3:0:0:0:
293,128,105035,1,0,3:0:0:0:
293,128,105118,2,0,P|245:84|257:18,1,120.000004577637,4|0,0:0|0:0,0:0:0:0:
155,78,105615,2,0,B|122:70|122:70|66:89|66:89|27:86,1,120.000004577637,2|0,0:0|0:0,0:0:0:0:
220,203,106112,1,8,0:0:0:0:
316,38,106444,5,4,0:1:0:0:
305,54,107107,1,2,0:0:0:0:
494,169,107604,1,2,0:0:0:0:
430,221,107770,2,0,P|457:244|489:255,1,60.0000022888184,4|0,0:1|0:0,0:0:0:0:
420,144,108101,2,0,L|424:75,1,60.0000022888184,2|0,0:0|0:0,0:0:0:0:
358,264,108433,1,4,0:0:0:0:
246,117,108599,1,0,3:0:0:0:
246,117,108681,1,0,3:0:0:0:
246,117,108764,2,0,L|326:126,1,60.0000022888184,4|0,0:0|0:0,0:0:0:0:
195,200,109096,6,0,P|150:146|161:79,1,120.000004577637,12|4,0:1|0:0,0:0:0:0:
185,30,109593,1,4,0:0:0:0:
70,108,109759,1,4,0:0:0:0:
187,214,109925,1,4,0:0:0:0:
56,127,110090,1,4,0:0:0:0:
49,277,110256,1,4,0:0:0:0:
203,226,110422,6,0,P|252:181|229:86,1,160,4|8,0:1|0:0,0:0:0:0:
244,309,110919,2,0,B|202:316|202:316|136:291|136:291|80:297,1,160,6|2,0:0|0:0,0:0:0:0:
323,294,111416,1,8,0:0:0:0:
323,294,111748,6,0,P|366:280|412:290,1,80,4|0,0:0|0:0,0:0:0:0:
399,125,112079,2,0,L|343:187,1,80,4|0,0:0|0:0,0:0:0:0:
248,34,112411,2,0,B|260:63|260:63|279:77|279:77|290:103,1,80,6|0,0:0|0:0,0:0:0:0:
180,111,112742,2,0,P|132:106|89:125,1,80,4|0,0:0|0:0,0:0:0:0:
114,331,113074,6,0,P|155:275|136:177,1,160,12|4,0:3|0:0,0:0:0:0:
235,304,113571,2,0,B|277:308|277:308|344:339|344:339|398:342,1,160,2|2,0:0|0:0,0:0:0:0:
377,111,114068,2,0,L|364:235,1,120,4|0,0:0|0:0,0:0:0:0:
370,245,114400,6,0,P|419:239|460:254,1,80,12|0,0:1|0:0,0:0:0:0:
358,98,114731,2,0,L|262:105,1,80,4|2,0:0|0:0,0:0:0:0:
260,266,115063,2,0,P|280:224|268:177,1,80,4|2,0:0|0:0,0:0:0:0:
171,35,115394,2,0,L|186:113,1,80,4|2,0:0|0:0,0:0:0:0:
185,213,115726,5,4,0:0:0:0:
58,101,115891,1,2,0:0:0:0:
26,264,116057,1,4,0:0:0:0:
185,213,116223,1,2,0:0:0:0:
242,268,116389,2,0,P|262:232|252:178,1,80,0|0,1:0|1:0,0:0:0:0:
334,314,116720,1,0,1:0:0:0:
350,319,116803,1,0,1:0:0:0:
366,324,116886,1,0,1:0:0:0:
382,328,116969,1,0,1:0:0:0:
396,332,117052,6,0,L|375:231,1,80,12|0,0:1|0:0,0:0:0:0:
418,167,117383,2,0,P|460:178|505:170,1,80,4|0,0:0|0:0,0:0:0:0:
369,83,117715,2,0,L|286:90,1,80,4|0,0:0|0:0,0:0:0:0:
291,241,118046,1,4,0:0:0:0:
418,167,118212,1,0,0:0:0:0:
231,165,118378,5,4,0:0:0:0:
272,322,118543,1,4,0:0:0:0:
208,179,118709,1,8,0:0:0:0:
167,349,118875,1,4,0:0:0:0:
49,186,119041,5,4,0:0:0:0:
187,259,119206,1,4,0:0:0:0:
174,100,119372,1,8,0:0:0:0:
193,80,119704,5,4,0:1:0:0:
199,311,120864,1,0,0:0:0:0:
266,361,121029,5,4,0:3:0:0:
278,337,121111,1,0,0:0:0:0:
282,311,121194,1,0,0:0:0:0:
278,285,121277,1,0,0:0:0:0:
267,261,121360,1,0,0:0:0:0:
248,242,121443,1,0,0:0:0:0:
224,230,121527,2,0,P|263:190|241:92,1,160,4|4,0:0|0:0,0:0:0:0:
188,154,122024,1,4,0:0:0:0:
362,222,122355,1,4,0:1:0:0:
256,192,122438,12,4,126665,0:3:0:0:
