osu file format v14

[General]
AudioFilename: audio.mp3
AudioLeadIn: 0
PreviewTime: 57799
Countdown: 0
SampleSet: Soft
StackLeniency: 0.7
Mode: 0
LetterboxInBreaks: 0
WidescreenStoryboard: 1

[Editor]
DistanceSpacing: 1.2
BeatDivisor: 4
GridSize: 32
TimelineZoom: 0.9

[Metadata]
Title:Sakura, Reincarnation
TitleUnicode:さくら、Reincarnation
Artist:Sasaki Sayaka
ArtistUnicode:佐咲紗花
Creator:Flower
Version:Hard
Source:さくら、もゆ。-as the Night's, Reincarnation-
Tags:Sakura, Moyu. as the Night's, Reincarnation 山本美禰子 Yamamoto Mineko 石倉誉之 Ishikura Takashi 小高光太郎 Kodaka Koutarou favorite opening galgame KaedekaShizuru xLolicore- Kencho
BeatmapID:1850756
BeatmapSetID:884081

[Difficulty]
HPDrainRate:5
CircleSize:4
OverallDifficulty:6
ApproachRate:7.5
SliderMultiplier:1.3
SliderTickRate:1

[Events]
//Background and Video events
0,0,"bg01.jpg",0,0
Video,0,"bgv.flv"
//Break Periods
//Storyboard Layer 0 (Background)
//Storyboard Layer 1 (Fail)
//Storyboard Layer 2 (Pass)
//Storyboard Layer 3 (Foreground)
//Storyboard Sound Samples

[TimingPoints]
367,331.491712707182,4,2,1,50,1,0
367,-133.333333333333,4,2,1,50,0,0
11306,-133.333333333333,4,2,1,35,0,0
11471,-133.333333333333,4,2,1,40,0,0
11637,-133.333333333333,4,2,1,45,0,0
11803,-133.333333333333,4,2,1,50,0,0
11969,-133.333333333333,4,2,1,55,0,0
12134,-133.333333333333,4,2,1,60,0,0
12300,-100,4,2,1,50,0,0
18267,-100,4,2,1,40,0,0
18930,-100,4,2,1,50,0,0
21582,-200,4,2,1,50,0,0
22742,-100,4,2,1,40,0,0
24234,-100,4,2,1,35,0,0
34842,-100,4,2,1,40,0,0
44123,-100,4,2,1,45,0,0
45449,-133.333333333333,4,2,1,50,0,0
50753,-133.333333333333,4,2,1,45,0,0
53405,-100,4,2,1,55,0,0
55394,-100,4,2,1,40,0,0
55726,-100,4,2,1,55,0,0
58709,-100,4,2,1,70,0,1
68820,-100,4,2,1,60,0,1
69317,-100,4,2,1,70,0,1
79427,-100,4,2,1,60,0,1
79925,-100,4,2,1,70,0,1
90035,-100,4,2,1,60,0,1
90532,-100,4,2,1,70,0,1
98488,-100,4,2,1,60,0,0
99151,-133.333333333333,4,2,1,40,0,0
100146,-100,4,2,1,45,0,0
101140,-100,4,2,1,50,0,0
109427,-100,4,2,1,35,0,0
109593,-100,4,2,1,40,0,0
109759,-100,4,2,1,45,0,0
109925,-100,4,2,1,50,0,0
110090,-100,4,2,1,55,0,0
110256,-100,4,2,1,60,0,0
110422,-100,4,2,1,55,0,0
116389,-100,4,2,1,45,0,0
117052,-100,4,2,1,55,0,0
121029,-100,4,2,1,40,0,0
123681,-100,4,2,1,35,0,0
124344,-100,4,2,1,30,0,0
125007,-100,4,2,1,25,0,0
125670,-100,4,2,1,20,0,0
126333,-100,4,2,1,15,0,0

[Colours]
Combo1 : 62,54,105
Combo2 : 225,218,217
Combo3 : 170,53,53
Combo4 : 250,238,197

[HitObjects]
256,192,367,12,4,2687,0:0:0:0:
336,326,3018,6,0,B|379:313|387:339|437:326,2,97.50000371933,4|0|2,0:1|0:0|0:0,0:0:0:0:
206,256,4013,1,0,0:0:0:0:
264,211,4179,1,4,0:0:0:0:
264,211,4262,1,4,0:0:0:0:
264,211,4344,2,4,B|306:212|325:208|325:208|374:237|417:223,2,146.250005578995,4|6|4,0:1|0:0|0:0,0:0:0:0:
143,127,5670,6,0,B|99:118|76:139|34:130,2,97.50000371933,4|0|2,0:1|0:0|0:0,0:0:0:0:
280,75,6665,1,0,0:0:0:0:
347,47,6831,1,4,0:0:0:0:
347,47,6913,1,4,0:0:0:0:
347,47,6996,2,0,B|384:45|420:56|420:56|441:90|454:134,2,146.250005578995,4|6|4,0:1|0:0|0:0,0:0:0:0:
256,162,8322,5,4,0:1:0:0:
490,336,8985,2,0,B|432:322|397:352|331:331,1,146.250005578995,2|2,0:0|0:0,0:0:0:0:
293,282,9648,1,4,0:1:0:0:
167,208,9980,6,0,L|127:244,1,48.750001859665,2|0,0:0|0:0,0:0:0:0:
94,306,10311,2,0,L|58:273,1,48.750001859665,0|0,0:0|3:0,0:0:0:0:
49,261,10560,1,0,3:0:0:0:
40,249,10643,2,0,B|52:297|52:297|36:356,1,97.50000371933,4|4,0:0|0:1,0:0:0:0:
4,151,11306,6,0,L|17:96,1,48.750001859665,4|4,0:0|0:0,0:0:0:0:
96,119,11637,2,0,L|109:64,1,48.750001859665,4|4,0:0|0:0,0:0:0:0:
187,91,11969,2,0,L|200:36,1,48.750001859665,4|4,0:0|0:0,0:0:0:0:
288,18,12300,6,0,P|349:43|367:113,1,130,4|8,0:1|0:0,0:0:0:0:
439,134,12797,2,0,P|398:174|318:160,1,130,6|2,0:0|0:0,0:0:0:0:
211,136,13295,1,8,0:0:0:0:
211,136,13626,6,0,B|248:188|248:188|236:261,1,130,12|4,0:1|0:0,0:0:0:0:
356,353,14289,2,0,P|434:346|474:301,1,130,6|4,0:0|0:2,0:0:0:0:
401,170,14952,6,0,B|382:142|382:142|389:40,1,130,12|4,0:3|0:0,0:0:0:0:
466,39,15449,2,0,L|462:108,1,65,2|4,0:0|0:0,0:0:0:0:
497,173,15781,1,2,0:0:0:0:
497,173,15947,2,0,L|493:242,1,65,4|0,0:0|0:0,0:0:0:0:
468,311,16278,6,0,B|432:325|432:325|325:309,1,130,12|4,0:1|0:0,0:0:0:0:
279,264,16775,2,0,P|231:266|175:335,2,130,2|2|2,0:0|0:0|0:0,0:0:0:0:
347,158,17604,6,0,L|336:78,1,65,4|2,0:0|0:0,0:0:0:0:
246,63,17936,2,0,L|254:127,1,65,4|2,0:0|0:0,0:0:0:0:
178,193,18267,1,0,1:0:0:0:
112,150,18433,1,0,1:0:0:0:
58,207,18599,2,0,B|50:234|50:234|64:274|64:274|51:312,1,97.5,0|0,1:0|1:0,0:0:0:0:
45,320,18930,6,0,B|98:309|120:343|180:332,1,130,12|4,0:1|0:0,0:0:0:0:
256,320,19427,1,0,0:0:0:0:
339,333,19593,2,0,B|392:343|414:309|467:320,1,130,4|4,0:0|0:0,0:0:0:0:
505,243,20090,1,0,0:0:0:0:
454,165,20256,6,0,P|418:167|382:182,1,65,4|4,0:0|0:0,0:0:0:0:
309,113,20587,2,0,B|321:84|321:84|349:55,1,65,8|4,0:0|0:0,0:0:0:0:
171,57,20919,2,0,P|190:82|203:113,1,65,4|4,0:0|0:0,0:0:0:0:
121,177,21250,2,0,P|60:169|71:108,1,130,8|4,0:0|0:1,0:0:0:0:
467,276,22742,5,0,0:0:0:0:
467,276,22908,2,0,P|399:290|358:352,1,130,2|0,0:0|0:0,0:0:0:0:
287,355,23405,2,0,B|249:344|249:344|196:346|196:346|154:331,1,130,4|4,0:0|0:0,0:0:0:0:
83,347,23902,1,8,0:0:0:0:
195,238,24234,6,0,P|230:193|216:109,1,130,12|0,0:3|0:0,0:0:0:0:
86,50,24897,2,0,L|18:68,2,65,0|0|0,0:0|0:0|0:0,0:0:0:0:
161,29,25394,1,0,0:0:0:0:
161,29,25560,2,0,B|223:20|223:54|298:35,1,130,8|0,0:3|0:0,0:0:0:0:
366,30,26057,2,0,P|396:77|368:157,1,130,8|0,0:3|0:0,0:0:0:0:
378,223,26554,2,0,P|401:245|432:255,1,65,4|0,0:0|0:0,0:0:0:0:
309,183,26886,6,0,B|275:185|275:185|242:199|208:191|208:191|171:195,1,130,12|0,0:3|0:0,0:0:0:0:
114,151,27383,1,0,0:0:0:0:
113,229,27549,2,0,P|99:273|77:299,1,65,0|0,0:0|0:0,0:0:0:0:
160,318,27880,2,0,B|187:339|187:339|232:351,1,65,0|0,0:0|0:0,0:0:0:0:
352,318,28212,6,0,B|325:339|325:339|295:346,1,65,12|0,0:3|0:0,0:0:0:0:
288,268,28543,1,0,0:0:0:0:
288,268,28709,2,0,B|292:175|292:175|315:138,1,130,4|0,0:0|0:0,0:0:0:0:
220,182,29206,2,0,L|216:261,1,65,4|0,0:0|0:0,0:0:0:0:
149,287,29538,6,0,P|75:264|54:211,1,130,8|0,0:3|0:0,0:0:0:0:
94,153,30035,2,0,B|101:120|86:87|86:87|100:51|87:21,2,130,0|0|0,0:0|0:0|0:0,0:0:0:0:
168,84,30864,6,0,B|207:71|207:71|258:80|258:80|303:70,1,130,12|0,0:3|0:0,0:0:0:0:
346,13,31361,2,0,P|371:60|338:136,1,130,4|0,0:0|0:0,0:0:0:0:
277,165,31858,1,4,0:0:0:0:
315,232,32024,1,0,0:0:0:0:
384,196,32190,6,0,B|418:209|418:209|429:263|485:284,2,130,4|0|0,0:0|0:0|0:0,0:0:0:0:
315,232,33018,2,0,L|250:239,1,65,4|0,0:3|0:0,0:0:0:0:
176,213,33350,1,0,0:0:0:0:
176,213,33516,6,0,B|153:153|153:153|165:85,1,130,4|0,0:0|0:0,0:0:0:0:
233,51,34013,1,4,0:0:0:0:
233,51,34179,2,0,P|277:48|304:60,1,65,0|0,0:0|0:0,0:0:0:0:
261,125,34510,2,0,L|258:233,1,97.5,4|0,0:3|0:0,0:0:0:0:
271,243,34842,6,0,P|322:262|346:344,1,130,12|4,0:1|0:0,0:0:0:0:
271,323,35339,1,0,0:0:0:0:
196,300,35505,2,0,P|158:308|126:323,1,65,4|0,0:0|0:0,0:0:0:0:
57,305,35836,2,0,P|34:334|30:368,1,65,4|0,0:0|0:0,0:0:0:0:
106,245,36168,6,0,B|89:165|89:165|112:121,1,130,10|4,0:3|0:0,0:0:0:0:
188,108,36665,2,0,P|156:60|73:58,1,130,2|0,0:0|0:0,0:0:0:0:
167,183,37162,2,0,L|268:199,1,97.5,6|0,0:0|0:0,0:0:0:0:
280,183,37494,6,0,P|318:154|406:175,1,130,12|4,0:3|0:0,0:0:0:0:
347,227,37991,1,0,0:0:0:0:
416,263,38157,2,0,L|493:245,1,65,4|0,0:0|0:0,0:0:0:0:
479,135,38488,2,0,L|416:121,1,65,4|0,0:0|0:0,0:0:0:0:
354,72,38820,5,4,0:0:0:0:
293,120,38985,1,2,0:0:0:0:
293,120,39151,2,0,P|224:105|166:137,1,130,12|4,0:0|0:0,0:0:0:0:
122,190,39648,1,0,0:0:0:0:
94,117,39814,2,0,L|86:49,1,65,4|0,0:0|0:0,0:0:0:0:
15,100,40146,6,0,B|20:151|20:151|39:180|39:180|43:230,1,130,12|4,0:3|0:0,0:0:0:0:
44,302,40643,2,0,L|-10:344,2,65,0|4|0,0:0|0:0|0:0,0:0:0:0:
113,265,41140,2,0,P|151:274|184:295,1,65,4|0,0:0|0:0,0:0:0:0:
259,357,41471,5,10,0:3:0:0:
259,357,41803,2,0,L|334:351,1,65,4|0,0:0|0:0,0:0:0:0:
387,306,42134,2,0,B|430:308|432:332|478:339,2,97.5,4|0|0,0:0|0:0|0:0,0:0:0:0:
329,253,42797,6,0,B|323:203|323:203|333:176|333:176|327:114,1,130,4|4,0:0|0:0,0:0:0:0:
256,64,43295,1,0,0:0:0:0:
183,125,43460,2,0,L|197:200,1,65,4|0,0:0|0:0,0:0:0:0:
146,251,43792,2,0,P|111:261|67:252,1,65,4|8,0:0|0:0,0:0:0:0:
10,228,44123,5,4,0:0:0:0:
27,151,44289,1,4,0:0:0:0:
5,75,44455,2,0,P|63:79|104:154,1,130,8|4,0:0|0:0,0:0:0:0:
87,210,44952,1,8,0:0:0:0:
87,210,45118,2,0,B|102:239|102:239|92:271|109:303|109:303|97:336,1,130,8|4,0:0|0:3,0:0:0:0:
316,310,45947,5,4,0:0:0:0:
275,250,46112,2,0,L|168:261,1,97.50000371933,8|4,0:0|0:0,0:0:0:0:
188,187,46610,2,0,B|245:182|245:182|285:163|335:179,1,146.250005578995,8|0,0:0|0:0,0:0:0:0:
387,225,47273,1,4,0:0:0:0:
440,175,47438,2,0,L|465:72,1,97.50000371933,8|0,0:0|0:0,0:0:0:0:
400,41,47936,1,0,0:0:0:0:
400,41,48101,6,0,B|338:15|317:65|253:40,1,146.250005578995,4|4,0:0|0:0,0:0:0:0:
183,36,48764,2,0,B|161:83|161:83|199:125|175:180,1,146.250005578995,8|4,0:0|0:0,0:0:0:0:
112,140,49427,6,0,L|60:145,1,48.750001859665,4|8,0:0|0:0,0:0:0:0:
22,205,49759,2,0,L|50:263,1,48.750001859665,4|0,0:0|0:0,0:0:0:0:
72,316,50090,2,0,L|124:311,1,48.750001859665,8|4,0:0|0:0,0:0:0:0:
193,301,50422,1,4,0:0:0:0:
333,341,50753,6,0,B|369:360|388:324|429:342,2,97.50000371933,2|0|0,0:3|0:0|3:2,0:0:0:0:
255,216,51748,2,0,B|232:222|225:211|200:216,2,48.750001859665,2|0|4,0:0|0:0|0:3,0:0:0:0:
390,161,52411,1,0,0:0:0:0:
293,51,52742,1,0,3:2:0:0:
293,51,52908,1,0,0:0:0:0:
293,51,53074,2,0,L|220:53,1,73.1250027894975,0|0,0:0|0:0,0:0:0:0:
196,60,53405,6,0,B|180:103|180:103|187:148|187:148|172:189,1,130,10|4,0:3|0:0,0:0:0:0:
82,142,53902,2,0,L|17:124,2,65,8|4|4,0:0|0:0|0:0,0:0:0:0:
91,240,54400,2,0,P|89:278|73:315,1,65,8|4,0:0|0:0,0:0:0:0:
199,258,54731,2,0,B|221:283|221:283|265:298,1,65,4|8,0:0|0:0,0:0:0:0:
303,368,55063,6,0,P|336:325|313:232,1,130,4|8,0:0|0:0,0:0:0:0:
278,182,55560,1,8,0:0:0:0:
278,182,55643,1,8,0:0:0:0:
278,182,55726,2,0,L|283:107,1,65,8|0,0:0|0:0,0:0:0:0:
288,39,56057,5,0,1:0:0:0:
364,25,56223,1,0,1:0:0:0:
211,55,56554,1,0,1:0:0:0:
58,87,56886,1,0,1:0:0:0:
128,132,57052,5,4,0:0:0:0:
128,132,57134,1,4,0:0:0:0:
128,132,57217,2,0,L|139:272,1,130,0|0,1:0|1:0,0:0:0:0:
145,339,57715,1,0,1:0:0:0:
220,355,57880,1,0,0:0:0:0:
213,277,58046,6,0,B|250:267|250:267|294:281|294:281|357:259,1,130,4|0,0:3|1:0,0:0:0:0:
357,353,58543,1,0,1:0:0:0:
357,353,58626,1,0,1:0:0:0:
357,353,58709,6,0,P|396:351|436:369,1,65,12|0,0:1|0:0,0:0:0:0:
490,324,59041,2,0,P|511:267|487:197,1,130,8|6,0:0|0:0,0:0:0:0:
435,148,59538,1,4,0:0:0:0:
392,82,59704,2,0,P|424:69|463:75,1,65,8|0,0:0|0:0,0:0:0:0:
323,39,60035,6,0,P|284:57|251:58,1,65,4|4,0:0|0:0,0:0:0:0:
189,86,60366,2,0,B|169:137|218:158|203:214,1,130,8|4,0:0|0:0,0:0:0:0:
153,271,60864,1,2,0:0:0:0:
126,198,61029,2,0,P|89:177|46:170,1,65,8|0,0:0|0:0,0:0:0:0:
203,211,61361,6,0,P|252:203|279:126,1,130,10|8,0:3|0:0,0:0:0:0:
353,105,61858,1,2,0:0:0:0:
293,53,62024,2,0,L|211:48,2,65,4|6|8,0:0|0:0|0:0,0:0:0:0:
368,31,62521,6,0,P|419:67|416:148,1,130,4|4,0:3|0:0,0:0:0:0:
401,215,63018,2,0,L|343:247,1,65,8|0,0:0|0:0,0:0:0:0:
256,226,63350,2,0,L|256:295,1,65,6|4,0:0|0:0,0:0:0:0:
167,246,63681,2,0,L|111:215,1,65,8|0,0:0|0:0,0:0:0:0:
44,156,64013,6,0,P|22:197|51:282,1,130,12|8,0:1|0:0,0:0:0:0:
208,364,64676,1,6,0:0:0:0:
256,302,64842,1,4,0:0:0:0:
304,364,65007,2,0,B|368:355|368:355|400:339|411:303,1,130,8|4,0:0|0:0,0:0:0:0:
371,238,65505,5,6,0:0:0:0:
371,238,65670,2,0,P|360:189|368:152,1,65,8|0,0:0|0:0,0:0:0:0:
462,103,66002,2,0,P|473:152|465:189,1,65,12|0,0:3|0:0,0:0:0:0:
375,90,66333,2,0,L|270:85,1,97.5,8|0,0:0|0:0,0:0:0:0:
261,68,66665,6,0,P|228:102|136:93,1,130,10|8,0:3|0:0,0:0:0:0:
189,35,67162,2,0,P|126:28|77:69,1,130,2|6,0:0|0:0,0:0:0:0:
31,155,67659,1,8,0:0:0:0:
31,155,67825,2,0,B|54:183|54:183|66:283,1,130,4|2,0:3|0:0,0:0:0:0:
72,353,68322,1,8,0:0:0:0:
238,252,68654,5,4,0:0:0:0:
181,197,68820,1,0,1:0:0:0:
181,197,68902,1,0,1:0:0:0:
181,197,68985,2,0,L|171:122,1,65,0|0,1:0|1:0,0:0:0:0:
218,69,69317,6,0,P|263:42|350:66,1,130,12|8,0:1|0:0,0:0:0:0:
286,119,69814,1,0,0:0:0:0:
363,129,69980,2,0,L|434:133,1,65,6|4,0:0|0:0,0:0:0:0:
419,245,70311,2,0,L|348:241,1,65,8|0,0:0|0:0,0:0:0:0:
275,313,70643,5,12,0:3:0:0:
275,313,70808,1,0,0:0:0:0:
275,313,70974,2,0,B|215:300|214:357|147:339,1,130,8|10,0:0|0:3,0:0:0:0:
86,274,71471,1,4,0:0:0:0:
149,195,71637,2,0,L|159:99,1,97.5,8|0,0:0|0:0,0:0:0:0:
148,81,71969,6,0,B|211:96|211:96|275:78,1,130,10|8,0:3|0:0,0:0:0:0:
340,119,72466,1,0,0:0:0:0:
274,161,72632,2,0,P|263:193|267:227,1,65,6|4,0:0|0:0,0:0:0:0:
319,342,72963,2,0,P|330:310|326:276,1,65,8|0,0:0|0:0,0:0:0:0:
248,301,73295,6,0,B|200:296|200:296|161:307|161:307|96:299,1,130,12|8,0:3|0:0,0:0:0:0:
53,342,73792,1,2,0:0:0:0:
10,276,73958,2,0,L|3:203,1,65,4|6,0:0|0:0,0:0:0:0:
57,154,74289,2,0,P|102:141|128:92,1,97.5,8|0,0:0|0:0,0:0:0:0:
142,81,74621,6,0,L|129:220,1,130,12|8,0:1|0:0,0:0:0:0:
196,250,75118,1,0,0:0:0:0:
269,224,75284,2,0,P|280:191|274:155,1,65,6|4,0:0|0:0,0:0:0:0:
215,112,75615,1,8,0:0:0:0:
256,46,75781,1,0,0:0:0:0:
317,94,75947,6,0,P|361:113|388:110,1,65,8|4,0:0|0:0,0:0:0:0:
433,58,76278,2,0,P|454:94|451:143,1,65,8|0,0:0|0:0,0:0:0:0:
429,193,76610,1,4,0:0:0:0:
429,193,76775,1,4,0:0:0:0:
359,229,76941,1,8,0:0:0:0:
359,229,77273,6,0,B|379:314|379:314|357:357,1,130,10|8,0:3|0:0,0:0:0:0:
298,303,77770,1,0,0:0:0:0:
298,303,77936,2,0,P|260:315|233:339,1,65,6|4,0:0|0:0,0:0:0:0:
268,222,78267,1,8,0:0:0:0:
268,222,78433,6,0,P|206:196|198:137,1,130,12|4,0:3|0:0,0:0:0:0:
218,64,78930,2,0,B|184:58|155:74|155:74|119:61|85:72,1,130,8|4,0:0|0:0,0:0:0:0:
20,125,79427,1,0,1:0:0:0:
20,125,79510,1,0,1:0:0:0:
20,125,79593,2,0,L|37:188,1,65,0|0,1:0|1:0,0:0:0:0:
108,231,79925,6,0,B|116:268|116:268|125:322|77:347,1,130,12|8,0:1|0:0,0:0:0:0:
38,279,80422,1,0,0:0:0:0:
38,279,80587,2,0,L|-9:336,1,65,6|0,0:0|0:0,0:0:0:0:
108,231,80919,2,0,P|172:232|213:291,1,130,8|4,0:0|0:0,0:0:0:0:
255,344,81416,5,4,0:0:0:0:
300,280,81582,2,0,P|341:231|404:231,1,130,8|4,0:0|0:0,0:0:0:0:
449,294,82079,1,6,0:0:0:0:
495,231,82245,2,0,L|505:161,1,65,8|0,0:0|0:0,0:0:0:0:
483,49,82576,6,0,B|440:57|430:99|430:99|420:156,1,130,4|8,0:0|0:0,0:0:0:0:
350,116,83074,1,2,0:0:0:0:
350,116,83239,2,0,L|271:140,1,65,4|6,0:0|0:0,0:0:0:0:
256,220,83571,1,8,0:0:0:0:
226,305,83737,6,0,P|182:271|176:189,1,130,0|2,0:0|0:0,0:0:0:0:
172,114,84234,2,0,L|79:86,1,97.5,8|0,0:0|0:0,0:0:0:0:
62,98,84565,2,0,P|74:139|65:175,1,65,12|4,0:3|0:0,0:0:0:0:
22,222,84897,1,8,0:0:0:0:
45,296,85063,1,0,0:0:0:0:
122,303,85228,6,0,B|173:311|173:311|200:331|200:331|253:343,1,130,10|8,0:3|0:0,0:0:0:0:
309,297,85726,1,0,0:0:0:0:
256,240,85891,1,6,0:0:0:0:
294,171,86057,1,4,0:0:0:0:
371,180,86223,2,0,P|421:192|460:184,1,65,8|0,0:0|0:0,0:0:0:0:
337,104,86554,6,0,P|360:68|362:32,1,65,12|0,0:3|0:0,0:0:0:0:
283,44,86886,2,0,B|234:50|234:50|203:70|203:70|145:77,1,130,8|6,0:0|0:0,0:0:0:0:
86,48,87383,1,4,0:0:0:0:
86,48,87549,2,0,P|68:98|16:112,1,97.5,8|0,0:0|0:0,0:0:0:0:
17,130,87880,5,10,0:3:0:0:
143,221,88212,1,8,0:0:0:0:
68,245,88378,2,0,P|49:279|55:321,1,65,2|4,0:0|0:0,0:0:0:0:
116,344,88709,1,2,0:0:0:0:
186,310,88875,1,8,0:0:0:0:
258,339,89041,6,0,B|301:357|345:326|345:326|385:333,1,130,4|0,0:3|0:0,0:0:0:0:
460,332,89538,2,0,P|496:292|475:212,1,130,8|8,0:0|0:0,0:0:0:0:
406,173,90035,1,8,0:0:0:0:
406,173,90118,1,8,0:0:0:0:
406,173,90201,2,0,L|332:159,1,65,8|8,0:0|0:0,0:0:0:0:
222,203,90532,6,0,B|267:212|267:212|294:236|294:236|350:249,1,130,12|8,0:1|0:0,0:0:0:0:
222,283,91029,1,0,0:0:0:0:
222,283,91195,2,0,P|192:306|177:332,1,65,6|4,0:0|0:0,0:0:0:0:
93,349,91527,2,0,P|56:334|27:310,1,65,8|0,0:0|0:0,0:0:0:0:
119,240,91858,5,4,0:0:0:0:
119,240,92024,1,0,0:0:0:0:
119,240,92190,2,0,P|138:182|96:117,1,130,8|10,0:0|0:3,0:0:0:0:
41,81,92687,1,6,0:0:0:0:
41,81,92853,2,0,P|103:98|162:56,1,130,8|12,0:0|0:3,0:0:0:0:
355,65,93516,6,0,P|395:91|425:95,1,65,8|0,0:0|0:0,0:0:0:0:
496,86,93847,2,0,L|512:165,1,65,6|4,0:0|0:0,0:0:0:0:
508,235,94179,2,0,L|496:299,1,65,8|0,0:0|0:0,0:0:0:0:
395,341,94510,5,10,0:3:0:0:
414,264,94676,1,0,3:0:0:0:
334,288,94842,2,0,P|310:261|299:223,1,65,8|0,0:0|3:0,0:0:0:0:
178,288,95173,2,0,P|202:261|213:223,1,65,8|8,3:3|3:0,0:0:0:0:
256,352,95505,1,0,1:3:0:0:
256,352,95836,6,0,B|209:360|209:360|165:376|121:351,1,130,12|4,0:3|0:0,0:0:0:0:
64,311,96333,1,0,0:0:0:0:
64,311,96499,2,0,L|47:242,1,65,4|0,0:0|0:0,0:0:0:0:
81,176,96831,1,4,0:0:0:0:
153,204,96996,1,0,0:0:0:0:
140,126,97162,6,0,P|178:128|215:153,1,65,4|0,0:0|0:0,0:0:0:0:
256,196,97494,1,4,0:0:0:0:
310,140,97659,1,0,0:0:0:0:
310,140,97742,1,0,0:0:0:0:
310,140,97825,2,0,P|339:126|372:126,1,65,4|0,0:0|0:0,0:0:0:0:
256,79,98157,1,0,3:0:0:0:
256,256,98488,6,0,B|319:281|328:232|403:264,1,130,4|0,0:1|0:0,0:0:0:0:
213,357,99151,2,0,B|150:332|141:381|49:350,1,146.250005578995,0|0,0:0|0:0,0:0:0:0:
2,325,99814,5,2,0:3:0:0:
116,100,100311,1,0,1:0:0:0:
116,100,100394,1,0,1:0:0:0:
116,100,100477,2,0,L|189:115,1,65,0|0,1:0|1:0,0:0:0:0:
268,133,100808,1,0,1:0:0:0:
268,133,101140,6,0,B|314:112|345:153|399:134,2,130,12|2|8,0:1|0:0|0:0,0:0:0:0:
176,259,102134,1,2,0:0:0:0:
102,231,102300,1,0,3:0:0:0:
102,231,102383,1,0,3:0:0:0:
102,231,102466,6,0,L|94:92,1,130,4|0,0:0|0:0,0:0:0:0:
80,24,102963,2,0,P|32:52|21:126,1,130,2|0,0:0|0:0,0:0:0:0:
7,198,103460,2,0,L|28:311,1,97.5,8|0,0:0|0:0,0:0:0:0:
51,312,103792,6,0,B|108:336|121:290|183:318,2,130,12|2|8,0:1|0:0|0:0,0:0:0:0:
257,312,104786,1,2,0:0:0:0:
302,248,104952,1,0,3:0:0:0:
302,248,105035,1,0,3:0:0:0:
302,248,105118,6,0,B|356:239|356:239|382:220|382:220|441:208,1,130,4|0,0:0|0:0,0:0:0:0:
453,283,105615,2,0,P|491:251|484:162,1,130,2|0,0:0|0:0,0:0:0:0:
410,84,106112,1,8,0:0:0:0:
410,84,106444,6,0,B|333:40|300:133|208:73,1,195,4|0,0:1|0:0,0:0:0:0:
153,44,107107,1,2,0:0:0:0:
17,234,107604,1,2,0:0:0:0:
68,292,107770,6,0,P|94:243|63:169,1,130,4|2,0:1|0:0,0:0:0:0:
10,126,108267,1,0,0:0:0:0:
83,100,108433,1,4,0:0:0:0:
155,152,108599,1,0,3:0:0:0:
155,152,108681,1,0,3:0:0:0:
155,152,108764,2,0,P|201:172|256:163,1,97.5,4|0,0:0|0:0,0:0:0:0:
265,145,109096,6,0,B|256:191|256:191|265:229|265:229|254:289,1,130,12|4,0:1|0:0,0:0:0:0:
301,336,109593,1,4,0:0:0:0:
375,311,109759,2,0,L|454:286,1,65,4|4,0:0|0:0,0:0:0:0:
512,192,110090,2,0,L|448:192,1,65,4|4,0:0|0:0,0:0:0:0:
436,92,110422,6,0,B|394:80|394:80|341:83|341:83|296:71,1,130,4|8,0:1|0:0,0:0:0:0:
256,131,110919,2,0,P|230:83|259:12,1,130,6|2,0:0|0:0,0:0:0:0:
134,70,111416,1,8,0:0:0:0:
134,70,111748,6,0,B|96:124|96:124|26:144,1,130,4|4,0:0|0:0,0:0:0:0:
9,295,112411,2,0,P|45:344|122:349,1,130,6|4,0:0|0:0,0:0:0:0:
252,289,113074,6,0,B|275:246|275:246|263:147,1,130,12|4,0:3|0:0,0:0:0:0:
190,155,113571,2,0,L|201:239,1,65,2|4,0:0|0:0,0:0:0:0:
132,268,113902,1,2,0:0:0:0:
132,268,114068,2,0,L|121:184,1,65,4|0,0:0|0:0,0:0:0:0:
120,118,114400,6,0,P|154:85|252:110,1,130,12|4,0:1|0:0,0:0:0:0:
306,68,114897,2,0,B|365:76|365:76|394:51|438:57,2,130,2|2|2,0:0|0:0|0:0,0:0:0:0:
415,134,115726,6,0,L|493:149,1,65,4|2,0:0|0:0,0:0:0:0:
478,237,116057,2,0,L|415:250,1,65,4|2,0:0|0:0,0:0:0:0:
352,192,116389,1,0,1:0:0:0:
352,192,116554,1,0,1:0:0:0:
352,192,116720,2,0,L|249:175,1,97.5,0|0,1:0|0:0,0:0:0:0:
236,159,117052,6,0,P|210:136|104:144,1,130,12|4,0:1|0:0,0:0:0:0:
67,192,117549,1,0,0:0:0:0:
119,249,117715,2,0,B|161:266|161:266|185:295|185:295|242:317,1,130,4|4,0:0|0:0,0:0:0:0:
296,271,118212,1,0,0:0:0:0:
372,285,118378,6,0,P|403:313|419:355,1,65,4|4,0:0|0:0,0:0:0:0:
406,194,118709,2,0,B|441:188|441:188|474:168,1,65,8|4,0:0|0:0,0:0:0:0:
372,99,119041,2,0,P|395:73|404:45,1,65,4|4,0:0|0:0,0:0:0:0:
272,54,119372,2,0,P|239:81|285:136,1,130,8|4,0:0|0:1,0:0:0:0:
109,340,120864,5,0,0:0:0:0:
61,278,121029,2,0,B|39:222|86:211|62:150,1,130,4|0,0:3|0:0,0:0:0:0:
0,103,121527,2,0,P|52:73|127:104,1,130,4|4,0:0|0:0,0:0:0:0:
167,150,122024,1,4,0:0:0:0:
256,288,122355,1,4,0:1:0:0:
256,192,122438,12,4,126665,0:3:0:0:
