osu file format v14

[General]
AudioFilename: audio.mp3
AudioLeadIn: 0
PreviewTime: 57799
Countdown: 0
SampleSet: Soft
StackLeniency: 0.7
Mode: 0
LetterboxInBreaks: 0
WidescreenStoryboard: 1

[Editor]
DistanceSpacing: 0.4
BeatDivisor: 4
GridSize: 32
TimelineZoom: 0.9

[Metadata]
Title:Sakura, Reincarnation
TitleUnicode:さくら、Reincarnation
Artist:Sasaki Sayaka
ArtistUnicode:佐咲紗花
Creator:Flower
Version:Extra
Source:さくら、もゆ。-as the Night's, Reincarnation-
Tags:Sakura, Moyu. as the Night's, Reincarnation 山本美禰子 Yamamoto Mineko 石倉誉之 Ishikura Takashi 小高光太郎 Kodaka Koutarou favorite opening galgame KaedekaShizuru xLolicore- Kencho
BeatmapID:1863992
BeatmapSetID:884081

[Difficulty]
HPDrainRate:7
CircleSize:4
OverallDifficulty:8.7
ApproachRate:9.4
SliderMultiplier:1.8
SliderTickRate:1

[Events]
//Background and Video events
0,0,"bg01.jpg",0,0
Video,0,"bgv.flv"
//Break Periods
//Storyboard Layer 0 (Background)
//Storyboard Layer 1 (Fail)
//Storyboard Layer 2 (Pass)
//Storyboard Layer 3 (Foreground)
//Storyboard Sound Samples

[TimingPoints]
367,331.491712707182,4,2,1,50,1,0
367,-133.333333333333,4,2,1,50,0,0
11306,-133.333333333333,4,2,1,35,0,0
11471,-133.333333333333,4,2,1,40,0,0
11637,-133.333333333333,4,2,1,45,0,0
11803,-133.333333333333,4,2,1,50,0,0
11969,-133.333333333333,4,2,1,55,0,0
12134,-133.333333333333,4,2,1,60,0,0
12300,-100,4,2,1,50,0,0
18267,-100,4,2,1,40,0,0
18930,-100,4,2,1,50,0,0
21582,-200,4,2,1,50,0,0
22742,-100,4,2,1,40,0,0
24234,-133.333333333333,4,2,1,35,0,0
34842,-100,4,2,1,40,0,0
44123,-100,4,2,1,45,0,0
45449,-133.333333333333,4,2,1,50,0,0
50753,-200,4,2,1,45,0,0
53405,-100,4,2,1,55,0,0
55394,-100,4,2,1,40,0,0
55726,-100,4,2,1,55,0,0
58709,-100,4,2,1,70,0,1
68820,-100,4,2,1,60,0,1
69317,-100,4,2,1,70,0,1
79427,-100,4,2,1,60,0,1
79925,-100,4,2,1,70,0,1
90035,-100,4,2,1,60,0,1
90532,-100,4,2,1,70,0,1
98488,-200,4,2,1,60,0,0
99151,-133.333333333333,4,2,1,40,0,0
100146,-133.333333333333,4,2,1,45,0,0
101140,-133.333333333333,4,2,1,50,0,0
109427,-133.333333333333,4,2,1,35,0,0
109593,-100,4,2,1,40,0,0
109759,-100,4,2,1,45,0,0
109925,-100,4,2,1,50,0,0
110090,-100,4,2,1,55,0,0
110256,-100,4,2,1,60,0,0
110422,-100,4,2,1,55,0,0
116389,-100,4,2,1,45,0,0
117052,-100,4,2,1,55,0,0
121029,-100,4,2,1,40,0,0
123681,-100,4,2,1,35,0,0
124344,-100,4,2,1,30,0,0
125007,-100,4,2,1,25,0,0
125670,-100,4,2,1,20,0,0
126333,-100,4,2,1,15,0,0

[Colours]
Combo1 : 62,54,105
Combo2 : 225,218,217
Combo3 : 170,53,53
Combo4 : 250,238,197

[HitObjects]
256,192,367,12,0,2521,0:0:0:0:
256,192,2687,5,4,0:0:0:0:
195,115,2853,1,0,0:0:0:0:
195,115,2936,1,0,0:0:0:0:
195,115,3018,2,0,B|134:138|114:95|52:122,1,135.000005149842,4|0,0:1|0:0,0:0:0:0:
94,190,3516,1,0,0:0:0:0:
195,115,3681,2,0,P|206:72|196:36,1,67.5000025749208,2|0,0:0|0:0,0:0:0:0:
94,190,4013,2,0,P|83:233|93:269,1,67.5000025749208,0|4,0:0|0:0,0:0:0:0:
96,265,4262,1,4,0:0:0:0:
104,272,4344,6,0,P|55:250|29:318,1,135.000005149842,4|0,0:1|0:0,0:0:0:0:
242,204,4842,2,0,P|245:134|236:38,1,135.000005149842,6|0,0:0|0:0,0:0:0:0:
194,289,5339,2,0,P|243:291|301:303,1,101.250003862381,4|0,0:0|0:0,0:0:0:0:
483,216,5670,6,0,B|424:203|419:238|346:227,1,135.000005149842,4|0,0:1|0:0,0:0:0:0:
368,149,6168,1,0,0:0:0:0:
294,301,6333,2,0,P|303:336|294:371,1,67.5000025749208,2|0,0:0|0:0,0:0:0:0:
291,106,6665,2,0,P|282:71|291:36,1,67.5000025749208,0|4,0:0|0:0,0:0:0:0:
299,33,6913,1,4,0:0:0:0:
310,25,6996,6,0,P|240:42|163:55,1,135.000005149842,4|0,0:1|0:0,0:0:0:0:
181,175,7494,2,0,P|120:148|32:123,1,135.000005149842,6|0,0:0|0:0,0:0:0:0:
218,252,7991,2,0,P|176:276|140:323,1,101.250003862381,4|0,0:0|0:0,0:0:0:0:
158,341,8322,1,4,0:1:0:0:
370,190,8985,1,2,0:0:0:0:
80,33,9483,1,2,0:0:0:0:
154,80,9648,6,0,B|172:182,1,101.250003862381,4|0,0:1|0:0,0:0:0:0:
182,197,9980,2,0,P|146:188|97:197,1,67.5000025749208,2|0,0:0|0:0,0:0:0:0:
164,330,10311,1,0,0:0:0:0:
250,286,10477,1,0,3:0:0:0:
250,286,10560,1,0,3:0:0:0:
250,286,10643,2,0,P|284:252|282:193,1,101.250003862381,4|0,0:0|0:0,0:0:0:0:
279,177,10974,5,4,0:1:0:0:
382,208,11140,1,0,0:0:0:0:
253,102,11306,1,4,0:0:0:0:
394,129,11471,1,4,0:0:0:0:
197,222,11637,5,4,0:0:0:0:
352,58,11803,1,4,0:0:0:0:
367,302,11969,1,4,0:0:0:0:
277,19,12134,1,4,0:0:0:0:
288,320,12300,6,0,P|226:325|97:341,1,180,4|8,0:1|0:0,0:0:0:0:
251,212,12797,2,0,P|302:169|423:115,1,180,6|2,0:0|0:0,0:0:0:0:
117,60,13295,1,8,0:0:0:0:
117,60,13626,6,0,L|99:160,1,90,12|0,0:1|0:0,0:0:0:0:
74,243,13958,2,0,L|-3:177,1,90,4|0,0:0|0:0,0:0:0:0:
169,213,14289,2,0,L|151:313,1,90,6|0,0:0|0:0,0:0:0:0:
220,132,14621,2,0,L|306:91,1,90,4|0,0:2|0:0,0:0:0:0:
494,144,14952,6,0,P|441:188|324:152,1,180,12|4,0:3|0:0,0:0:0:0:
153,301,15449,2,0,B|214:299|214:299|268:315|268:315|343:311,1,180,2|2,0:0|0:0,0:0:0:0:
242,199,15947,2,0,L|217:104,1,90,4|0,0:0|0:0,0:0:0:0:
135,103,16278,6,0,P|169:45|283:52,1,180,12|4,0:1|0:0,0:0:0:0:
99,203,16775,1,2,0:0:0:0:
0,182,16941,2,0,L|89:192,1,90,4|2,0:0|0:0,0:0:0:0:
204,205,17273,1,4,0:0:0:0:
77,288,17438,1,2,0:0:0:0:
222,353,17604,5,4,0:0:0:0:
171,88,17770,1,2,0:0:0:0:
340,217,17936,1,4,0:0:0:0:
158,292,18101,1,2,0:0:0:0:
293,147,18267,5,0,1:0:0:0:
289,292,18433,1,0,1:0:0:0:
155,200,18599,1,0,1:0:0:0:
155,200,18681,1,0,1:0:0:0:
155,200,18764,1,0,1:0:0:0:
155,200,18847,1,0,1:0:0:0:
155,200,18930,5,12,0:1:0:0:
289,292,19096,1,0,0:0:0:0:
180,283,19262,1,4,0:0:0:0:
315,211,19427,1,0,0:0:0:0:
220,109,19593,1,4,0:0:0:0:
289,292,19759,1,0,0:0:0:0:
370,69,19925,1,4,0:0:0:0:
360,329,20090,1,0,0:0:0:0:
225,243,20256,5,4,0:0:0:0:
465,281,20422,1,4,0:0:0:0:
370,69,20587,1,8,0:0:0:0:
239,332,20753,1,4,0:0:0:0:
485,164,20919,1,4,0:0:0:0:
212,34,21085,1,4,0:0:0:0:
239,332,21250,1,8,0:0:0:0:
239,332,21582,6,0,B|220:306|217:287|217:287|215:258|226:231|226:231|254:237|277:254|277:254|297:273|304:297|304:297|344:289|367:285|377:287|377:287|373:305|365:322,1,315,4|0,0:1|0:0,0:0:0:0:
344,207,22908,5,2,0:0:0:0:
340,189,22991,1,0,0:0:0:0:
336,171,23074,1,0,0:0:0:0:
332,153,23157,1,0,0:0:0:0:
328,135,23239,1,0,0:0:0:0:
325,117,23322,1,0,0:0:0:0:
322,99,23405,2,0,P|273:60|248:146,1,180,4|4,0:0|0:0,0:0:0:0:
211,343,23902,2,0,B|217:286|179:271|189:205,1,135,8|0,0:0|0:0,0:0:0:0:
170,195,24234,6,0,L|34:181,1,135.000005149842,12|0,0:3|0:0,0:0:0:0:
140,96,24731,1,0,0:0:0:0:
140,96,24897,2,0,P|167:65|180:29,1,67.5000025749208,0|0,0:0|0:0,0:0:0:0:
222,141,25228,2,0,P|269:148|299:159,1,67.5000025749208,0|0,0:0|0:0,0:0:0:0:
253,244,25560,6,0,P|307:235|409:232,1,135.000005149842,8|0,0:3|0:0,0:0:0:0:
370,143,26057,2,0,P|398:88|366:14,1,135.000005149842,8|0,0:3|0:0,0:0:0:0:
227,37,26554,2,0,P|277:29|317:31,1,67.5000025749208,4|0,0:0|0:0,0:0:0:0:
157,107,26886,6,0,P|103:112|1:101,1,135.000005149842,12|0,0:3|0:0,0:0:0:0:
93,215,27383,1,0,0:0:0:0:
174,197,27549,2,0,P|214:204|252:222,1,67.5000025749208,0|0,0:0|0:0,0:0:0:0:
93,332,27880,1,0,0:0:0:0:
66,229,28046,1,0,0:0:0:0:
124,313,28212,6,0,P|172:315|277:333,1,135.000005149842,12|0,0:3|0:0,0:0:0:0:
470,269,28709,2,0,P|421:267|329:255,1,135.000005149842,4|0,0:0|0:0,0:0:0:0:
323,97,29206,2,0,P|345:143|353:176,1,67.5000025749208,4|0,0:0|0:0,0:0:0:0:
246,87,29538,6,0,P|264:43|358:31,1,135.000005149842,8|0,0:3|0:0,0:0:0:0:
402,80,30035,1,0,0:0:0:0:
248,170,30201,2,0,P|218:178|169:184,1,67.5000025749208,0|0,0:0|0:0,0:0:0:0:
270,260,30532,2,0,P|275:300|288:338,1,67.5000025749208,0|0,0:0|0:0,0:0:0:0:
41,284,30864,6,0,P|117:276|182:275,1,135.000005149842,12|0,0:3|0:0,0:0:0:0:
369,261,31361,2,0,P|376:207|376:111,1,135.000005149842,4|0,0:0|0:0,0:0:0:0:
430,317,31858,1,4,0:0:0:0:
293,189,32024,1,0,0:0:0:0:
221,240,32190,6,0,P|142:246|68:247,1,135.000005149842,4|0,0:0|0:0,0:0:0:0:
24,177,32687,1,0,0:0:0:0:
134,91,32853,2,0,P|142:51|144:15,1,67.5000025749208,0|4,0:0|0:3,0:0:0:0:
211,173,33184,2,0,P|219:218|220:247,1,67.5000025749208,0|0,0:0|0:0,0:0:0:0:
309,344,33516,6,0,P|406:340|467:345,1,135.000005149842,4|0,0:0|0:0,0:0:0:0:
379,245,34013,1,4,0:0:0:0:
462,124,34179,1,0,0:0:0:0:
303,219,34344,1,0,0:0:0:0:
294,24,34510,1,4,0:3:0:0:
294,24,34842,6,0,B|355:19|355:19|411:42|411:42|473:38,1,180,12|4,0:1|0:0,0:0:0:0:
336,115,35339,1,0,0:0:0:0:
237,99,35505,2,0,L|143:104,1,90,4|0,0:0|0:0,0:0:0:0:
275,285,35836,2,0,L|369:280,1,90,4|0,0:0|0:0,0:0:0:0:
216,370,36168,6,0,P|178:325|208:205,1,180,10|4,0:3|0:0,0:0:0:0:
131,122,36665,2,0,P|84:95|36:98,1,90,2|4,0:0|0:0,0:0:0:0:
61,195,36996,1,0,0:0:0:0:
233,125,37162,1,6,0:0:0:0:
211,298,37328,1,0,0:0:0:0:
375,233,37494,6,0,P|417:182|382:59,1,180,12|4,0:3|0:0,0:0:0:0:
500,330,37991,2,0,L|397:320,1,90,0|4,0:0|0:0,0:0:0:0:
235,137,38322,1,0,0:0:0:0:
310,67,38488,2,0,L|413:77,1,90,4|0,0:0|0:0,0:0:0:0:
238,223,38820,5,4,0:0:0:0:
194,62,38985,1,2,0:0:0:0:
158,271,39151,1,12,0:0:0:0:
169,137,39317,1,0,0:0:0:0:
282,219,39483,1,4,0:0:0:0:
75,246,39648,1,0,0:0:0:0:
256,321,39814,2,0,P|305:330|351:346,1,90,4|0,0:0|0:0,0:0:0:0:
42,239,40146,6,0,P|36:168|36:43,1,180,12|4,0:3|0:0,0:0:0:0:
122,201,40643,1,0,0:0:0:0:
286,241,40808,2,0,P|232:247|190:255,1,90,4|0,0:0|0:0,0:0:0:0:
141,325,41140,1,4,0:0:0:0:
217,95,41306,1,0,0:0:0:0:
117,308,41471,6,0,P|72:314|24:324,1,90,10|0,0:3|0:0,0:0:0:0:
198,241,41803,2,0,P|260:235|355:233,1,135,4|0,0:0|0:0,0:0:0:0:
347,216,42134,1,4,0:0:0:0:
111,194,42300,1,0,0:0:0:0:
111,194,42383,1,0,0:0:0:0:
111,194,42466,1,12,0:3:0:0:
111,194,42797,5,4,0:0:0:0:
268,149,42963,1,0,0:0:0:0:
161,273,43129,1,4,0:0:0:0:
327,317,43295,1,0,0:0:0:0:
201,90,43460,5,4,0:0:0:0:
248,350,43626,1,0,0:0:0:0:
444,180,43792,1,4,0:0:0:0:
201,90,43958,1,8,0:0:0:0:
351,345,44123,5,4,0:0:0:0:
300,45,44289,1,4,0:0:0:0:
82,219,44455,1,8,0:0:0:0:
422,181,44621,5,4,0:0:0:0:
137,72,44786,1,4,0:0:0:0:
180,347,44952,1,8,0:0:0:0:
422,181,45118,1,8,0:0:0:0:
422,181,45449,6,0,P|355:195|268:199,1,135.000005149842,4|0,0:3|0:0,0:0:0:0:
113,161,45947,1,4,0:0:0:0:
213,135,46112,2,0,P|223:94|222:53,1,67.5000025749208,8|0,0:0|0:0,0:0:0:0:
190,232,46444,1,4,0:0:0:0:
145,316,46610,1,8,0:0:0:0:
122,324,47107,5,0,0:0:0:0:
36,269,47273,1,4,0:0:0:0:
230,296,47438,2,0,P|271:292|312:298,1,67.5000025749208,8|0,0:0|0:0,0:0:0:0:
489,331,47770,1,0,0:0:0:0:
468,313,48101,6,0,P|463:272|461:164,1,135.000005149842,4|0,0:0|0:0,0:0:0:0:
388,29,48599,1,4,0:0:0:0:
487,33,48764,2,0,P|497:78|499:125,1,67.5000025749208,8|0,0:0|0:0,0:0:0:0:
321,197,49096,1,0,0:0:0:0:
399,56,49262,1,4,0:0:0:0:
208,199,49427,5,4,0:0:0:0:
325,177,49593,1,8,0:0:0:0:
301,67,49759,1,4,0:0:0:0:
251,272,49925,1,0,0:0:0:0:
107,115,50090,5,8,0:0:0:0:
325,177,50256,1,4,0:0:0:0:
152,313,50422,1,4,0:0:0:0:
152,313,50753,6,0,P|100:311|56:319,1,90,2|0,0:3|0:0,0:0:0:0:
288,339,51416,1,0,3:2:0:0:
288,339,51748,2,0,P|319:337|347:338,1,45,2|0,0:0|0:0,0:0:0:0:
196,219,52079,1,4,0:3:0:0:
196,219,52411,2,0,P|217:188|225:148,1,67.5,0|0,0:0|0:0,0:0:0:0:
216,136,52742,2,0,P|201:99|187:80,1,45,0|0,3:2|0:0,0:0:0:0:
311,153,53074,2,0,P|344:153|376:155,1,45,0|0,0:0|0:0,0:0:0:0:
102,273,53405,5,10,0:3:0:0:
334,344,53571,1,4,0:0:0:0:
279,107,53737,1,4,0:0:0:0:
443,110,53902,5,8,0:0:0:0:
266,276,54068,1,4,0:0:0:0:
211,39,54234,1,4,0:0:0:0:
357,263,54400,5,8,0:0:0:0:
85,310,54565,1,4,0:0:0:0:
314,183,54731,1,4,0:0:0:0:
42,81,54897,1,8,0:0:0:0:
306,94,55063,5,4,0:0:0:0:
37,195,55228,1,8,0:0:0:0:
268,357,55394,1,8,0:0:0:0:
179,239,55560,1,8,0:0:0:0:
179,239,55643,1,8,0:0:0:0:
179,239,55726,2,0,L|168:97,1,135,8|0,0:0|0:0,0:0:0:0:
155,79,56057,5,0,1:0:0:0:
242,304,56223,1,0,1:0:0:0:
231,318,56554,1,0,1:0:0:0:
221,333,56886,1,0,1:0:0:0:
403,292,57052,1,4,0:0:0:0:
403,292,57134,1,4,0:0:0:0:
403,292,57217,2,0,P|440:321|372:353,1,135,0|0,1:0|0:0,0:0:0:0:
342,348,57549,5,0,1:0:0:0:
404,39,57715,1,0,1:0:0:0:
272,46,57880,6,0,P|298:61|319:65,1,45
418,151,58046,2,0,P|398:135|370:123,1,45,4|0,0:3|0:0,0:0:0:0:
175,35,58212,1,0,1:0:0:0:
137,30,58295,1,0,1:0:0:0:
102,41,58378,1,0,1:0:0:0:
73,65,58460,1,0,1:0:0:0:
56,98,58543,1,0,1:0:0:0:
54,135,58626,1,0,1:0:0:0:
66,170,58709,6,0,L|167:180,1,90,12|0,0:1|0:0,0:0:0:0:
254,124,59041,1,8,0:0:0:0:
172,273,59206,1,0,0:0:0:0:
306,183,59372,2,0,P|331:123|317:82,1,90,6|4,0:0|0:0,0:0:0:0:
380,280,59704,2,0,L|472:295,1,90,8|0,0:0|0:0,0:0:0:0:
282,347,60035,6,0,L|181:358,1,90,4|4,0:0|0:0,0:0:0:0:
36,272,60366,2,0,P|22:228|34:178,1,90,8|0,0:0|0:0,0:0:0:0:
252,251,60698,1,4,0:0:0:0:
67,348,60864,1,2,0:0:0:0:
82,123,61029,1,8,0:0:0:0:
192,356,61195,1,0,0:0:0:0:
360,187,61361,6,0,B|296:147|258:222|183:186,1,180,10|8,0:3|0:0,0:0:0:0:
223,111,61858,1,2,0:0:0:0:
200,273,62024,1,4,0:0:0:0:
425,237,62190,1,6,0:0:0:0:
289,56,62355,1,8,0:0:0:0:
433,315,62521,6,0,P|485:285|466:170,1,180,4|4,0:3|0:0,0:0:0:0:
191,29,63018,2,0,L|202:164,1,135,8|0,0:0|0:0,0:0:0:0:
191,184,63350,1,6,0:0:0:0:
303,296,63516,1,4,0:0:0:0:
116,323,63681,1,8,0:0:0:0:
289,198,63847,1,0,0:0:0:0:
132,304,64013,6,0,P|115:256|94:216,1,90,12|0,0:1|0:0,0:0:0:0:
229,342,64344,2,0,P|281:349|323:356,1,90,8|0,0:0|0:0,0:0:0:0:
480,256,64676,1,6,0:0:0:0:
352,137,64842,1,4,0:0:0:0:
214,235,65007,2,0,P|288:229|323:223,1,90,8|0,0:0|0:0,0:0:0:0:
443,143,65339,5,4,0:0:0:0:
374,268,65505,1,6,0:0:0:0:
287,13,65670,2,0,L|298:149,1,135,8|0,0:0|0:0,0:0:0:0:
281,161,66002,1,12,0:3:0:0:
471,260,66168,1,0,0:0:0:0:
299,361,66333,2,0,L|324:203,1,135,8|0,0:0|0:0,0:0:0:0:
208,283,66665,6,0,B|136:313|104:248|34:275,1,180,10|8,0:3|0:0,0:0:0:0:
63,354,67162,1,2,0:0:0:0:
171,206,67328,1,4,0:0:0:0:
311,297,67494,1,6,0:0:0:0:
144,111,67659,1,8,0:0:0:0:
358,231,67825,6,0,P|386:277|331:376,1,180,4|2,0:3|0:0,0:0:0:0:
105,307,68322,1,8,0:0:0:0:
441,197,68654,1,4,0:0:0:0:
259,29,68820,1,0,1:0:0:0:
262,58,68902,1,0,1:0:0:0:
265,88,68985,1,0,1:0:0:0:
269,118,69068,1,0,1:0:0:0:
272,148,69151,1,0,1:0:0:0:
275,178,69234,1,0,1:0:0:0:
279,207,69317,6,0,L|187:194,1,90,12|0,0:1|0:0,0:0:0:0:
12,269,69648,2,0,L|105:260,1,90,8|0,0:0|0:0,0:0:0:0:
111,158,69980,1,6,0:0:0:0:
191,305,70146,1,4,0:0:0:0:
156,79,70311,1,8,0:0:0:0:
100,344,70477,1,0,0:0:0:0:
358,249,70643,6,0,L|264:238,1,90,12|0,0:3|0:0,0:0:0:0:
440,179,70974,1,8,0:0:0:0:
344,29,71140,1,0,0:0:0:0:
207,188,71306,2,0,P|192:236|211:291,1,90,10|4,0:3|0:0,0:0:0:0:
426,267,71637,1,8,0:0:0:0:
291,100,71803,1,0,0:0:0:0:
216,304,71969,6,0,L|312:310,1,90,10|0,0:3|0:0,0:0:0:0:
14,228,72300,1,8,0:0:0:0:
121,134,72466,2,0,P|133:92|118:42,1,90,0|6,0:0|0:0,0:0:0:0:
96,258,72797,1,4,0:0:0:0:
25,95,72963,1,8,0:0:0:0:
230,132,73129,1,0,0:0:0:0:
178,290,73295,5,12,0:3:0:0:
334,343,73460,1,0,0:0:0:0:
157,313,73626,2,0,P|105:321|62:319,1,90,8|2,0:0|0:0,0:0:0:0:
297,250,73958,2,0,P|355:246|394:254,1,90,4|6,0:0|0:0,0:0:0:0:
191,71,74289,1,8,0:0:0:0:
191,71,74621,6,0,B|188:102|188:102|204:138|204:138|203:171,1,90,4|0,0:0|0:0,0:0:0:0:
225,321,74952,1,8,0:0:0:0:
191,71,75118,1,0,0:0:0:0:
312,322,75284,1,6,0:0:0:0:
336,36,75449,1,4,0:0:0:0:
421,356,75615,5,8,0:0:0:0:
493,49,75781,1,0,0:0:0:0:
183,314,75947,5,8,0:0:0:0:
476,237,76112,1,4,0:0:0:0:
136,188,76278,1,8,0:0:0:0:
421,107,76444,1,0,0:0:0:0:
136,56,76610,5,4,0:0:0:0:
451,193,76775,1,4,0:0:0:0:
194,363,76941,1,8,0:0:0:0:
213,85,77273,6,0,L|208:273,1,180,10|8,0:3|0:0,0:0:0:0:
120,269,77770,1,0,0:0:0:0:
333,229,77936,1,6,0:0:0:0:
237,340,78101,1,4,0:0:0:0:
282,40,78267,1,8,0:0:0:0:
342,310,78433,6,0,P|404:270|379:162,1,180,12|4,0:3|0:0,0:0:0:0:
336,117,78930,2,0,P|396:94|442:114,1,90,8|0,0:0|0:0,0:0:0:0:
263,177,79262,1,4,0:0:0:0:
77,374,79427,1,0,1:0:0:0:
61,339,79510,1,0,1:0:0:0:
59,302,79593,1,0,1:0:0:0:
65,265,79676,1,0,1:0:0:0:
72,228,79759,1,0,1:0:0:0:
70,191,79842,1,0,1:0:0:0:
57,156,79925,6,0,P|99:166|152:157,1,90,12|0,0:1|0:0,0:0:0:0:
324,104,80256,2,0,P|282:94|229:103,1,90,8|0,0:0|0:0,0:0:0:0:
200,344,80587,2,0,L|183:232,1,90,6|0,0:0|0:0,0:0:0:0:
337,15,80919,2,0,L|320:127,1,90,8|0,0:0|0:0,0:0:0:0:
230,169,81250,5,4,0:0:0:0:
420,112,81416,1,4,0:0:0:0:
381,302,81582,2,0,P|363:256|367:206,1,90,8|0,0:0|0:0,0:0:0:0:
461,238,81913,1,4,0:0:0:0:
281,349,82079,1,6,0:0:0:0:
254,98,82245,2,0,L|268:200,1,90,8|0,0:0|0:0,0:0:0:0:
55,303,82576,6,0,P|112:254|225:294,1,180,4|8,0:0|0:0,0:0:0:0:
140,338,83074,1,2,0:0:0:0:
369,205,83239,1,4,0:0:0:0:
230,352,83405,1,6,0:0:0:0:
152,159,83571,1,8,0:0:0:0:
309,354,83737,5,0,0:0:0:0:
369,205,83902,1,4,0:0:0:0:
216,221,84068,1,2,0:0:0:0:
430,274,84234,2,0,P|460:208|428:133,1,135,8|0,0:0|0:0,0:0:0:0:
418,128,84565,1,12,0:3:0:0:
279,284,84731,1,4,0:0:0:0:
238,19,84897,2,0,P|279:78|264:142,1,135,8|0,0:0|0:0,0:0:0:0:
250,147,85228,6,0,L|347:136,1,90,10|0,0:3|0:0,0:0:0:0:
160,295,85560,2,0,L|43:290,1,90,8|0,0:0|0:0,0:0:0:0:
397,78,85891,2,0,P|422:129|404:185,1,90,6|4,0:0|0:0,0:0:0:0:
160,295,86223,2,0,P|135:244|153:188,1,90,8|0,0:0|0:0,0:0:0:0:
373,354,86554,5,12,0:3:0:0:
222,235,86720,1,0,0:0:0:0:
492,248,86886,2,0,L|346:263,1,135,8|0,0:0|0:0,0:0:0:0:
340,274,87217,1,6,0:0:0:0:
245,57,87383,1,4,0:0:0:0:
397,163,87549,1,8,0:0:0:0:
397,163,87880,6,0,B|299:138|310:204|207:183,1,180,10|8,0:3|0:0,0:0:0:0:
131,151,88378,1,2,0:0:0:0:
228,45,88543,1,4,0:0:0:0:
352,246,88709,1,2,0:0:0:0:
356,24,88875,1,8,0:0:0:0:
380,320,89041,6,0,P|423:280|383:175,1,180,4|0,0:3|0:0,0:0:0:0:
32,138,89538,1,8,0:0:0:0:
32,138,89869,1,8,0:0:0:0:
210,298,90035,1,0,1:0:0:0:
213,260,90118,1,0,1:0:0:0:
218,223,90201,1,0,1:0:0:0:
221,185,90284,1,0,1:0:0:0:
226,148,90366,1,0,1:0:0:0:
230,110,90449,1,0,1:0:0:0:
234,74,90532,6,0,P|189:82|129:64,1,90,12|0,0:1|0:0,0:0:0:0:
343,187,90864,1,8,0:0:0:0:
311,24,91029,1,0,0:0:0:0:
271,275,91195,5,6,0:0:0:0:
435,150,91361,1,4,0:0:0:0:
234,74,91527,1,8,0:0:0:0:
271,275,91692,1,0,0:0:0:0:
361,289,91858,5,4,0:0:0:0:
148,353,92024,1,0,0:0:0:0:
234,74,92190,2,0,L|247:177,1,90,8|2,0:0|0:0,0:0:0:0:
361,289,92521,1,10,0:3:0:0:
190,228,92687,1,6,0:0:0:0:
313,115,92853,1,8,0:0:0:0:
313,115,93184,6,0,P|367:120|407:229,1,180,12|8,0:3|0:0,0:0:0:0:
230,113,93681,2,0,L|213:23,1,90,0|6,0:0|0:0,0:0:0:0:
251,210,94013,1,4,0:0:0:0:
173,348,94179,2,0,P|167:281|191:240,1,90,8|0,0:0|0:0,0:0:0:0:
230,134,94510,5,10,0:3:0:0:
48,315,94676,1,0,3:0:0:0:
106,100,94842,1,8,0:0:0:0:
263,257,95007,1,0,3:0:0:0:
15,190,95173,5,8,3:3:0:0:
173,348,95339,1,8,3:0:0:0:
230,134,95505,1,0,1:3:0:0:
75,277,95670,1,0,0:0:0:0:
327,341,95836,5,12,0:3:0:0:
93,305,96002,1,0,0:0:0:0:
402,252,96168,1,4,0:0:0:0:
77,181,96333,1,0,0:0:0:0:
261,18,96499,5,4,0:0:0:0:
327,341,96665,1,0,0:0:0:0:
392,51,96831,1,4,0:0:0:0:
252,305,96996,1,0,0:0:0:0:
20,73,97162,5,4,0:0:0:0:
225,291,97328,1,0,0:0:0:0:
147,25,97494,1,4,0:0:0:0:
137,327,97659,1,0,0:0:0:0:
384,155,97825,5,4,0:0:0:0:
129,111,97991,1,0,0:0:0:0:
230,327,98157,1,0,3:0:0:0:
222,340,98488,6,0,B|205:323|206:299|206:299|216:297|239:301|279:309|279:309|286:285|306:266|306:266|329:249|357:243|357:243|368:270|366:299|366:299|363:318|344:344,1,315,4|0,0:1|0:0,0:0:0:0:
231,213,99814,1,2,0:3:0:0:
315,140,100311,5,0,1:0:0:0:
309,118,100394,1,0,1:0:0:0:
304,97,100477,1,0,1:0:0:0:
53,140,100643,1,0,1:0:0:0:
69,146,100726,1,0,1:0:0:0:
84,152,100808,2,0,P|101:209|84:252,1,101.250003862381,0|0,1:0|1:0,0:0:0:0:
60,266,101140,6,0,L|206:281,1,135.000005149842,12|2,0:1|0:0,0:0:0:0:
260,227,101637,1,0,0:0:0:0:
408,314,101803,2,0,P|362:313|329:307,1,67.5000025749208,8|0,0:0|0:0,0:0:0:0:
349,182,102134,2,0,P|355:143|348:102,1,67.5000025749208,2|0,0:0|3:0,0:0:0:0:
344,102,102383,1,0,3:0:0:0:
334,89,102466,6,0,P|388:101|481:142,1,135.000005149842,4|0,0:0|0:0,0:0:0:0:
190,140,102963,2,0,P|134:150|29:156,1,135.000005149842,2|0,0:0|0:0,0:0:0:0:
259,301,103460,1,8,0:0:0:0:
259,301,103792,6,0,P|276:207|275:148,1,135.000005149842,12|2,0:1|0:0,0:0:0:0:
233,37,104289,1,0,0:0:0:0:
321,86,104455,2,0,P|363:90|403:91,1,67.5000025749208,8|0,0:0|0:0,0:0:0:0:
186,233,104786,2,0,P|132:255|103:261,1,67.5000025749208,2|0,0:0|3:0,0:0:0:0:
110,258,105035,1,0,3:0:0:0:
94,257,105118,6,0,P|146:285|215:344,1,135.000005149842,4|0,0:0|0:0,0:0:0:0:
324,149,105615,2,0,P|338:97|374:11,1,135.000005149842,2|0,0:0|0:0,0:0:0:0:
297,261,106112,1,8,0:0:0:0:
308,280,106444,5,4,0:1:0:0:
92,176,107107,1,2,0:0:0:0:
359,34,107604,1,2,0:0:0:0:
295,90,107770,6,0,L|173:103,1,101.250003862381,4|0,0:1|0:0,0:0:0:0:
174,88,108101,2,0,P|197:137|200:171,1,67.5000025749208,2|0,0:0|0:0,0:0:0:0:
161,342,108433,1,4,0:0:0:0:
247,262,108599,1,0,3:0:0:0:
247,262,108681,1,0,3:0:0:0:
247,262,108764,2,0,P|299:252|346:320,1,135.000005149842,4|12,0:0|0:1,0:0:0:0:
266,354,109262,5,0,0:0:0:0:
431,281,109427,1,4,0:0:0:0:
193,181,109593,1,4,0:0:0:0:
385,211,109759,1,4,0:0:0:0:
142,289,109925,1,4,0:0:0:0:
314,113,110090,1,4,0:0:0:0:
58,56,110256,1,4,0:0:0:0:
385,211,110422,6,0,P|422:160|402:45,1,180,4|8,0:1|0:0,0:0:0:0:
152,267,110919,2,0,P|249:279|343:311,1,180,6|2,0:0|0:0,0:0:0:0:
10,131,111416,1,8,0:0:0:0:
10,131,111748,6,0,P|63:144|115:130,1,90,4|0,0:0|0:0,0:0:0:0:
292,106,112079,2,0,P|239:93|187:107,1,90,4|0,0:0|0:0,0:0:0:0:
140,281,112411,2,0,L|161:175,1,90,6|0,0:0|0:0,0:0:0:0:
310,18,112742,2,0,L|289:124,1,90,4|0,0:0|0:0,0:0:0:0:
247,279,113074,6,0,P|303:297|405:366,1,180,12|4,0:3|0:0,0:0:0:0:
410,198,113571,2,0,P|434:126|489:24,1,180,2|2,0:0|0:0,0:0:0:0:
300,114,114068,2,0,L|202:128,1,90,4|0,0:0|0:0,0:0:0:0:
162,54,114400,6,0,P|124:115|192:213,1,180,12|4,0:1|0:0,0:0:0:0:
256,232,114897,1,2,0:0:0:0:
143,282,115063,2,0,L|43:279,1,90,4|2,0:0|0:0,0:0:0:0:
266,354,115394,2,0,L|359:348,1,90,4|2,0:0|0:0,0:0:0:0:
327,92,115726,5,4,0:0:0:0:
430,316,115891,1,2,0:0:0:0:
423,52,116057,1,4,0:0:0:0:
359,267,116223,1,2,0:0:0:0:
400,138,116389,5,0,1:0:0:0:
238,261,116554,1,0,1:0:0:0:
202,66,116720,1,0,1:0:0:0:
208,82,116803,1,0,1:0:0:0:
214,98,116886,1,0,1:0:0:0:
220,114,116969,1,0,1:0:0:0:
225,131,117052,5,12,0:1:0:0:
132,201,117217,1,0,0:0:0:0:
324,279,117383,1,4,0:0:0:0:
210,226,117549,1,0,0:0:0:0:
361,204,117715,5,4,0:0:0:0:
167,300,117880,1,0,0:0:0:0:
181,85,118046,1,4,0:0:0:0:
287,261,118212,1,0,0:0:0:0:
74,265,118378,5,4,0:0:0:0:
364,321,118543,1,4,0:0:0:0:
260,37,118709,1,8,0:0:0:0:
74,265,118875,1,4,0:0:0:0:
370,41,119041,5,4,0:0:0:0:
89,138,119206,1,4,0:0:0:0:
332,341,119372,1,8,0:0:0:0:
256,192,119704,5,4,0:1:0:0:
256,160,120864,1,0,0:0:0:0:
438,107,121029,5,4,0:3:0:0:
472,120,121111,1,0,0:0:0:0:
499,147,121194,1,0,0:0:0:0:
511,182,121277,1,0,0:0:0:0:
508,219,121360,1,0,0:0:0:0:
489,251,121443,1,0,0:0:0:0:
458,272,121527,2,0,B|395:301|362:237|283:267,1,180,4|4,0:0|0:0,0:0:0:0:
231,335,122024,1,4,0:0:0:0:
256,192,122355,5,4,0:1:0:0:
256,192,122438,12,4,126665,0:3:0:0:
