osu file format v14

[General]
AudioFilename: audio.mp3
AudioLeadIn: 0
PreviewTime: 57779
Countdown: 0
SampleSet: Soft
StackLeniency: 0.7
Mode: 0
LetterboxInBreaks: 0
EpilepsyWarning: 1
WidescreenStoryboard: 1

[Editor]
DistanceSpacing: 1
BeatDivisor: 4
GridSize: 32
TimelineZoom: 1.9

[Metadata]
Title:Sakura, Reincarnation
TitleUnicode:さくら、Reincarnation
Artist:Sasaki Sayaka
ArtistUnicode:佐咲紗花
Creator:EnuHQ
Version:Ninja's Normal
Source:さくら、もゆ。-as the Night's, Reincarnation-
Tags:山本美禰子 Yamamoto Mineko 石倉誉之 Ishikura Takashi 小高光太郎 Kodaka Koutarou favorite opening galgame eroge visual novel winter favorite moyu japanese female vocal video game pop j-pop jpop MajK00 Ninjaking311 AsuKow ohm002
BeatmapID:3602621
BeatmapSetID:1742473

[Difficulty]
HPDrainRate:3
CircleSize:3.2
OverallDifficulty:4
ApproachRate:5.5
SliderMultiplier:1.04
SliderTickRate:1

[Events]
//Background and Video events
0,0,"background gaming.jpg",0,0
//Break Periods
2,98670,99334
//Storyboard Layer 0 (Background)
//Storyboard Layer 1 (Fail)
//Storyboard Layer 2 (Pass)
//Storyboard Layer 3 (Foreground)
//Storyboard Layer 4 (Overlay)
//Storyboard Sound Samples

[TimingPoints]
349,331.491712707182,4,2,1,50,1,0
3000,-111.111111111111,4,2,1,50,0,0
13608,-105.263157894737,4,2,1,50,0,0
21563,-105.263157894737,4,2,1,40,0,0
24216,-117.647058823529,4,2,1,50,0,0
34824,-105.263157894737,4,2,1,50,0,0
45431,-111.111111111111,4,2,1,50,0,0
53387,-105.263157894737,4,2,1,50,0,0
58691,-105.263157894737,4,2,1,75,0,0
59354,-100,4,2,1,75,0,0
95818,-105.263157894737,4,2,1,75,0,0
98470,-105.263157894737,4,2,1,50,0,0
100459,-111.111111111111,4,2,1,50,0,0
111730,-105.263157894737,4,2,1,50,0,0
119686,-111.111111111111,4,2,1,40,0,0
122337,-111.111111111111,4,2,1,50,0,0
128967,-111.111111111111,4,2,1,15,0,0

[Colours]
Combo1 : 255,111,111
Combo2 : 163,252,238
Combo3 : 222,253,130

[HitObjects]
256,192,349,12,0,2337,2:0:0:0:
512,51,3000,6,0,P|470:63|414:77,1,93.6000000000001,6|2,1:0|2:0,2:0:0:0:
361,148,3663,1,2,2:0:0:0:
287,90,3995,1,2,2:0:0:0:
219,155,4326,2,0,P|151:135|83:118,2,140.4,14|8|4,2:0|1:3|1:3,2:0:0:0:
284,221,5652,6,0,P|293:265|269:304,1,93.6000000000001,6|2,1:0|2:0,2:0:0:0:
190,355,6315,1,2,2:0:0:0:
116,296,6647,1,2,2:0:0:0:
31,335,6978,2,0,L|13:237,1,93.6000000000001,12|2,2:0|1:0,2:0:0:0:
47,208,7476,2,0,L|64:110,1,93.6000000000001,12|4,2:3|1:3,2:0:0:0:
47,71,7973,1,4,1:3:0:0:
121,15,8304,6,0,B|171:-8|225:32|200:46|238:84|295:64,2,187.2,6|2|6,1:0|2:0|1:0,2:0:0:0:
47,71,9962,1,2,2:0:0:0:
109,140,10293,1,2,2:0:0:0:
36,199,10625,2,0,L|53:303,1,93.6000000000001,10|6,2:0|1:0,2:0:0:0:
113,360,11288,6,0,L|167:348,1,46.8,8|10,2:0|2:0,2:0:0:0:
191,317,11619,2,0,L|236:326,1,46.8,8|8,2:0|2:0,2:0:0:0:
272,357,11951,2,0,L|317:347,1,46.8,8|8,2:0|2:0,2:0:0:0:
363,338,12282,1,6,1:0:0:0:
436,279,12614,1,8,2:0:0:0:
436,279,12779,2,0,P|435:233|464:197,1,93.6000000000001,2|2,1:0|1:0,2:0:0:0:
505,175,13277,1,8,2:0:0:0:
466,84,13608,6,0,P|413:72|370:58,1,98.7999999999998,6|0,1:0|1:0,2:0:0:0:
295,123,14271,1,2,1:0:0:0:
215,64,14603,1,2,1:0:0:0:
138,126,14934,2,0,P|152:173|162:221,1,98.7999999999998,2|2,1:0|1:0,2:0:0:0:
176,269,15431,1,2,2:0:0:0:
125,354,15763,2,0,P|52:357|0:308,1,148.2,2|6,2:0|1:0,2:0:0:0:
23,215,16592,5,2,2:0:0:0:
23,215,16757,2,0,P|34:166|48:119,2,98.7999999999998,2|2|2,2:0|2:0|2:0,2:0:0:0:
84,292,17752,2,0,P|99:311|112:332,1,49.3999999999999,2|2,2:0|1:0,2:0:0:0:
137,374,18083,2,0,P|185:373|225:345,1,98.7999999999998,2|0,2:0|1:0,2:0:0:0:
260,308,18581,1,8,2:0:0:0:
350,348,18912,6,0,P|396:365|443:379,2,98.7999999999998,6|0|0,1:0|1:0|1:0,2:0:0:0:
407,267,19907,1,2,1:0:0:0:
336,197,20238,2,0,L|345:146,1,49.3999999999999,8|0,2:0|1:0,2:0:0:0:
383,117,20569,2,0,L|374:66,1,49.3999999999999,8|0,2:0|1:0,2:0:0:0:
356,22,20901,2,0,L|307:30,1,49.3999999999999,8|4,2:0|1:3,2:0:0:0:
266,57,21232,2,0,L|170:33,1,98.7999999999998,8|6,2:0|1:0,2:0:0:0:
256,192,21647,12,8,22890,1:3:0:0:
24,102,24216,6,0,P|93:52|176:75,1,176.800000000001,6|2,1:0|2:0,2:0:0:0:
180,214,25376,1,0,2:0:0:0:
180,214,25542,2,0,P|124:247|62:232,2,132.6,2|0|0,1:0|1:0|1:0,2:0:0:0:
236,145,26868,6,0,P|313:163|413:181,1,176.800000000001,0|2,1:0|2:0,2:0:0:0:
445,261,27862,1,2,2:0:0:0:
364,298,28194,2,0,P|299:282|234:270,2,132.6,2|0|0,1:0|1:0|1:0,2:0:0:0:
444,261,29520,6,0,P|495:192|475:109,1,176.800000000001,2|2,1:0|2:0,2:0:0:0:
346,101,30680,1,2,2:0:0:0:
346,101,30846,2,0,P|310:154|322:218,2,132.6,0|0|0,1:0|1:0|1:0,2:0:0:0:
302,24,32172,6,0,B|195:0|232:79|112:42,2,176.800000000001,2|2|0,1:0|2:0|1:0,2:0:0:0:
422,79,33995,1,0,1:0:0:0:
422,79,34161,2,0,L|432:36,2,44.2000000000002,0|2|2,1:0|2:0|2:0,2:0:0:0:
346,143,34824,6,0,L|375:253,1,98.7999999999998,6|0,1:0|1:0,2:0:0:0:
384,286,35321,1,2,2:0:0:0:
308,350,35652,1,2,2:0:0:0:
232,285,35984,2,0,P|183:282|143:310,1,98.7999999999998,2|0,2:0|2:0,2:0:0:0:
111,346,36481,1,0,1:0:0:0:
46,271,36813,2,0,L|-1:288,2,49.3999999999999,0|2|0,1:0|2:0|1:0,2:0:0:0:
117,202,37476,6,0,P|120:153|92:113,1,98.7999999999998,0|0,1:0|1:0,2:0:0:0:
54,81,37973,1,2,2:0:0:0:
117,0,38304,1,2,2:0:0:0:
192,54,38636,2,0,P|262:32|334:14,1,148.2,2|0,2:0|1:0,2:0:0:0:
372,54,39299,1,2,2:0:0:0:
372,54,39465,2,0,L|450:80,2,49.3999999999999,0|2|0,1:0|2:0|1:0,2:0:0:0:
305,127,40128,5,2,1:0:0:0:
368,202,40459,1,0,1:0:0:0:
368,202,40625,2,0,P|424:186|500:172,1,98.7999999999998,2|0,2:0|2:0,2:0:0:0:
512,169,41122,1,0,1:0:0:0:
512,169,41288,2,0,P|519:121|494:79,1,98.7999999999998,2|0,2:0|2:0,2:0:0:0:
450,57,41785,1,0,1:0:0:0:
369,113,42116,2,0,P|332:111|302:90,2,74.0999999999999,0|0|2,1:0|2:0|2:0,2:0:0:0:
398,152,42779,5,12,2:0:0:0:
472,225,43111,1,0,1:0:0:0:
472,225,43277,2,0,P|456:277|444:332,1,98.7999999999998,0|8,1:0|2:0,2:0:0:0:
433,368,43774,1,8,2:0:0:0:
345,321,44105,2,0,P|320:324|297:333,1,49.3999999999999,8|8,2:0|2:0,2:0:0:0:
260,366,44437,2,0,P|226:359|194:342,1,49.3999999999999,8|4,2:0|2:3,2:0:0:0:
185,311,44768,2,0,P|160:314|137:323,1,49.3999999999999,10|8,2:0|2:3,2:0:0:0:
93,346,45100,1,2,1:0:0:0:
10,302,45431,6,0,P|24:234|39:158,1,140.4,6|2,1:0|1:0,2:0:0:0:
53,120,46094,1,8,2:0:0:0:
135,175,46426,1,2,1:0:0:0:
135,175,46592,2,0,P|203:180|258:138,1,140.4,0|2,1:0|2:0,2:0:0:0:
300,55,47420,1,10,2:0:0:0:
385,93,47752,1,2,2:0:0:0:
458,35,48083,6,0,P|499:89|492:158,1,140.4,0|0,1:0|1:0,2:0:0:0:
459,191,48746,1,8,2:0:0:0:
512,277,49078,1,0,1:0:0:0:
512,277,49244,2,0,P|438:292|376:313,1,140.4,2|8,2:0|2:3,2:0:0:0:
305,373,50072,2,0,L|259:360,1,46.8,8|8,2:0|1:3,2:0:0:0:
214,346,50404,2,0,P|206:300|228:259,1,93.6000000000001,4|0,2:3|1:0,2:0:0:0:
480,25,53387,6,0,L|418:43,1,49.3999999999999,14|0,2:0|1:0,2:0:0:0:
403,80,53719,1,0,1:0:0:0:
403,80,53884,2,0,L|306:58,1,98.7999999999998,14|0,2:0|1:0,2:0:0:0:
261,55,54382,1,12,2:0:0:0:
261,55,54547,2,0,P|236:96|243:145,1,98.7999999999998,0|8,1:0|2:0,2:0:0:0:
278,180,55045,1,0,1:0:0:0:
362,232,55376,2,0,L|351:281,1,49.3999999999999,8|0,2:0|1:0,2:0:0:0:
341,329,55708,1,14,2:0:0:0:
254,372,56039,5,10,2:0:0:0:
254,372,56205,1,10,2:0:0:0:
190,296,56536,1,10,2:0:0:0:
100,337,56868,2,0,L|90:277,1,49.3999999999999,10|0,2:0|1:0,2:0:0:0:
49,263,57199,2,0,L|70:150,1,98.7999999999998,14|8,2:0|2:0,2:0:0:0:
81,118,57697,1,8,2:0:0:0:
164,170,58028,2,0,L|218:155,1,49.3999999999999,0|0,1:0|1:2,2:0:0:0:
243,119,58360,2,0,L|290:131,1,49.3999999999999,0|0,1:2|1:2,2:0:0:0:
340,148,58691,5,6,1:0:0:0:
394,65,59023,1,10,2:0:0:0:
314,0,59354,2,0,L|262:13,1,52,0|0,1:0|1:0,2:0:0:0:
213,28,59686,2,0,P|170:46|114:61,1,104,8|2,2:0|1:0,2:0:0:0:
66,69,60183,1,0,1:0:0:0:
66,69,60348,1,8,2:0:0:0:
19,165,60680,2,0,L|32:216,1,52,0|0,1:0|1:0,2:0:0:0:
76,243,61011,2,0,L|62:294,1,52,8|0,2:0|2:0,2:0:0:0:
52,344,61343,6,0,P|97:366|147:356,1,104,2|8,1:0|2:0,2:0:0:0:
192,329,61840,1,2,2:0:0:0:
259,249,62172,2,0,L|246:198,1,52,0|8,1:0|2:0,2:0:0:0:
229,149,62503,2,0,P|271:121|322:127,1,104,2|0,1:0|1:0,2:0:0:0:
359,164,63000,1,10,2:0:0:0:
443,103,63332,2,0,L|430:52,1,52,2|0,1:0|1:0,2:0:0:0:
410,4,63663,1,10,2:0:0:0:
325,65,63995,5,6,1:0:0:0:
240,4,64326,1,8,2:0:0:0:
159,69,64658,2,0,L|171:119,1,52,2|0,1:0|1:0,2:0:0:0:
185,169,64989,2,0,P|244:173|275:210,1,104,8|0,2:0|1:0,2:0:0:0:
272,259,65487,1,0,1:0:0:0:
272,259,65652,1,8,2:0:0:0:
187,319,65984,2,0,L|136:306,1,52,2|2,1:0|1:0,2:0:0:0:
120,257,66315,2,0,L|69:269,1,52,8|0,2:0|2:0,2:0:0:0:
18,281,66647,6,0,P|-3:234|6:184,1,104,2|8,1:0|2:0,2:0:0:0:
46,150,67144,1,2,2:0:0:0:
0,55,67476,2,0,L|51:43,1,52,0|8,1:0|2:0,2:0:0:0:
86,4,67807,2,0,L|186:30,1,104,6|0,1:0|1:0,2:0:0:0:
234,50,68304,1,8,2:0:0:0:
279,143,68636,2,0,L|329:130,1,52,4|8,1:3|2:0,2:0:0:0:
360,88,68967,2,0,L|410:100,1,52,8|8,2:0|2:0,2:0:0:0:
460,115,69299,6,0,P|471:164|445:207,2,104,6|8|0,1:0|2:0|1:0,2:0:0:0:
398,31,70293,2,0,L|329:51,1,52,8|2,2:0|2:0,2:0:0:0:
313,84,70625,2,0,L|212:56,1,104,2|8,1:0|2:0,2:0:0:0:
162,42,71122,1,2,2:0:0:0:
87,114,71453,2,0,P|100:148|107:175,1,52,2|8,2:0|2:0,2:0:0:0:
120,217,71785,5,2,2:0:0:0:
120,217,71951,2,0,P|69:230|22:251,2,104,2|8|0,1:0|2:0|1:0,2:0:0:0:
220,244,72945,2,0,P|243:254|268:261,1,52,8|2,2:0|2:0,2:0:0:0:
318,277,73277,2,0,P|329:326|301:368,1,104,2|8,1:0|2:0,2:0:0:0:
250,384,73774,1,2,2:0:0:0:
167,321,74105,2,0,P|144:331|119:338,1,52,0|10,1:0|2:0,2:0:0:0:
71,355,74437,5,2,2:0:0:0:
71,355,74603,2,0,P|55:302|34:253,1,104,6|10,1:0|2:0,2:0:0:0:
106,180,75266,1,2,1:0:0:0:
23,116,75597,2,0,P|28:81|46:47,1,52,10|2,2:0|2:0,2:0:0:0:
62,21,75929,2,0,P|111:37|162:47,1,104,2|10,1:0|2:0,2:0:0:0:
230,125,76592,2,0,P|254:117|279:110,1,52,2|0,1:0|1:0,2:0:0:0:
329,95,76923,1,8,2:0:0:0:
432,110,77255,6,0,P|438:59|405:21,2,104,6|10|2,1:0|2:0|1:0,2:0:0:0:
395,147,78083,2,0,L|413:212,1,52,0|8,1:0|2:0,2:0:0:0:
420,248,78415,1,6,1:0:0:0:
512,309,78746,1,0,1:0:0:0:
512,309,78912,2,0,L|494:374,1,52,10|2,2:0|2:0,2:0:0:0:
452,384,79244,2,0,L|387:366,1,52,2|8,1:0|2:0,2:0:0:0:
362,335,79575,2,0,L|311:348,1,52,10|8,2:0|2:0,2:0:0:0:
262,364,79907,5,6,1:0:0:0:
191,288,80238,1,8,2:0:0:0:
256,207,80569,2,0,L|307:220,1,52,2|0,1:0|1:0,2:0:0:0:
355,237,80901,2,0,P|396:208|406:158,1,104,8|2,2:0|1:0,2:0:0:0:
410,110,81398,1,0,1:0:0:0:
410,110,81564,1,8,2:0:0:0:
304,105,81895,2,0,L|253:92,1,52,2|0,1:0|1:0,2:0:0:0:
221,50,82227,2,0,L|170:63,1,52,8|0,2:0|2:0,2:0:0:0:
119,74,82558,6,0,P|105:123|128:168,1,104,2|8,1:0|2:0,2:0:0:0:
169,200,83056,1,2,2:0:0:0:
95,273,83387,2,0,L|108:324,1,52,2|8,1:0|2:0,2:0:0:0:
121,373,83719,2,0,P|171:378|212:347,1,104,2|2,2:0|2:0,2:0:0:0:
234,300,84216,1,10,2:0:0:0:
308,227,84547,2,0,L|359:240,1,52,2|0,1:0|2:0,2:0:0:0:
407,257,84879,1,10,2:0:0:0:
478,181,85210,5,6,1:0:0:0:
408,103,85542,1,8,2:0:0:0:
307,128,85873,2,0,P|285:134|256:141,1,52,2|0,1:0|2:0,2:0:0:0:
204,145,86205,2,0,P|198:195|233:231,1,104,8|2,2:0|1:0,2:0:0:0:
289,237,86702,1,0,1:0:0:0:
289,237,86868,1,8,2:0:0:0:
391,255,87199,2,0,L|378:306,1,52,0|0,1:0|1:0,2:0:0:0:
365,356,87531,2,0,L|314:343,1,52,8|0,2:0|2:0,2:0:0:0:
263,333,87862,6,0,L|162:360,1,104,2|8,1:0|2:0,2:0:0:0:
110,363,88360,1,0,1:0:0:0:
50,278,88691,2,0,L|65:209,1,52,2|10,1:0|2:0,2:0:0:0:
107,201,89023,2,0,L|86:100,1,104,6|0,1:0|1:0,2:0:0:0:
52,58,89520,1,10,2:0:0:0:
136,0,89851,2,0,L|185:12,1,52,8|8,1:3|2:0,2:0:0:0:
221,51,90183,2,0,L|271:38,1,52,8|8,2:0|2:0,2:0:0:0:
322,27,90514,6,0,P|351:67|344:118,2,104,6|8|0,1:0|2:0|1:0,2:0:0:0:
221,51,91509,2,0,L|170:63,1,52,8|2,2:0|2:0,2:0:0:0:
120,76,91840,2,0,P|112:126|142:167,1,104,0|8,1:0|2:0,2:0:0:0:
181,201,92337,1,2,2:0:0:0:
137,295,92669,2,0,L|86:282,1,52,0|8,1:0|2:0,2:0:0:0:
38,275,93000,5,2,2:0:0:0:
38,275,93166,2,0,P|9:316|19:366,2,104,2|10|0,1:0|2:0|1:0,2:0:0:0:
19,225,93995,2,0,L|7:174,1,52,0|8,1:0|2:0,2:0:0:0:
0,125,94326,1,2,2:0:0:0:
80,59,94658,1,0,1:0:0:0:
157,128,94989,1,2,2:0:0:0:
234,58,95321,2,0,L|284:69,1,52,0|8,1:0|2:0,2:0:0:0:
321,114,95652,5,2,2:0:0:0:
321,114,95818,2,0,P|369:103|424:94,2,98.7999999999998,6|0|0,1:0|1:0|1:0,2:0:0:0:
255,189,96813,1,8,2:0:0:0:
255,189,96978,2,0,P|247:236|275:276,1,98.7999999999998,2|0,2:0|1:0,2:0:0:0:
303,317,97476,2,0,L|365:299,1,49.3999999999999,8|4,2:0|2:3,2:0:0:0:
380,263,97807,2,0,L|427:276,1,49.3999999999999,4|4,1:3|1:3,2:0:0:0:
474,294,98139,1,10,2:0:0:0:
512,203,98470,5,14,2:0:0:0:
26,16,100459,6,0,L|71:28,1,46.8,10|8,2:0|2:0,2:0:0:0:
99,65,100790,2,0,L|144:52,1,46.8,8|8,2:0|2:0,2:0:0:0:
191,48,101122,2,0,P|216:85|205:129,1,93.6000000000001,6|2,1:0|2:0,2:0:0:0:
143,199,101785,1,2,2:0:0:0:
209,264,102116,1,2,2:0:0:0:
147,334,102448,2,0,P|79:345|21:307,2,140.4,14|8|8,2:0|2:3|2:3,2:0:0:0:
209,264,103774,6,0,P|252:252|290:277,1,93.6000000000001,6|2,1:0|2:0,2:0:0:0:
351,356,104437,1,2,2:0:0:0:
430,307,104768,1,2,2:0:0:0:
511,260,105100,2,0,L|484:149,1,93.6000000000001,14|2,2:0|2:0,2:0:0:0:
477,123,105597,2,0,P|431:118|393:144,1,93.6000000000001,12|4,2:3|1:3,2:0:0:0:
366,182,106094,1,4,1:3:0:0:
309,256,106426,6,0,P|218:231|127:211,2,187.2,14|2|4,2:0|2:0|1:0,2:0:0:0:
366,182,108083,1,2,2:0:0:0:
314,103,108415,1,2,2:0:0:0:
373,31,108746,2,0,P|335:5|289:9,1,93.6000000000001,14|6,2:0|1:0,2:0:0:0:
217,69,109409,6,0,L|155:52,1,46.8,0|10,1:0|2:0,2:0:0:0:
138,23,109741,2,0,L|92:35,1,46.8,8|8,2:0|2:0,2:0:0:0:
51,57,110072,2,0,L|63:102,1,46.8,8|8,2:0|2:0,2:0:0:0:
78,146,110404,1,6,1:0:0:0:
161,199,110735,1,10,2:0:0:0:
161,199,110901,2,0,P|146:242|133:288,1,93.6000000000001,6|0,1:0|1:0,2:0:0:0:
119,333,111398,1,8,2:0:0:0:
208,378,111730,6,0,P|256:380|295:352,1,98.7999999999998,6|0,1:0|1:0,2:0:0:0:
345,265,112393,1,2,1:0:0:0:
273,196,112724,1,2,1:0:0:0:
203,266,113056,2,0,P|155:268|116:240,1,98.7999999999998,2|2,1:0|1:0,2:0:0:0:
90,196,113553,1,2,2:0:0:0:
135,108,113884,2,0,P|208:98|280:82,1,148.2,2|6,2:0|1:0,2:0:0:0:
381,104,114713,5,2,1:0:0:0:
381,104,114879,2,0,P|387:55|362:14,2,98.7999999999998,2|2|2,2:0|2:0|2:0,2:0:0:0:
340,194,115873,2,0,L|386:210,1,49.3999999999999,2|2,2:0|1:0,2:0:0:0:
430,234,116205,2,0,P|436:282|411:323,1,98.7999999999998,2|0,2:0|1:0,2:0:0:0:
369,349,116702,1,8,2:0:0:0:
285,295,117034,6,0,P|235:310|186:321,2,98.7999999999998,6|8|0,1:0|2:0|1:0,2:0:0:0:
330,206,118028,1,2,1:0:0:0:
246,152,118360,2,0,L|197:163,1,49.3999999999999,8|0,2:0|1:0,2:0:0:0:
165,200,118691,2,0,L|116:188,1,49.3999999999999,8|2,2:0|2:0,2:0:0:0:
68,179,119023,2,0,L|56:130,1,49.3999999999999,10|0,2:0|1:0,2:0:0:0:
24,93,119354,1,8,2:0:0:0:
94,19,119686,6,0,B|200:-21|269:63|221:92|303:190|419:134,1,374.4,6|2,1:0|2:0,2:0:0:0:
315,242,121509,2,0,P|311:287|340:323,1,93.6000000000001,4|8,2:3|2:3,2:0:0:0:
379,348,122006,2,0,P|414:319|460:322,1,93.6000000000001,4|6,2:3|2:0,2:0:0:0:
256,192,122420,12,0,128967,2:0:0:0:
