osu file format v14

[General]
AudioFilename: audio.mp3
AudioLeadIn: 0
PreviewTime: 57779
Countdown: 0
SampleSet: Soft
StackLeniency: 0.7
Mode: 0
LetterboxInBreaks: 0
EpilepsyWarning: 1
WidescreenStoryboard: 1

[Editor]
DistanceSpacing: 1.4
BeatDivisor: 4
GridSize: 32
TimelineZoom: 1.9

[Metadata]
Title:Sakura, Reincarnation
TitleUnicode:さくら、Reincarnation
Artist:Sasaki Sayaka
ArtistUnicode:佐咲紗花
Creator:EnuHQ
Version:Memories
Source:さくら、もゆ。-as the Night's, Reincarnation-
Tags:山本美禰子 Yamamoto Mineko 石倉誉之 Ishikura Takashi 小高光太郎 Kodaka Koutarou favorite opening galgame eroge visual novel winter favorite moyu japanese female vocal video game pop j-pop jpop MajK00 Ninjaking311 AsuKow ohm002
BeatmapID:3562108
BeatmapSetID:1742473

[Difficulty]
HPDrainRate:5
CircleSize:3.8
OverallDifficulty:8.8
ApproachRate:9.2
SliderMultiplier:2.04
SliderTickRate:1

[Events]
//Background and Video events
0,0,"background gaming.jpg",0,0
//Break Periods
//Storyboard Layer 0 (Background)
//Storyboard Layer 1 (Fail)
//Storyboard Layer 2 (Pass)
//Storyboard Layer 3 (Foreground)
//Storyboard Layer 4 (Overlay)
//Storyboard Sound Samples

[TimingPoints]
349,331.491712707182,4,2,1,50,1,0
3000,-121.951219512195,4,2,1,50,0,0
8304,-138.888888888889,4,2,1,50,0,0
9630,-121.951219512195,4,2,1,50,0,0
10873,-121.951219512195,4,2,1,5,0,0
10956,-121.951219512195,4,2,1,50,0,0
13608,-108.695652173913,4,2,1,50,0,0
18912,-98.0392156862745,4,2,1,50,0,0
19160,-98.0392156862745,4,2,1,5,0,0
19244,-98.0392156862745,4,2,1,50,0,0
21232,-108.695652173913,4,2,1,50,0,0
21564,-185.185185185185,4,2,1,40,0,0
22890,-121.951219512195,4,2,1,40,0,0
24216,-138.888888888889,4,2,1,50,0,0
34824,-121.951219512195,4,2,1,50,0,0
44437,-108.695652173913,4,2,1,50,0,0
45431,-121.951219512195,4,2,1,50,0,0
53387,-108.695652173913,4,2,1,50,0,0
58691,-78.125,4,2,1,75,0,0
58939,-78.125,4,2,1,5,0,0
59023,-98.0392156862745,4,2,1,75,0,0
61011,-78.125,4,2,1,75,0,0
61259,-78.125,4,2,1,5,0,0
61343,-98.0392156862745,4,2,1,75,0,0
62503,-78.125,4,2,1,75,0,0
62751,-78.125,4,2,1,5,0,0
62835,-78.125,4,2,1,75,0,0
63000,-98.0392156862745,4,2,1,75,0,0
63995,-78.125,4,2,1,75,0,0
64243,-78.125,4,2,1,5,0,0
64326,-98.0392156862745,4,2,1,75,0,0
66647,-78.125,4,2,1,75,0,0
66895,-78.125,4,2,1,5,0,0
66978,-78.125,4,2,1,75,0,0
67144,-98.0392156862745,4,2,1,75,0,0
67807,-78.125,4,2,1,75,0,0
68055,-78.125,4,2,1,5,0,0
68139,-78.125,4,2,1,75,0,0
68304,-98.0392156862745,4,2,1,75,0,0
69299,-78.125,4,2,1,75,0,0
69547,-78.125,4,2,1,5,0,0
69630,-98.0392156862745,4,2,1,75,0,0
71951,-78.125,4,2,1,75,0,0
72199,-78.125,4,2,1,5,0,0
72282,-98.0392156862745,4,2,1,75,0,0
74603,-78.125,4,2,1,75,0,0
74851,-78.125,4,2,1,5,0,0
74934,-98.0392156862745,4,2,1,75,0,0
77255,-78.125,4,2,1,75,0,0
77503,-78.125,4,2,1,5,0,0
77586,-98.0392156862745,4,2,1,75,0,0
78415,-78.125,4,2,1,75,0,0
78663,-78.125,4,2,1,5,0,0
78746,-78.125,4,2,1,75,0,0
78912,-98.0392156862745,4,2,1,75,0,0
79907,-78.125,4,2,1,75,0,0
80155,-78.125,4,2,1,5,0,0
80238,-98.0392156862745,4,2,1,75,0,0
82558,-78.125,4,2,1,75,0,0
82806,-78.125,4,2,1,5,0,0
82890,-98.0392156862745,4,2,1,75,0,0
83719,-78.125,4,2,1,75,0,0
83967,-78.125,4,2,1,5,0,0
84050,-78.125,4,2,1,75,0,0
84216,-98.0392156862745,4,2,1,75,0,0
85210,-78.125,4,2,1,75,0,0
85458,-78.125,4,2,1,5,0,0
85542,-98.0392156862745,4,2,1,75,0,0
87862,-78.125,4,2,1,75,0,0
88110,-78.125,4,2,1,5,0,0
88194,-78.125,4,2,1,75,0,0
88360,-98.0392156862745,4,2,1,75,0,0
89023,-78.125,4,2,1,75,0,0
89271,-78.125,4,2,1,5,0,0
89354,-78.125,4,2,1,75,0,0
89520,-98.0392156862745,4,2,1,75,0,0
90514,-78.125,4,2,1,75,0,0
90762,-78.125,4,2,1,5,0,0
90846,-98.0392156862745,4,2,1,75,0,0
93166,-78.125,4,2,1,75,0,0
93414,-78.125,4,2,1,5,0,0
93498,-98.0392156862745,4,2,1,75,0,0
95818,-89.2857142857143,4,2,1,75,0,0
96481,-98.0392156862745,4,2,1,75,0,0
98470,-117.647058823529,4,2,1,50,0,0
101122,-121.951219512195,4,2,1,50,0,0
106426,-138.888888888889,4,2,1,50,0,0
107752,-121.951219512195,4,2,1,50,0,0
108994,-121.951219512195,4,2,1,5,0,0
109078,-121.951219512195,4,2,1,50,0,0
111730,-108.695652173913,4,2,1,50,0,0
117034,-98.0392156862745,4,2,1,50,0,0
117282,-98.0392156862745,4,2,1,5,0,0
117365,-98.0392156862745,4,2,1,50,0,0
119354,-108.695652173913,4,2,1,50,0,0
119686,-161.290322580645,4,2,1,40,0,0
121011,-138.888888888889,4,2,1,40,0,0
122337,-138.888888888889,4,2,1,50,0,0
126813,-138.888888888889,4,2,1,15,0,0

[Colours]
Combo1 : 255,111,111
Combo2 : 163,252,238
Combo3 : 222,253,130

[HitObjects]
256,192,349,12,8,2669,2:3:0:0:
359,297,3000,6,0,P|317:310|278:319,1,83.6400000000001,6|0,1:0|2:0,2:0:0:0:
196,382,3332,2,0,P|154:369|115:360,1,83.6400000000001,2|0,2:0|2:0,2:0:0:0:
21,280,3663,2,0,P|11:321|-1:361,1,83.6400000000001,2|0,2:0|2:0,2:0:0:0:
50,194,3995,2,0,P|62:155|71:114,1,83.6400000000001,2|0,2:0|1:0,2:0:0:0:
102,1,4244,5,0,1:0:0:0:
102,1,4326,2,0,P|149:61|236:60,1,167.28,14|2,2:0|2:0,2:0:0:0:
311,9,4824,2,0,P|350:21|391:30,1,83.6400000000001,8|0,1:3|2:0,2:0:0:0:
293,185,5155,1,2,2:0:0:0:
490,101,5321,2,0,P|451:113|410:122,1,83.6400000000001,4|0,1:3|2:0,2:0:0:0:
384,313,5652,6,0,P|396:274|405:233,1,83.6400000000001,6|0,1:0|2:0,2:0:0:0:
275,381,5984,2,0,P|263:342|254:301,1,83.6400000000001,2|0,2:0|2:0,2:0:0:0:
129,321,6315,2,0,P|142:281|151:241,1,83.6400000000001,2|0,2:0|2:0,2:0:0:0:
28,271,6647,2,0,P|15:227|6:186,1,83.6400000000001,2|0,2:0|1:3,2:0:0:0:
51,98,6895,5,0,1:3:0:0:
51,98,6978,2,0,B|139:127|102:164|184:198,1,167.28,12|2,2:0|1:0,2:0:0:0:
296,70,7476,2,0,P|254:76|224:101,1,83.6400000000001,12|0,2:3|2:0,2:0:0:0:
371,250,7807,1,4,1:3:0:0:
288,184,7973,2,0,P|279:224|266:264,1,83.6400000000001,4|0,1:3|2:0,2:0:0:0:
121,323,8304,6,0,P|163:178|198:39,1,293.76,6|2,1:0|2:0,2:0:0:0:
197,39,9465,5,2,2:0:0:0:
302,145,9630,2,0,P|341:132|382:122,1,83.6400000000001,6|0,1:0|2:0,2:0:0:0:
327,261,9962,2,0,P|287:248|246:238,1,83.6400000000001,2|0,2:0|2:0,2:0:0:0:
101,116,10293,1,2,2:0:0:0:
149,213,10459,1,0,1:0:0:0:
149,213,10542,1,0,1:0:0:0:
149,213,10625,2,0,P|126:280|111:349,1,125.46,10|0,2:0|2:0,2:0:0:0:
30,269,10956,6,0,P|20:228|7:188,1,83.6400000000001,6|0,1:0|2:0,2:0:0:0:
93,67,11288,2,0,P|133:76|173:89,1,83.6400000000001,8|10,2:0|2:0,2:0:0:0:
356,293,11619,1,8,2:0:0:0:
246,168,11785,1,8,2:0:0:0:
387,26,11951,1,8,2:0:0:0:
233,178,12116,1,8,2:0:0:0:
480,96,12282,6,0,P|467:135|457:176,1,83.6400000000001,6|0,1:0|2:0,2:0:0:0:
292,341,12614,1,8,2:0:0:0:
351,182,12779,2,0,P|363:221|373:262,1,83.6400000000001,2|0,1:0|2:0,2:0:0:0:
169,50,13111,1,2,1:0:0:0:
231,204,13277,2,0,P|240:163|253:123,1,83.6400000000001,8|0,2:0|2:0,2:0:0:0:
128,263,13608,6,0,P|82:254|37:239,1,93.84,6|0,1:0|2:0,2:0:0:0:
238,357,13940,2,0,P|192:367|147:382,1,93.84,0|0,1:0|2:0,2:0:0:0:
319,263,14271,2,0,P|345:300|344:346,1,93.84,2|0,1:0|2:0,2:0:0:0:
220,207,14603,2,0,P|238:163|279:142,1,93.84,2|0,1:0|2:0,2:0:0:0:
499,42,14934,6,0,B|401:93|463:123|373:181,1,187.68,2|2,1:0|1:0,2:0:0:0:
245,32,15431,2,0,P|290:41|335:56,1,93.84,2|0,2:0|1:0,2:0:0:0:
173,229,15763,1,2,2:0:0:0:
217,134,15929,2,0,P|172:119|126:110,1,93.84,0|0,1:0|2:0,2:0:0:0:
86,306,16260,6,0,P|130:320|176:329,1,93.84,6|0,1:0|2:0,2:0:0:0:
341,192,16592,1,2,2:0:0:0:
291,367,16757,2,0,P|281:320|267:276,1,93.84,2|0,2:0|1:0,2:0:0:0:
166,190,17089,2,0,P|175:143|189:99,1,93.84,2|0,2:0|1:0,2:0:0:0:
95,377,17420,6,0,P|85:330|71:286,1,93.84,2|0,2:0|1:0,2:0:0:0:
201,79,17752,1,2,2:0:0:0:
28,179,17918,1,2,1:0:0:0:
217,63,18083,2,0,P|263:72|307:86,1,93.84,2|0,2:0|1:0,2:0:0:0:
480,266,18415,1,0,1:0:0:0:
424,84,18581,2,0,P|409:128|400:174,1,93.84,8|0,2:0|2:0,2:0:0:0:
256,374,18912,6,0,P|299:318|378:319,1,156.06,6|0,1:0|2:0,2:0:0:0:
401,329,19244,1,0,1:0:0:0:
292,219,19409,1,0,2:0:0:0:
385,150,19575,1,0,1:0:0:0:
251,299,19741,1,0,1:0:0:0:
443,232,19907,1,2,1:0:0:0:
257,125,20072,1,0,1:0:0:0:
406,51,20238,5,8,2:0:0:0:
251,299,20404,1,0,1:0:0:0:
96,104,20569,1,8,2:0:0:0:
276,38,20735,1,0,1:0:0:0:
70,257,20901,1,8,2:0:0:0:
137,0,21067,1,4,1:3:0:0:
0,183,21232,2,0,P|44:167|90:158,1,93.84,8|0,2:0|2:0,2:0:0:0:
320,39,21564,6,0,B|330:-25|224:-75|139:81|280:136|263:89|370:158|298:260,1,385.56,6|2,1:0|2:0,2:0:0:0:
207,327,22890,6,0,P|283:344|368:370,1,167.28,8|0,1:3|2:0,2:0:0:0:
305,248,23387,2,0,P|289:204|280:158,1,83.6400000000001,8|0,2:3|2:0,2:0:0:0:
125,27,23719,1,4,2:3:0:0:
164,182,23884,2,0,P|180:138|189:92,1,83.6400000000001,4|0,2:3|2:0,2:0:0:0:
321,8,24216,6,0,B|404:34|364:62|439:94,1,146.88,6|2,1:0|2:0,2:0:0:0:
512,289,24879,2,0,L|370:250,1,146.88,2|2,2:0|2:0,2:0:0:0:
231,160,25376,1,0,2:0:0:0:
276,242,25542,6,0,P|260:286|251:332,1,73.44,2|0,1:0|2:0,2:0:0:0:
145,291,25873,1,2,2:0:0:0:
145,291,26039,2,0,P|161:335|170:381,1,73.44,0|0,1:0|2:0,2:0:0:0:
49,244,26371,2,0,P|33:288|24:334,1,73.44,2|0,2:0|1:0,2:0:0:0:
147,167,26702,5,2,2:0:0:0:
147,167,26868,2,0,P|76:144|5:128,1,146.88,0|2,1:0|2:0,2:0:0:0:
83,39,27365,1,2,2:0:0:0:
83,39,27531,2,0,P|118:48|153:60,1,73.44,2|2,2:0|2:0,2:0:0:0:
235,109,27862,2,0,P|270:99|305:87,1,73.44,2|0,2:0|2:0,2:0:0:0:
388,15,28194,6,0,B|421:86|421:86|390:148,1,146.88,2|2,1:0|2:0,2:0:0:0:
388,241,28691,2,0,P|353:229|318:220,1,73.44,0|2,1:0|2:0,2:0:0:0:
402,349,29023,2,0,P|436:337|472:327,1,73.44,2|0,2:0|1:0,2:0:0:0:
388,241,29354,1,0,2:0:0:0:
287,337,29520,6,0,P|216:315|145:298,1,146.88,2|2,1:0|2:0,2:0:0:0:
211,206,30017,2,0,P|199:171|190:136,1,73.44,2|2,2:0|2:0,2:0:0:0:
96,52,30348,2,0,P|86:87|74:122,1,73.44,2|2,2:0|2:0,2:0:0:0:
206,22,30680,5,2,2:0:0:0:
206,22,30846,2,0,B|292:33|257:67|337:86,1,146.88,0|2,1:0|2:0,2:0:0:0:
418,155,31343,2,0,P|427:119|439:84,1,73.44,0|0,1:0|2:0,2:0:0:0:
391,240,31674,2,0,P|379:274|369:310,1,73.44,2|0,2:0|1:0,2:0:0:0:
282,178,32006,1,2,2:0:0:0:
193,225,32172,6,0,P|129:205|51:186,1,146.88,2|2,1:0|2:0,2:0:0:0:
168,348,32669,1,2,2:0:0:0:
168,348,32835,2,0,P|238:326|309:309,1,146.88,2|2,2:0|2:0,2:0:0:0:
387,128,33332,5,2,2:0:0:0:
387,128,33498,2,0,P|317:143|286:207,1,146.88,0|2,1:0|2:0,2:0:0:0:
423,382,33995,1,0,1:0:0:0:
393,225,34161,2,0,P|381:259|371:295,1,73.44,0|2,1:0|2:0,2:0:0:0:
291,383,34492,2,0,P|281:347|268:312,1,73.44,2|0,2:0|2:0,2:0:0:0:
277,141,34824,6,0,B|185:147|223:210|122:216,1,167.28,6|0,1:0|1:0,2:0:0:0:
21,124,35321,1,2,2:0:0:0:
21,124,35487,2,0,P|60:108|111:94,1,83.6400000000001,0|2,1:0|2:0,2:0:0:0:
194,18,35818,2,0,P|234:29|273:44,1,83.6400000000001,0|2,1:0|2:0,2:0:0:0:
415,139,36150,5,2,1:0:0:0:
415,139,36481,2,0,P|430:178|440:218,1,83.6400000000001,0|2,1:0|2:0,2:0:0:0:
459,327,36813,1,0,1:0:0:0:
326,227,36978,1,2,2:0:0:0:
347,381,37144,2,0,P|357:340|372:301,1,83.6400000000001,0|0,1:0|2:0,2:0:0:0:
264,141,37476,6,0,P|195:144|150:228,1,167.28,0|0,1:0|1:0,2:0:0:0:
115,342,37973,2,0,P|154:328|195:317,1,83.6400000000001,2|0,2:0|1:0,2:0:0:0:
318,243,38304,2,0,P|277:233|238:218,1,83.6400000000001,2|0,2:0|1:0,2:0:0:0:
120,150,38636,1,2,2:0:0:0:
198,28,38802,6,0,B|290:34|252:97|353:103,1,167.28,0|0,1:0|1:0,2:0:0:0:
444,84,39299,1,2,2:0:0:0:
362,201,39465,1,0,1:0:0:0:
476,191,39630,1,2,2:0:0:0:
476,191,39796,2,0,P|462:228|450:278,1,83.6400000000001,0|0,1:0|2:0,2:0:0:0:
490,384,40128,6,0,P|404:356|310:332,1,167.28,2|0,1:0|1:0,2:0:0:0:
247,250,40625,1,2,2:0:0:0:
179,384,40790,2,0,P|169:343|152:291,1,83.6400000000001,0|0,2:0|2:0,2:0:0:0:
111,182,41122,1,0,1:0:0:0:
111,182,41288,1,2,2:0:0:0:
227,96,41453,6,0,B|274:176|274:176|238:252,1,167.28,2|0,1:0|1:0,2:0:0:0:
352,23,42116,2,0,P|377:99|402:193,1,167.28,0|0,1:0|2:0,2:0:0:0:
420,301,42614,1,2,2:0:0:0:
500,144,42779,5,12,2:0:0:0:
500,144,43111,1,0,1:0:0:0:
399,183,43277,1,0,1:0:0:0:
468,62,43442,1,8,2:0:0:0:
351,24,43608,1,8,2:0:0:0:
487,244,43774,1,8,2:0:0:0:
282,98,43940,1,2,1:0:0:0:
362,364,44105,1,8,2:0:0:0:
466,79,44271,1,8,2:0:0:0:
230,350,44437,6,0,P|185:334|139:324,1,93.84,8|4,2:0|2:3,2:0:0:0:
287,242,44768,1,10,2:0:0:0:
99,92,44934,1,8,2:3:0:0:
176,231,45100,2,0,P|191:186|203:124,1,93.84,2|0,1:0|2:0,2:0:0:0:
293,11,45431,6,0,B|389:30|338:71|438:108,1,167.28,6|2,1:0|2:0,2:0:0:0:
500,52,45929,1,2,1:0:0:0:
512,193,46094,2,0,P|471:202|431:216,1,83.6400000000001,8|0,2:0|2:0,2:0:0:0:
274,351,46426,1,2,1:0:0:0:
330,217,46592,6,0,P|356:296|375:377,1,167.28,0|0,1:0|2:0,2:0:0:0:
274,351,47089,2,0,P|264:310|250:270,1,83.6400000000001,2|0,2:0|1:0,2:0:0:0:
167,333,47420,2,0,P|157:292|143:252,1,83.6400000000001,10|0,2:0|2:0,2:0:0:0:
51,318,47752,2,0,P|41:277|27:237,1,83.6400000000001,2|0,2:0|2:0,2:0:0:0:
83,126,48083,6,0,P|162:99|243:80,1,167.28,0|2,1:0|2:0,2:0:0:0:
303,3,48581,1,0,1:0:0:0:
390,160,48746,2,0,P|399:119|413:79,1,83.6400000000001,8|0,2:0|2:0,2:0:0:0:
273,175,49078,1,0,1:0:0:0:
350,251,49244,6,0,B|413:279|413:279|421:309|421:309|489:342,1,167.28,2|8,2:0|2:0,2:0:0:0:
335,356,49741,1,8,2:3:0:0:
470,207,49907,1,2,1:0:0:0:
470,207,49989,1,0,1:0:0:0:
470,207,50072,1,8,2:0:0:0:
361,138,50238,1,8,1:3:0:0:
361,138,50404,2,0,P|320:146|280:160,1,83.6400000000001,4|0,2:3|2:0,2:0:0:0:
53,34,50735,5,0,1:0:0:0:
187,182,51067,1,2,2:0:0:0:
57,325,51398,1,2,2:0:0:0:
196,169,51730,1,2,2:0:0:0:
14,203,52061,6,0,P|55:211|95:225,1,83.6400000000001,2|0,2:0|2:0,2:0:0:0:
170,295,52393,2,0,P|211:287|251:273,1,83.6400000000001,2|0,2:0|2:0,2:0:0:0:
355,171,52724,1,2,2:0:0:0:
463,264,52890,1,2,2:0:0:0:
357,382,53056,1,2,2:0:0:0:
446,146,53221,5,0,1:0:0:0:
446,146,53304,1,0,1:0:0:0:
446,146,53387,2,0,P|401:159|355:170,1,93.84,14|0,2:0|1:0,2:0:0:0:
247,15,53719,1,0,1:0:0:0:
199,266,53884,2,0,P|209:220|222:175,1,93.84,14|0,2:0|1:0,2:0:0:0:
90,366,54216,1,0,1:0:0:0:
307,254,54382,1,12,2:0:0:0:
130,126,54547,6,0,P|119:80|106:35,1,93.84,0|2,1:0|2:0,2:0:0:0:
13,237,54879,1,8,2:0:0:0:
225,63,55045,2,0,P|271:74|316:87,1,93.84,0|0,1:0|1:0,2:0:0:0:
362,331,55376,1,8,2:0:0:0:
318,347,55459,1,8,2:3:0:0:
272,338,55542,1,0,1:0:0:0:
238,307,55625,1,0,1:0:0:0:
225,262,55708,1,14,2:0:0:0:
461,27,56039,5,10,2:0:0:0:
307,254,56205,1,10,2:0:0:0:
57,24,56536,5,10,2:0:0:0:
171,275,56868,1,10,2:0:0:0:
321,67,57034,5,0,1:0:0:0:
321,67,57116,1,0,1:0:0:0:
321,67,57199,2,0,P|275:53|230:43,1,93.84,14|0,2:0|2:0,2:0:0:0:
442,261,57531,1,8,2:0:0:0:
317,172,57697,2,0,P|362:158|407:148,1,93.84,8|2,2:0|2:0,2:0:0:0:
230,43,58028,1,0,1:0:0:0:
73,300,58194,5,0,1:2:0:0:
98,278,58277,1,0,1:2:0:0:
129,267,58360,1,0,1:2:0:0:
163,269,58442,1,0,1:2:0:0:
193,282,58525,1,0,1:2:0:0:
216,305,58608,1,0,1:2:0:0:
233,332,58691,6,0,B|288:311|341:348|341:348|384:326|382:279,1,195.84,6|0,1:0|2:0,2:0:0:0:
305,240,59023,2,0,P|287:192|307:145,1,104.04,10|2,2:0|2:0,2:0:0:0:
381,86,59354,1,0,1:0:0:0:
271,9,59520,1,0,1:0:0:0:
411,188,59686,2,0,P|457:172|511:161,1,104.04,8|0,2:0|2:0,2:0:0:0:
366,68,60017,5,2,1:0:0:0:
504,264,60183,1,0,1:0:0:0:
421,337,60348,2,0,P|374:321|320:310,1,104.04,8|0,2:0|2:0,2:0:0:0:
107,199,60680,1,0,1:0:0:0:
236,384,60846,1,0,1:0:0:0:
9,194,61011,6,0,P|52:111|145:107,1,195.84,8|0,2:0|2:0,2:0:0:0:
213,156,61343,2,0,P|263:144|313:130,1,104.04,2|0,1:0|2:0,2:0:0:0:
503,0,61674,1,8,2:0:0:0:
395,267,61840,2,0,P|408:216|420:166,1,104.04,2|0,2:0|1:0,2:0:0:0:
276,260,62172,1,0,1:0:0:0:
512,384,62337,1,8,2:0:0:0:
314,157,62503,6,0,P|214:182|124:207,1,195.84,2|0,1:0|2:0,2:0:0:0:
100,212,62835,1,0,1:0:0:0:
252,374,63000,2,0,P|270:326|250:279,1,104.04,10|0,2:0|2:0,2:0:0:0:
92,101,63332,1,2,1:0:0:0:
348,250,63498,1,0,1:0:0:0:
231,47,63663,2,0,P|217:97|205:147,1,104.04,10|0,2:0|2:0,2:0:0:0:
0,353,63995,6,0,B|126:295|126:295|146:312|175:332,1,195.84,6|0,1:0|2:0,2:0:0:0:
30,244,64326,2,0,P|17:193|4:143,1,104.04,8|2,2:0|2:0,2:0:0:0:
274,33,64658,1,2,1:0:0:0:
125,199,64824,1,0,1:0:0:0:
0,27,64989,2,0,P|50:40|100:52,1,104.04,8|2,2:0|2:0,2:0:0:0:
303,216,65321,5,0,1:0:0:0:
190,87,65487,1,0,1:0:0:0:
297,336,65652,2,0,P|333:300|384:299,1,104.04,8|0,2:0|2:0,2:0:0:0:
504,133,65984,1,2,1:0:0:0:
285,31,66150,1,2,1:0:0:0:
512,237,66315,2,0,P|461:235|425:199,1,104.04,8|0,2:0|2:0,2:0:0:0:
207,156,66647,6,0,P|303:130|396:105,1,195.84,2|0,1:0|2:0,2:0:0:0:
415,99,66978,1,8,2:0:0:0:
237,270,67144,2,0,P|186:257|136:244,1,104.04,2|8,2:0|2:3,2:0:0:0:
310,102,67476,1,0,1:0:0:0:
206,372,67641,1,8,2:0:0:0:
0,145,67807,6,0,P|91:163|148:89,1,195.84,6|0,1:0|2:0,2:0:0:0:
157,60,68139,1,0,1:0:0:0:
315,213,68304,2,0,P|366:200|416:187,1,104.04,8|0,2:0|2:0,2:0:0:0:
231,331,68636,1,4,1:3:0:0:
386,86,68802,5,8,2:0:0:0:
427,86,68884,1,8,2:0:0:0:
465,103,68967,1,8,2:0:0:0:
494,132,69050,1,8,2:0:0:0:
511,170,69133,1,8,2:0:0:0:
512,211,69216,1,8,2:0:0:0:
498,250,69299,6,0,P|403:275|308:301,1,195.84,6|0,1:0|2:0,2:0:0:0:
180,384,69630,2,0,P|215:348|217:297,1,104.04,8|2,2:0|2:0,2:0:0:0:
6,169,69962,1,0,1:0:0:0:
115,298,70128,1,0,1:0:0:0:
245,132,70293,2,0,P|194:145|144:157,1,104.04,8|2,2:0|2:0,2:0:0:0:
285,42,70625,6,0,P|327:69|340:118,1,104.04,2|0,1:0|1:0,2:0:0:0:
501,276,70956,1,8,2:0:0:0:
476,106,71122,2,0,P|434:133|421:182,1,104.04,2|2,2:0|1:0,2:0:0:0:
230,346,71453,1,2,2:0:0:0:
329,211,71619,2,0,P|342:262|354:312,1,104.04,8|2,2:0|2:0,2:0:0:0:
96,161,71951,6,0,P|191:172|243:94,1,195.84,2|0,1:0|2:0,2:0:0:0:
300,33,72282,2,0,P|350:45|400:57,1,104.04,8|2,2:0|2:0,2:0:0:0:
491,18,72614,1,0,1:0:0:0:
329,211,72779,1,0,1:0:0:0:
508,114,72945,2,0,P|496:164|484:214,1,104.04,8|2,2:0|2:0,2:0:0:0:
334,361,73277,6,0,P|292:331|239:334,1,104.04,2|0,1:0|1:0,2:0:0:0:
29,178,73608,1,8,2:0:0:0:
93,384,73774,2,0,P|122:342|119:289,1,104.04,2|2,2:0|1:0,2:0:0:0:
248,160,74105,1,0,1:0:0:0:
5,280,74271,2,0,P|17:230|29:180,1,104.04,10|2,2:0|2:0,2:0:0:0:
182,33,74603,6,0,P|281:59|371:83,1,195.84,6|0,1:0|2:0,2:0:0:0:
468,111,74934,2,0,P|456:61|444:11,1,104.04,10|2,2:0|2:0,2:0:0:0:
281,270,75266,1,2,1:0:0:0:
396,170,75431,1,0,1:0:0:0:
305,364,75597,2,0,P|253:365|212:336,1,104.04,10|2,2:0|2:0,2:0:0:0:
0,167,75929,5,2,1:0:0:0:
100,383,76094,1,0,1:0:0:0:
228,184,76260,2,0,P|178:196|128:208,1,104.04,10|0,2:0|2:0,2:0:0:0:
262,53,76592,1,2,1:0:0:0:
375,284,76757,1,0,1:0:0:0:
244,67,76923,2,0,P|294:79|344:91,1,104.04,8|0,2:0|2:0,2:0:0:0:
512,198,77255,6,0,P|418:201|375:284,1,195.84,6|0,1:0|2:0,2:0:0:0:
311,341,77586,2,0,P|261:329|211:315,1,104.04,10|0,2:0|2:0,2:0:0:0:
0,171,77918,1,2,1:0:0:0:
102,377,78083,1,0,1:0:0:0:
287,155,78249,1,8,2:0:0:0:
75,32,78415,6,0,P|101:128|126:221,1,195.84,6|0,1:0|2:0,2:0:0:0:
132,240,78746,1,0,1:0:0:0:
267,54,78912,2,0,P|318:52|360:82,1,104.04,10|2,2:0|2:0,2:0:0:0:
482,306,79244,1,2,1:0:0:0:
512,174,79409,5,8,2:0:0:0:
470,168,79492,1,8,2:0:0:0:
430,176,79575,1,10,2:0:0:0:
395,198,79658,1,8,2:0:0:0:
369,230,79741,1,8,2:0:0:0:
355,269,79824,1,8,2:0:0:0:
355,310,79907,6,0,P|259:336|166:361,1,195.84,6|0,1:0|2:0,2:0:0:0:
140,219,80238,2,0,P|190:233|241:246,1,104.04,8|2,2:0|2:0,2:0:0:0:
24,295,80569,1,2,1:0:0:0:
186,108,80735,1,0,1:0:0:0:
1,19,80901,2,0,P|15:69|27:119,1,104.04,8|2,2:0|2:0,2:0:0:0:
212,7,81232,6,0,P|197:57|185:107,1,104.04,2|0,1:0|1:0,2:0:0:0:
41,281,81564,2,0,P|82:251|133:253,1,104.04,8|0,2:0|2:0,2:0:0:0:
331,371,81895,1,2,1:0:0:0:
223,193,82061,1,0,1:0:0:0:
348,384,82227,2,0,P|360:333|375:283,1,104.04,8|0,2:0|2:0,2:0:0:0:
512,67,82558,6,0,B|433:89|433:89|417:125|417:125|344:145,1,195.84,2|0,1:0|2:0,2:0:0:0:
235,205,82890,2,0,P|249:155|262:104,1,104.04,8|2,2:0|2:0,2:0:0:0:
104,217,83221,1,0,1:0:0:0:
291,340,83387,1,2,1:0:0:0:
88,204,83553,1,8,2:0:0:0:
310,350,83719,6,0,B|438:296|438:296|461:321|484:349,1,195.84,2|0,2:0|2:0,2:0:0:0:
489,356,84050,1,2,2:0:0:0:
337,236,84216,2,0,P|324:185|309:135,1,104.04,10|0,2:0|2:0,2:0:0:0:
470,44,84547,2,0,P|455:93|441:144,1,104.04,2|0,1:0|2:0,2:0:0:0:
252,3,84879,2,0,P|302:15|352:30,1,104.04,10|0,2:0|2:0,2:0:0:0:
132,174,85210,6,0,P|161:102|89:131,1,195.84,6|0,1:0|2:0,2:0:0:0:
38,295,85542,2,0,P|87:280|138:267,1,104.04,8|2,2:0|2:0,2:0:0:0:
394,333,85873,1,2,1:0:0:0:
160,129,86039,1,0,2:0:0:0:
244,384,86205,2,0,P|256:333|271:283,1,104.04,8|0,2:0|2:0,2:0:0:0:
453,100,86536,5,2,1:0:0:0:
214,203,86702,1,0,1:0:0:0:
401,384,86868,2,0,P|389:333|374:283,1,104.04,8|0,2:0|2:0,2:0:0:0:
215,94,87199,1,0,1:0:0:0:
448,210,87365,1,0,1:0:0:0:
193,92,87531,2,0,P|142:104|92:119,1,104.04,8|0,2:0|2:0,2:0:0:0:
373,12,87862,6,0,P|344:105|322:200,1,195.84,2|0,1:0|2:0,2:0:0:0:
319,220,88194,1,8,2:0:0:0:
476,106,88360,2,0,P|487:156|502:206,1,104.04,0|0,1:0|1:0,2:0:0:0:
287,384,88691,1,2,1:0:0:0:
413,239,88857,1,10,2:0:0:0:
174,39,89023,6,0,P|202:132|224:227,1,195.84,6|0,1:0|2:0,2:0:0:0:
226,246,89354,1,0,1:0:0:0:
403,69,89520,2,0,P|352:80|302:95,1,104.04,10|0,2:0|2:0,2:0:0:0:
512,299,89851,2,0,P|461:287|411:272,1,104.04,8|8,1:3|2:0,2:0:0:0:
388,294,90100,1,8,2:0:0:0:
388,294,90183,2,0,L|400:344,1,52.02,8|8,2:0|2:0,2:0:0:0:
248,203,90348,2,0,L|235:253,1,52.02,8|8,2:0|2:0,2:0:0:0:
401,116,90514,6,0,P|358:33|265:29,1,195.84,6|0,1:0|2:0,2:0:0:0:
197,78,90846,2,0,P|147:66|97:52,1,104.04,8|2,2:0|2:0,2:0:0:0:
0,260,91177,2,0,P|50:245|100:233,1,104.04,0|0,1:0|1:0,2:0:0:0:
230,384,91509,2,0,P|239:333|277:299,1,104.04,8|2,2:0|2:0,2:0:0:0:
512,198,91840,6,0,P|461:183|411:171,1,104.04,0|0,1:0|2:0,2:0:0:0:
193,90,92172,1,8,2:0:0:0:
405,301,92337,1,2,2:0:0:0:
340,32,92503,2,0,P|325:82|313:132,1,104.04,2|0,1:0|1:0,2:0:0:0:
126,251,92835,2,0,P|113:200|99:150,1,104.04,8|2,2:0|2:0,2:0:0:0:
289,294,93166,6,0,P|385:268|478:243,1,195.84,2|0,1:0|2:0,2:0:0:0:
512,383,93498,2,0,P|460:369|411:357,1,104.04,10|2,2:0|2:0,2:0:0:0:
327,154,93829,1,0,1:0:0:0:
209,382,93995,1,0,1:0:0:0:
47,195,94161,1,8,2:0:0:0:
149,268,94326,6,0,P|161:217|175:167,1,104.04,2|2,2:0|1:0,2:0:0:0:
63,2,94658,2,0,P|77:52|89:102,1,104.04,0|8,1:0|2:0,2:0:0:0:
282,32,94989,2,0,P|231:44|181:58,1,104.04,2|0,2:0|1:0,2:0:0:0:
429,187,95321,2,0,P|378:174|328:160,1,104.04,0|8,1:0|2:0,2:0:0:0:
415,77,95652,1,2,2:0:0:0:
292,383,95818,6,0,P|261:263|229:150,1,228.48,6|0,1:0|1:0,2:0:0:0:
98,36,96315,1,0,2:0:0:0:
17,175,96481,2,0,P|65:191|113:175,1,104.04,0|0,1:0|1:0,2:0:0:0:
311,48,96813,2,0,P|262:31|214:48,1,104.04,8|2,2:0|2:0,2:0:0:0:
333,247,97144,5,0,1:0:0:0:
417,55,97310,1,0,1:0:0:0:
215,252,97476,1,8,2:0:0:0:
430,384,97641,1,4,2:3:0:0:
266,157,97807,5,4,1:3:0:0:
78,319,97973,1,4,1:3:0:0:
141,176,98139,1,10,2:0:0:0:
215,252,98304,1,0,2:0:0:0:
417,148,98470,6,0,B|441:120|509:69|394:-12|357:48|349:72|349:72|336:51|277:3|184:76|243:230|333:116|381:236,1,520.200000000002,14|0,2:0|2:0,2:0:0:0:
512,294,99630,5,2,2:0:0:0:
512,294,99713,1,2,2:0:0:0:
512,294,99796,2,0,B|442:260|376:322|426:347|355:402|286:374,1,260.100000000001,2|2,2:0|1:0,2:0:0:0:
269,344,100376,5,2,1:0:0:0:
269,344,100459,2,0,L|281:291,1,43.3500000000002,10|0,2:0|2:0,2:0:0:0:
345,233,100625,2,0,L|332:180,1,43.3500000000002,8|8,2:0|2:0,2:0:0:0:
339,38,100790,1,8,2:0:0:0:
317,75,100873,1,8,2:0:0:0:
282,101,100956,1,8,2:0:0:0:
241,112,101039,1,8,2:0:0:0:
198,107,101122,6,0,P|174:73|176:32,1,83.6400000000001,6|0,1:0|2:0,2:0:0:0:
41,162,101453,2,0,P|64:128|62:87,1,83.6400000000001,2|0,2:0|2:0,2:0:0:0:
224,221,101785,2,0,P|182:208|143:199,1,83.6400000000001,2|0,2:0|2:0,2:0:0:0:
13,314,102116,2,0,P|54:301|93:292,1,83.6400000000001,2|0,2:0|1:0,2:0:0:0:
172,347,102365,5,0,1:0:0:0:
172,347,102448,2,0,P|253:324|347:299,1,167.28,14|2,2:0|2:0,2:0:0:0:
417,195,102945,2,0,P|426:235|438:275,1,83.6400000000001,8|0,2:3|2:0,2:0:0:0:
504,135,103277,1,2,2:0:0:0:
335,97,103442,2,0,P|375:87|415:75,1,83.6400000000001,8|0,2:3|2:0,2:0:0:0:
236,80,103774,6,0,P|244:39|275:12,1,83.6400000000001,6|0,1:0|2:0,2:0:0:0:
158,143,104105,2,0,P|134:109|136:68,1,83.6400000000001,2|0,2:0|2:0,2:0:0:0:
163,251,104437,2,0,P|123:238|82:229,1,83.6400000000001,2|0,2:0|2:0,2:0:0:0:
165,358,104768,2,0,P|204:345|245:336,1,83.6400000000001,2|0,2:0|1:3,2:0:0:0:
354,342,105017,5,0,1:3:0:0:
354,342,105100,2,0,P|313:261|344:198,1,167.28,14|2,2:0|2:0,2:0:0:0:
504,235,105597,2,0,P|463:244|423:256,1,83.6400000000001,12|0,2:3|2:0,2:0:0:0:
332,76,105929,1,4,1:3:0:0:
427,158,106094,2,0,P|436:117|448:77,1,83.6400000000001,4|0,1:3|2:0,2:0:0:0:
288,259,106426,6,0,P|143:217|4:182,1,293.76,14|2,2:0|2:0,2:0:0:0:
173,10,107586,5,2,2:0:0:0:
257,137,107752,2,0,P|266:96|278:56,1,83.6400000000001,4|0,1:0|2:0,2:0:0:0:
170,194,108083,2,0,P|161:153|149:113,1,83.6400000000001,2|0,2:0|2:0,2:0:0:0:
57,210,108415,1,2,2:0:0:0:
182,338,108581,1,0,1:0:0:0:
182,338,108663,1,0,1:0:0:0:
182,338,108746,2,0,P|239:319|322:300,1,125.46,14|0,2:0|2:0,2:0:0:0:
377,373,109078,6,0,P|386:332|398:292,1,83.6400000000001,6|0,1:0|2:0,2:0:0:0:
483,185,109409,2,0,P|474:144|462:104,1,83.6400000000001,0|10,1:0|2:0,2:0:0:0:
216,20,109741,1,8,2:0:0:0:
344,157,109907,1,8,2:0:0:0:
176,295,110072,1,8,2:0:0:0:
365,145,110238,1,8,2:0:0:0:
124,0,110404,6,0,P|133:41|145:81,1,83.6400000000001,6|0,1:0|2:0,2:0:0:0:
21,197,110735,1,10,2:0:0:0:
255,64,110901,2,0,P|242:104|234:144,1,83.6400000000001,6|0,1:0|2:0,2:0:0:0:
347,293,111232,1,0,1:0:0:0:
144,179,111398,2,0,P|156:219|164:259,1,83.6400000000001,8|0,2:0|2:0,2:0:0:0:
238,361,111730,6,0,P|192:370|147:385,1,93.84,6|0,1:0|2:0,2:0:0:0:
349,293,112061,2,0,P|303:283|258:268,1,93.84,0|2,1:0|2:0,2:0:0:0:
428,213,112393,2,0,P|454:250|453:296,1,93.84,2|0,1:0|2:0,2:0:0:0:
319,188,112724,2,0,P|317:141|344:104,1,93.84,2|0,1:0|2:0,2:0:0:0:
472,48,113056,6,0,P|380:22|290:0,1,187.68,2|2,1:0|1:0,2:0:0:0:
186,104,113553,2,0,P|176:57|162:13,1,93.84,2|0,2:0|1:0,2:0:0:0:
3,154,113884,1,2,2:0:0:0:
80,246,114050,2,0,P|89:199|103:155,1,93.84,0|0,1:0|2:0,2:0:0:0:
154,339,114382,6,0,P|107:337|69:363,1,93.84,6|0,1:0|2:0,2:0:0:0:
232,183,114713,1,2,1:0:0:0:
325,310,114879,2,0,P|278:311|240:285,1,93.84,2|0,2:0|1:0,2:0:0:0:
441,223,115210,2,0,P|450:268|464:313,1,93.84,2|0,2:0|1:0,2:0:0:0:
359,113,115542,6,0,P|349:158|335:203,1,93.84,2|0,2:0|1:0,2:0:0:0:
293,21,115873,1,2,2:0:0:0:
464,115,116039,1,2,1:0:0:0:
272,19,116205,2,0,P|226:28|181:42,1,93.84,2|0,2:0|1:0,2:0:0:0:
20,212,116536,1,0,1:0:0:0:
52,21,116702,2,0,P|65:65|76:111,1,93.84,8|0,2:0|2:0,2:0:0:0:
226,249,117034,6,0,P|300:226|376:208,1,156.06,6|0,1:0|2:0,2:0:0:0:
410,201,117365,1,8,2:0:0:0:
323,124,117531,1,0,2:0:0:0:
393,49,117697,1,0,1:0:0:0:
181,145,117862,1,0,1:0:0:0:
253,33,118028,1,2,1:0:0:0:
41,167,118194,1,0,1:0:0:0:
106,63,118360,5,8,2:0:0:0:
239,268,118525,1,0,1:0:0:0:
105,372,118691,1,8,2:0:0:0:
192,162,118857,1,2,2:0:0:0:
343,347,119023,1,10,2:0:0:0:
239,268,119188,1,0,1:0:0:0:
355,159,119354,2,0,P|342:203|331:249,1,93.84,8|0,2:0|2:0,2:0:0:0:
477,113,119686,6,0,P|385:34|268:67,1,252.96,6|0,1:0|2:0,2:0:0:0:
61,279,120846,5,0,2:0:0:0:
173,319,121011,2,0,P|155:249|137:176,1,146.88,2|0,2:0|2:0,2:0:0:0:
35,107,121509,2,0,P|70:96|105:87,1,73.4399999999999,4|0,2:3|2:0,2:0:0:0:
301,112,121840,1,8,2:3:0:0:
182,0,122006,2,0,P|192:35|201:70,1,73.4399999999999,4|0,2:3|2:0,2:0:0:0:
167,147,122337,5,6,2:0:0:0:
256,192,122420,12,0,126813,2:0:0:0:
