osu file format v14

[General]
AudioFilename: audio.mp3
AudioLeadIn: 0
PreviewTime: 57779
Countdown: 0
SampleSet: Soft
StackLeniency: 0.5
Mode: 0
LetterboxInBreaks: 0
EpilepsyWarning: 1
WidescreenStoryboard: 1

[Editor]
DistanceSpacing: 1.4
BeatDivisor: 4
GridSize: 32
TimelineZoom: 1.9

[Metadata]
Title:Sakura, Reincarnation
TitleUnicode:さくら、Reincarnation
Artist:Sasaki Sayaka
ArtistUnicode:佐咲紗花
Creator:EnuHQ
Version:MajK00's Hard
Source:さくら、もゆ。-as the Night's, Reincarnation-
Tags:山本美禰子 Yamamoto Mineko 石倉誉之 Ishikura Takashi 小高光太郎 Kodaka Koutarou favorite opening galgame eroge visual novel winter favorite moyu japanese female vocal video game pop j-pop jpop MajK00 Ninjaking311 AsuKow ohm002
BeatmapID:3602620
BeatmapSetID:1742473

[Difficulty]
HPDrainRate:4
CircleSize:3.6
OverallDifficulty:6.8
ApproachRate:8
SliderMultiplier:1.47
SliderTickRate:1

[Events]
//Background and Video events
0,0,"background gaming.jpg",0,0
//Break Periods
//Storyboard Layer 0 (Background)
//Storyboard Layer 1 (Fail)
//Storyboard Layer 2 (Pass)
//Storyboard Layer 3 (Foreground)
//Storyboard Layer 4 (Overlay)
//Storyboard Sound Samples

[TimingPoints]
349,331.491712707182,4,2,1,50,1,0
3000,-125,4,2,1,50,0,0
21564,-125,4,2,1,40,0,0
24216,-125,4,2,1,50,0,0
58691,-90.9090909090909,4,2,1,75,0,0
98470,-142.857142857143,4,2,1,50,0,0
100459,-125,4,2,1,50,0,0
119686,-125,4,2,1,40,0,0
122337,-125,4,2,1,50,0,0
126813,-125,4,2,1,15,0,0

[Colours]
Combo1 : 255,111,111
Combo2 : 163,252,238
Combo3 : 222,253,130

[HitObjects]
256,192,349,12,8,2669,2:3:0:0:
51,213,3000,6,0,P|108:225|165:241,1,117.6,6|2,1:0|2:0,2:0:0:0:
271,335,3663,2,0,P|327:319|385:306,1,117.6,2|2,2:0|2:0,2:0:0:0:
470,292,4161,5,0,1:0:0:0:
470,292,4244,1,0,1:0:0:0:
470,292,4326,2,0,P|507:249|494:194,1,117.6,14|2,2:0|2:0,2:0:0:0:
416,168,4824,2,0,L|387:53,1,117.6,8|2,1:3|2:0,2:0:0:0:
315,14,5321,2,0,P|285:5|257:-1,1,58.8,4|0,1:3|2:0,2:0:0:0:
261,97,5652,6,0,P|204:112|146:125,1,117.6,6|2,1:0|2:0,2:0:0:0:
0,109,6315,2,0,P|51:132|54:187,1,117.6,2|2,2:0|2:0,2:0:0:0:
0,270,6813,5,0,1:3:0:0:
0,270,6895,1,0,1:3:0:0:
0,270,6978,2,0,L|114:298,1,117.6,12|2,2:0|1:0,2:0:0:0:
161,222,7476,2,0,P|200:263|201:321,1,117.6,12|4,2:3|1:3,2:0:0:0:
266,369,7973,2,0,L|323:354,1,58.8,4|0,1:3|2:0,2:0:0:0:
401,384,8304,6,0,L|429:269,1,117.6,6|0,1:0|2:0,2:0:0:0:
512,179,8967,2,0,L|483:64,1,117.6,2|0,2:0|2:0,2:0:0:0:
433,3,9465,1,2,2:0:0:0:
366,55,9630,6,0,P|309:62|262:28,2,117.6,6|2|2,1:0|2:0|2:0,2:0:0:0:
414,130,10459,1,0,1:0:0:0:
414,130,10542,1,0,1:0:0:0:
414,130,10625,2,0,L|399:187,1,58.8,10|0,2:0|2:0,2:0:0:0:
374,274,10956,6,0,P|316:287|259:302,1,117.6,6|8,1:0|2:0,2:0:0:0:
188,356,11453,1,10,2:0:0:0:
188,356,11619,2,0,L|131:370,1,58.8,8|8,2:0|2:0,2:0:0:0:
43,349,11951,1,8,2:0:0:0:
0,272,12116,1,8,2:0:0:0:
67,209,12282,6,0,L|38:94,1,117.6,6|8,1:0|2:0,2:0:0:0:
40,3,12779,2,0,P|95:19|127:66,1,117.6,2|2,1:0|1:0,2:0:0:0:
144,151,13277,2,0,P|172:157|201:165,1,58.8,8|0,2:0|2:0,2:0:0:0:
244,84,13608,6,0,P|301:70|358:55,1,117.6,6|0,1:0|1:0,2:0:0:0:
512,0,14271,2,0,P|504:28|497:57,1,58.8,2|0,1:0|2:0,2:0:0:0:
452,132,14603,2,0,P|453:161|466:187,1,58.8,2|0,1:0|2:0,2:0:0:0:
512,264,14934,6,0,L|397:292,1,117.6,2|2,1:0|1:0,2:0:0:0:
349,360,15431,2,0,L|291:345,1,58.8,2|0,2:0|1:0,2:0:0:0:
214,384,15763,2,0,L|185:269,1,117.6,2|0,2:0|2:0,2:0:0:0:
86,284,16260,6,0,L|114:169,1,117.6,6|2,1:0|2:0,2:0:0:0:
66,102,16757,2,0,P|92:89|121:87,1,58.8,2|0,2:0|1:0,2:0:0:0:
168,16,17089,2,0,P|194:28|223:30,1,58.8,2|0,2:0|1:0,2:0:0:0:
322,0,17420,6,0,L|307:57,1,58.8,2|0,2:0|1:0,2:0:0:0:
288,138,17752,1,2,2:0:0:0:
288,138,17918,1,2,1:0:0:0:
370,119,18083,2,0,L|427:104,2,58.8,2|0|0,2:0|1:0|1:0,2:0:0:0:
392,201,18581,2,0,L|449:186,1,58.8,8|0,2:0|2:0,2:0:0:0:
474,272,18912,6,0,B|427:283|427:283|411:303|411:303|369:314,2,117.6,6|0|0,1:0|1:0|1:0,2:0:0:0:
313,247,19907,2,0,L|255:232,1,58.8,2|0,1:0|1:0,2:0:0:0:
196,179,20238,5,8,2:0:0:0:
196,179,20404,1,0,1:0:0:0:
263,136,20569,2,0,L|320:121,1,58.8,8|0,2:0|1:0,2:0:0:0:
380,68,20901,1,8,2:0:0:0:
380,68,21067,1,4,1:3:0:0:
313,25,21232,2,0,L|255:10,1,58.8,8|0,2:0|2:0,2:0:0:0:
196,75,21564,5,6,1:0:0:0:
175,262,22890,6,0,L|146:376,1,117.6,8|0,1:3|2:0,2:0:0:0:
57,384,23387,1,8,2:3:0:0:
100,224,23719,1,4,2:3:0:0:
100,224,23884,2,0,L|114:166,1,58.8,4|0,2:3|2:0,2:0:0:0:
73,92,24216,2,0,B|138:61|198:97|169:133|227:168|283:144,1,235.2,6|2,1:0|2:0,2:0:0:0:
509,4,25376,5,0,2:0:0:0:
509,4,25542,2,0,L|494:61,1,58.8,2|0,1:0|2:0,2:0:0:0:
417,87,25873,1,2,2:0:0:0:
417,87,26039,2,0,L|431:144,1,58.8,0|0,1:0|2:0,2:0:0:0:
505,184,26371,2,0,L|489:246,1,58.8,2|0,2:0|1:0,2:0:0:0:
476,324,26702,1,2,2:0:0:0:
476,324,26868,2,0,P|361:350|247:378,1,235.2,0|2,1:0|2:0,2:0:0:0:
94,384,27862,6,0,P|98:354|108:327,1,58.8,2|0,2:0|2:0,2:0:0:0:
186,267,28194,2,0,P|169:210|157:152,1,117.6,2|2,1:0|2:0,2:0:0:0:
80,123,28691,2,0,L|22:108,1,58.8,0|2,1:0|2:0,2:0:0:0:
37,27,29023,2,0,L|94:41,1,58.8,2|0,2:0|1:0,2:0:0:0:
171,63,29354,1,0,2:0:0:0:
171,63,29520,2,0,P|284:32|399:6,1,235.2,2|2,1:0|2:0,2:0:0:0:
512,180,30680,5,2,2:0:0:0:
512,180,30846,2,0,L|498:238,1,58.8,0|0,1:0|2:0,2:0:0:0:
415,249,31177,1,2,2:0:0:0:
415,249,31343,2,0,P|387:259|358:263,1,58.8,0|0,1:0|2:0,2:0:0:0:
311,194,31674,2,0,P|283:183|254:179,1,58.8,2|0,2:0|1:0,2:0:0:0:
209,113,32006,1,2,2:0:0:0:
209,113,32172,6,0,B|160:136|115:136|115:136|91:172|91:172|42:171|0:194,1,235.2,2|2,1:0|2:0,2:0:0:0:
82,351,33332,5,2,2:0:0:0:
81,351,33498,2,0,P|139:338|196:324,1,117.6,0|2,1:0|2:0,2:0:0:0:
235,251,33995,1,0,1:0:0:0:
235,251,34161,2,0,P|263:259|291:266,1,58.8,0|2,1:0|2:0,2:0:0:0:
353,323,34492,2,0,L|410:308,1,58.8,2|0,2:0|2:0,2:0:0:0:
466,374,34824,6,0,P|496:325|491:264,1,117.6,6|0,1:0|1:0,2:0:0:0:
417,226,35321,2,0,L|431:168,1,58.8,2|0,2:0|1:0,2:0:0:0:
482,102,35652,2,0,L|467:44,1,58.8,2|0,2:0|1:0,2:0:0:0:
381,37,35984,1,2,2:0:0:0:
381,37,36150,6,0,L|395:94,1,58.8,2|0,1:0|2:0,2:0:0:0:
303,89,36481,2,0,P|245:90|195:61,1,117.6,0|0,1:0|1:0,2:0:0:0:
129,14,36978,1,2,2:0:0:0:
129,14,37144,2,0,L|71:28,1,58.8,0|0,1:0|2:0,2:0:0:0:
115,111,37476,6,0,P|100:167|86:225,1,117.6,0|0,1:0|1:0,2:0:0:0:
67,312,37973,2,0,L|124:297,1,58.8,2|0,2:0|1:0,2:0:0:0:
173,224,38304,2,0,L|230:238,1,58.8,2|0,2:0|1:0,2:0:0:0:
278,308,38636,1,2,2:0:0:0:
278,308,38802,6,0,P|311:260|305:203,1,117.6,0|0,1:0|1:0,2:0:0:0:
254,133,39299,1,2,2:0:0:0:
254,133,39465,2,0,L|311:118,1,58.8,0|2,1:0|2:0,2:0:0:0:
365,55,39796,2,0,L|422:69,1,58.8,0|0,1:0|2:0,2:0:0:0:
498,15,40128,6,0,L|512:73,1,58.8,2|0,1:0|2:0,2:0:0:0:
464,145,40459,1,0,1:0:0:0:
464,145,40625,2,0,L|433:269,1,117.6,2|0,2:0|2:0,2:0:0:0:
422,340,41122,1,0,1:0:0:0:
422,340,41288,6,0,P|363:347|308:367,1,117.6,2|0,2:0|2:0,2:0:0:0:
254,310,41785,2,0,P|225:303|196:295,1,58.8,0|0,1:0|2:0,2:0:0:0:
107,306,42116,6,0,P|101:348|125:384,2,88.2,0|0|2,1:0|2:0|2:0,2:0:0:0:
140,225,42779,6,0,L|111:110,1,117.6,12|0,2:0|1:0,2:0:0:0:
92,34,43277,1,0,1:0:0:0:
170,44,43442,2,0,L|227:58,1,58.8,8|8,2:0|2:0,2:0:0:0:
237,144,43774,2,0,L|294:129,1,58.8,8|2,2:0|1:0,2:0:0:0:
345,50,44105,2,0,L|402:64,1,58.8,8|8,2:0|2:0,2:0:0:0:
455,151,44437,2,0,L|512:136,1,58.8,8|4,2:0|2:3,2:0:0:0:
482,234,44768,5,10,2:0:0:0:
393,209,44934,1,8,2:3:0:0:
368,295,45100,2,0,L|310:309,1,58.8,2|0,1:0|2:0,2:0:0:0:
249,374,45431,6,0,P|193:355|135:345,1,117.6,6|2,1:0|2:0,2:0:0:0:
56,338,45929,1,2,1:0:0:0:
56,338,46094,2,0,P|50:309|41:281,1,58.8,8|0,2:0|2:0,2:0:0:0:
45,201,46426,1,2,1:0:0:0:
45,201,46592,2,0,B|110:189|99:232|156:229,1,117.6,0|0,1:0|2:0,2:0:0:0:
238,221,47089,6,0,P|267:220|294:206,1,58.8,2|0,2:0|1:0,2:0:0:0:
327,131,47420,2,0,P|311:106|286:88,1,58.8,10|0,2:0|2:0,2:0:0:0:
204,98,47752,2,0,P|190:123|187:154,1,58.8,2|0,2:0|2:0,2:0:0:0:
238,221,48083,6,0,P|253:277|265:335,1,117.6,0|2,1:0|2:0,2:0:0:0:
345,309,48581,1,0,1:0:0:0:
345,309,48746,2,0,P|371:315|402:323,1,58.8,8|0,2:0|2:0,2:0:0:0:
490,339,49078,1,0,1:0:0:0:
490,339,49244,6,0,L|459:214,1,117.6,2|8,2:0|2:0,2:0:0:0:
402,159,49741,2,0,P|406:129|416:102,1,58.8,8|2,2:3|1:0,2:0:0:0:
457,31,50072,1,8,2:0:0:0:
457,31,50238,1,8,1:3:0:0:
368,33,50404,2,0,L|310:47,1,58.8,4|0,2:3|2:0,2:0:0:0:
261,132,50735,6,0,P|207:107|149:103,1,117.6,0|2,1:0|2:0,2:0:0:0:
51,249,51398,2,0,L|165:220,1,117.6,2|2,2:0|2:0,2:0:0:0:
262,359,52061,2,0,P|203:355|147:330,1,117.6,2|2,2:0|2:0,2:0:0:0:
71,149,52724,6,0,L|56:92,1,58.8,2|2,2:0|2:0,2:0:0:0:
38,13,53056,1,2,2:0:0:0:
125,45,53221,1,0,1:0:0:0:
125,45,53304,1,0,1:0:0:0:
125,45,53387,6,0,P|154:40|181:30,1,58.8,14|0,2:0|1:0,2:0:0:0:
266,0,53719,1,0,1:0:0:0:
249,89,53884,2,0,L|306:103,1,58.8,14|0,2:0|1:0,2:0:0:0:
391,100,54216,1,0,1:0:0:0:
358,181,54382,2,0,P|331:193|302:195,1,58.8,12|0,2:0|1:0,2:0:0:0:
209,176,54713,6,0,L|223:233,1,58.8,2|8,2:0|2:0,2:0:0:0:
132,258,55045,2,0,L|117:200,1,58.8,0|0,1:0|1:0,2:0:0:0:
63,133,55376,1,8,2:0:0:0:
32,224,55542,1,0,1:0:0:0:
32,224,55625,1,0,1:0:0:0:
32,224,55708,2,0,L|17:281,1,58.8,14|0,2:0|2:0,2:0:0:0:
0,376,56039,5,10,2:0:0:0:
95,338,56205,1,10,2:0:0:0:
276,384,56536,5,10,2:0:0:0:
217,240,56868,5,10,2:0:0:0:
292,295,57034,1,0,1:0:0:0:
292,295,57116,1,0,1:0:0:0:
292,295,57199,2,0,L|349:280,1,58.8,14|0,2:0|2:0,2:0:0:0:
432,261,57531,1,8,2:0:0:0:
376,198,57697,1,8,2:0:0:0:
397,36,58194,5,0,1:2:0:0:
397,36,58277,1,0,1:2:0:0:
397,36,58360,2,0,L|405:64,3,29.4,0|0|0|0,1:2|1:2|1:2|1:2,2:0:0:0:
416,93,58691,6,0,P|486:78|512:-3,2,161.7,6|10|0,1:0|2:0|1:0,2:0:0:0:
341,137,59520,1,0,1:0:0:0:
330,49,59686,2,0,P|294:30|254:28,1,80.85,8|0,2:0|2:0,2:0:0:0:
184,78,60017,6,0,L|164:156,1,80.85,2|0,1:0|1:0,2:0:0:0:
210,238,60348,2,0,B|176:253|145:253|145:253|128:278|128:278|94:278|65:293,1,161.7,8|0,2:0|1:0,2:0:0:0:
0,240,60846,1,0,1:0:0:0:
67,187,61011,2,0,L|86:108,1,80.85,8|0,2:0|2:0,2:0:0:0:
184,78,61343,6,0,P|263:64|340:39,1,161.7,2|8,1:0|2:0,2:0:0:0:
425,0,61840,2,0,P|445:34|445:74,1,80.85,2|0,2:0|1:0,2:0:0:0:
428,158,62172,1,0,1:0:0:0:
503,206,62337,1,8,2:0:0:0:
442,279,62503,6,0,B|396:257|354:282|375:307|334:331|295:315,1,161.7,2|0,1:0|1:0,2:0:0:0:
239,246,63000,2,0,L|160:265,1,80.85,10|0,2:0|2:0,2:0:0:0:
96,331,63332,1,2,1:0:0:0:
28,275,63498,1,0,1:0:0:0:
92,219,63663,2,0,P|109:182|109:142,1,80.85,10|0,2:0|2:0,2:0:0:0:
32,76,63995,6,0,L|188:36,2,161.7,6|8|2,1:0|2:0|1:0,2:0:0:0:
16,162,64824,1,0,1:0:0:0:
92,219,64989,2,0,L|170:238,1,80.85,8|2,2:0|2:0,2:0:0:0:
257,262,65321,5,0,1:0:0:0:
235,172,65487,1,0,1:0:0:0:
320,187,65652,2,0,P|337:108|359:30,1,161.7,8|2,2:0|1:0,2:0:0:0:
443,0,66150,1,2,1:0:0:0:
437,82,66315,2,0,P|447:121|456:160,1,80.85,8|0,2:0|2:0,2:0:0:0:
512,254,66647,6,0,P|435:257|405:327,1,161.7,2|8,1:0|2:0,2:0:0:0:
335,383,67144,2,0,L|256:363,1,80.85,2|8,2:0|2:3,2:0:0:0:
181,330,67476,1,0,1:0:0:0:
245,267,67641,1,8,2:0:0:0:
161,220,67807,6,0,P|82:238|4:259,1,161.7,6|0,1:0|1:0,2:0:0:0:
23,162,68304,2,0,L|101:142,1,80.85,8|0,2:0|2:0,2:0:0:0:
182,119,68636,1,4,1:3:0:0:
169,26,68802,1,8,2:0:0:0:
169,26,68884,1,8,2:0:0:0:
169,26,68967,2,0,L|207:35,3,40.425,8|8|8|8,2:0|2:0|2:0|2:0,2:0:0:0:
233,42,69299,6,0,L|389:2,2,161.7,6|8|0,1:0|2:0|1:0,2:0:0:0:
182,119,70128,1,0,1:0:0:0:
267,137,70293,2,0,P|287:171|287:211,1,80.85,8|2,2:0|2:0,2:0:0:0:
224,290,70625,6,0,P|262:301|302:309,1,80.85,2|0,1:0|1:0,2:0:0:0:
362,378,70956,1,8,2:0:0:0:
404,299,71122,2,0,P|442:287|482:279,1,80.85,2|2,2:0|1:0,2:0:0:0:
512,189,71453,1,2,2:0:0:0:
425,198,71619,2,0,P|386:187|356:160,1,80.85,8|2,2:0|2:0,2:0:0:0:
368,52,71951,6,0,B|402:67|433:67|433:67|450:92|450:92|484:92|513:107,2,161.7,2|8|0,1:0|2:0|1:0,2:0:0:0:
291,102,72779,1,0,1:0:0:0:
242,25,72945,2,0,P|201:24|166:42,1,80.85,8|2,2:0|2:0,2:0:0:0:
160,141,73277,6,0,P|124:123|84:123,1,80.85,2|0,1:0|1:0,2:0:0:0:
21,190,73608,1,8,2:0:0:0:
108,215,73774,2,0,L|127:293,1,80.85,2|2,2:0|1:0,2:0:0:0:
150,378,74105,1,0,1:0:0:0:
217,318,74271,2,0,L|295:337,1,80.85,10|2,2:0|2:0,2:0:0:0:
388,380,74603,6,0,P|441:323|423:248,2,161.7,6|10|2,1:0|2:0|1:0,2:0:0:0:
296,351,75431,1,0,1:0:0:0:
331,262,75597,2,0,L|311:183,1,80.85,10|2,2:0|2:0,2:0:0:0:
224,133,75929,6,0,P|186:120|146:113,1,80.85,2|0,1:0|1:0,2:0:0:0:
171,21,76260,2,0,P|210:32|249:41,1,80.85,10|0,2:0|2:0,2:0:0:0:
344,13,76592,1,2,1:0:0:0:
305,104,76757,1,0,1:0:0:0:
395,84,76923,2,0,P|422:112|433:151,1,80.85,8|0,2:0|2:0,2:0:0:0:
356,219,77255,6,0,P|434:237|512:258,2,161.7,6|10|2,1:0|2:0|1:0,2:0:0:0:
266,197,78083,1,0,1:0:0:0:
294,280,78249,1,8,2:0:0:0:
209,321,78415,6,0,B|163:299|121:324|142:349|101:373|62:357,1,161.7,6|0,1:0|1:0,2:0:0:0:
16,289,78912,2,0,L|35:210,1,80.85,10|2,2:0|2:0,2:0:0:0:
58,117,79244,1,2,1:0:0:0:
128,186,79409,1,8,2:0:0:0:
128,186,79492,1,8,2:0:0:0:
128,186,79575,2,0,L|190:170,3,40.425,10|8|8|8,2:0|2:0|2:0|2:0,2:0:0:0:
193,171,79907,6,0,B|257:186|257:186|280:213|280:213|338:229,2,161.7,6|8|2,1:0|2:0|1:0,2:0:0:0:
144,88,80735,1,0,1:0:0:0:
235,88,80901,2,0,L|313:68,1,80.85,8|2,2:0|2:0,2:0:0:0:
400,0,81232,6,0,P|399:39|420:73,1,80.85,2|0,1:0|1:0,2:0:0:0:
499,131,81564,2,0,P|478:165|478:204,1,80.85,8|0,2:0|2:0,2:0:0:0:
504,297,81895,1,2,1:0:0:0:
411,252,82061,1,0,1:0:0:0:
431,345,82227,2,0,L|352:364,1,80.85,8|0,2:0|2:0,2:0:0:0:
281,306,82558,6,0,P|273:230|341:194,2,161.7,2|8|0,1:0|2:0|1:0,2:0:0:0:
235,384,83387,1,2,1:0:0:0:
192,302,83553,1,8,2:0:0:0:
116,348,83719,6,0,P|75:348|40:329,1,80.85,2|0,2:0|2:0,2:0:0:0:
16,239,84050,1,2,2:0:0:0:
108,260,84216,2,0,L|127:181,1,80.85,10|0,2:0|2:0,2:0:0:0:
158,89,84547,1,2,1:0:0:0:
209,165,84713,1,0,2:0:0:0:
252,84,84879,2,0,L|330:64,1,80.85,10|0,2:0|2:0,2:0:0:0:
430,27,85210,6,0,P|408:105|390:183,2,161.7,6|8|2,1:0|2:0|1:0,2:0:0:0:
330,63,86039,1,0,2:0:0:0:
266,0,86205,2,0,P|225:0|189:17,1,80.85,8|0,2:0|2:0,2:0:0:0:
196,123,86536,6,0,L|117:103,1,80.85,2|0,1:0|1:0,2:0:0:0:
20,72,86868,2,0,P|40:150|59:228,1,161.7,8|0,2:0|1:0,2:0:0:0:
82,312,87365,1,0,1:0:0:0:
148,245,87531,2,0,P|186:256|226:265,1,80.85,8|0,2:0|2:0,2:0:0:0:
283,351,87862,6,0,P|321:339|361:331,1,80.85,2|0,1:0|2:0,2:0:0:0:
449,366,88194,1,8,2:0:0:0:
512,291,88360,2,0,P|510:250|491:215,1,80.85,0|0,1:0|1:0,2:0:0:0:
423,278,88691,1,2,1:0:0:0:
398,189,88857,1,10,2:0:0:0:
313,253,89023,6,0,B|275:250|248:235|248:235|221:249|221:249|191:233|159:233,1,161.7,6|0,1:0|1:0,2:0:0:0:
86,293,89520,2,0,P|66:257|66:217,1,80.85,10|0,2:0|2:0,2:0:0:0:
87,124,89851,1,8,1:3:0:0:
184,155,90017,1,8,2:0:0:0:
184,155,90100,1,8,2:0:0:0:
184,155,90183,2,0,L|223:145,3,40.425,8|8|8|8,2:0|2:0|2:0|2:0,2:0:0:0:
247,134,90514,6,0,P|325:154|403:173,2,161.7,6|8|0,1:0|2:0|1:0,2:0:0:0:
187,58,91343,1,0,1:0:0:0:
282,55,91509,2,0,P|322:54|358:37,1,80.85,8|2,2:0|2:0,2:0:0:0:
458,0,91840,6,0,L|438:78,1,80.85,0|0,1:0|2:0,2:0:0:0:
412,165,92172,1,8,2:0:0:0:
493,200,92337,2,0,L|512:278,1,80.85,2|2,2:0|1:0,2:0:0:0:
479,364,92669,1,0,1:0:0:0:
415,301,92835,2,0,P|380:281|340:280,1,80.85,8|2,2:0|2:0,2:0:0:0:
262,348,93166,6,0,P|244:269|222:191,2,161.7,2|10|0,1:0|2:0|1:0,2:0:0:0:
173,384,93995,1,0,1:0:0:0:
149,297,94161,1,8,2:0:0:0:
54,305,94326,6,0,L|73:226,1,80.85,2|2,2:0|1:0,2:0:0:0:
19,143,94658,2,0,L|0:64,1,80.85,0|8,1:0|2:0,2:0:0:0:
80,2,94989,2,0,P|119:1|154:21,1,80.85,2|0,2:0|1:0,2:0:0:0:
209,96,95321,2,0,P|248:96|283:76,1,80.85,0|8,1:0|2:0,2:0:0:0:
339,6,95652,1,2,2:0:0:0:
392,101,95818,6,0,P|381:139|372:179,1,80.85,6|0,1:0|2:0,2:0:0:0:
425,266,96150,2,0,P|384:267|348:284,1,80.85,0|0,1:0|2:0,2:0:0:0:
306,366,96481,2,0,P|269:349|229:347,1,80.85,0|0,1:0|1:0,2:0:0:0:
142,384,96813,2,0,P|133:344|123:305,1,80.85,8|2,2:0|2:0,2:0:0:0:
207,244,97144,6,0,P|216:204|226:165,1,80.85,0|0,1:0|1:0,2:0:0:0:
249,75,97476,1,8,2:0:0:0:
155,102,97641,1,4,2:3:0:0:
155,102,97724,1,0,2:0:0:0:
155,102,97807,2,0,L|76:121,1,80.85,4|4,1:3|1:3,2:0:0:0:
56,35,98139,2,0,L|134:15,1,80.85,10|0,2:0|2:0,2:0:0:0:
238,66,98470,6,0,B|315:28|399:88|346:121|427:175|513:135,1,308.7,14|0,2:0|2:0,2:0:0:0:
464,21,99796,5,2,2:0:0:0:
288,158,100293,1,2,1:0:0:0:
288,158,100376,1,2,1:0:0:0:
288,158,100459,2,0,L|302:215,1,58.8,10|8,2:0|2:0,2:0:0:0:
319,247,100708,1,8,2:0:0:0:
319,247,100790,2,0,L|347:254,3,29.4,8|8|8|8,2:0|2:0|2:0|2:0,2:0:0:0:
372,261,101122,6,0,L|400:375,1,117.6,6|2,1:0|2:0,2:0:0:0:
480,234,101785,2,0,L|508:119,1,117.6,2|2,2:0|2:0,2:0:0:0:
451,47,102282,5,0,1:0:0:0:
451,47,102365,1,0,1:0:0:0:
451,47,102448,2,0,P|394:63|336:75,1,117.6,14|2,2:0|2:0,2:0:0:0:
266,20,102945,2,0,P|238:9|209:5,1,58.8,8|0,2:3|2:0,2:0:0:0:
167,86,103277,1,2,2:0:0:0:
167,86,103442,2,0,P|137:89|110:100,1,58.8,8|0,2:3|2:0,2:0:0:0:
14,84,103774,6,0,P|30:140|42:198,1,117.6,6|2,1:0|2:0,2:0:0:0:
148,318,104437,2,0,P|160:260|176:203,1,117.6,2|2,2:0|2:0,2:0:0:0:
231,132,104934,5,0,1:3:0:0:
231,132,105017,1,0,1:3:0:0:
231,132,105100,2,0,P|289:129|342:105,1,117.6,14|2,2:0|2:0,2:0:0:0:
416,54,105597,2,0,L|473:68,1,58.8,12|0,2:3|2:0,2:0:0:0:
476,162,105929,1,4,1:3:0:0:
476,162,106094,2,0,L|418:147,1,58.8,4|0,1:3|2:0,2:0:0:0:
347,190,106426,6,0,P|373:242|376:300,1,117.6,14|0,2:0|2:0,2:0:0:0:
209,384,107089,2,0,P|211:325|238:273,1,117.6,2|0,2:0|2:0,2:0:0:0:
259,184,107586,1,2,2:0:0:0:
171,216,107752,6,0,P|113:228|56:244,2,117.6,4|2|2,1:0|2:0|2:0,2:0:0:0:
193,126,108581,1,0,1:0:0:0:
193,126,108663,1,0,1:0:0:0:
193,126,108746,2,0,L|135:111,1,58.8,14|0,2:0|2:0,2:0:0:0:
192,31,109078,6,0,P|239:-1|297:0,1,117.6,6|0,1:0|1:0,2:0:0:0:
347,66,109575,1,10,2:0:0:0:
405,4,109741,1,8,2:0:0:0:
469,60,109907,2,0,L|454:117,1,58.8,8|8,2:0|2:0,2:0:0:0:
421,191,110238,1,8,2:0:0:0:
343,158,110404,6,0,P|288:174|270:228,1,117.6,6|10,1:0|2:0,2:0:0:0:
328,306,110901,2,0,P|270:315|214:334,1,117.6,6|0,1:0|1:0,2:0:0:0:
144,384,111398,2,0,P|116:374|87:369,1,58.8,8|0,2:0|2:0,2:0:0:0:
35,297,111730,6,0,P|73:248|67:191,1,117.6,6|0,1:0|1:0,2:0:0:0:
0,68,112393,2,0,L|57:53,1,58.8,2|0,1:0|2:0,2:0:0:0:
127,7,112724,2,0,L|184:21,1,58.8,2|0,1:0|2:0,2:0:0:0:
272,0,113056,6,0,P|284:57|300:114,1,117.6,2|2,1:0|1:0,2:0:0:0:
257,190,113553,2,0,P|283:201|313:203,1,58.8,2|0,2:0|1:0,2:0:0:0:
397,171,113884,2,0,P|397:228|365:276,1,117.6,2|0,2:0|2:0,2:0:0:0:
273,293,114382,6,0,L|158:321,1,117.6,6|2,1:0|1:0,2:0:0:0:
92,373,114879,2,0,P|79:347|77:318,1,58.8,2|0,2:0|1:0,2:0:0:0:
117,245,115210,2,0,P|129:218|130:189,1,58.8,2|0,2:0|1:0,2:0:0:0:
92,111,115542,6,0,L|149:96,1,58.8,2|0,2:0|1:0,2:0:0:0:
225,79,115873,1,2,2:0:0:0:
225,79,116039,1,2,1:0:0:0:
234,161,116205,2,0,L|219:218,2,58.8,2|0|0,2:0|1:0|1:0,2:0:0:0:
307,105,116702,2,0,L|364:90,1,58.8,8|0,2:0|2:0,2:0:0:0:
456,66,117034,6,0,L|427:180,2,117.6,6|8|0,1:0|2:0|1:0,2:0:0:0:
307,105,118028,2,0,L|321:162,1,58.8,2|0,1:0|1:0,2:0:0:0:
344,253,118360,5,8,2:0:0:0:
344,253,118525,1,0,1:0:0:0:
258,227,118691,2,0,P|228:227|202:239,1,58.8,8|2,2:0|2:0,2:0:0:0:
173,335,119023,1,10,2:0:0:0:
173,335,119188,1,0,1:0:0:0:
109,271,119354,2,0,P|83:257|54:256,1,58.8,8|0,2:0|2:0,2:0:0:0:
0,328,119686,5,6,1:0:0:0:
0,96,121011,6,0,P|56:110|114:124,1,117.6,2|0,2:0|2:0,2:0:0:0:
187,171,121509,2,0,P|215:162|244:156,1,58.8,4|0,2:3|2:0,2:0:0:0:
302,98,121840,1,8,2:3:0:0:
302,98,122006,2,0,P|330:106|359:112,1,58.8,4|0,2:3|2:0,2:0:0:0:
446,135,122337,5,6,2:0:0:0:
256,192,122420,12,0,126813,2:0:0:0:
