osu file format v14

[General]
AudioFilename: audio.mp3
AudioLeadIn: 0
PreviewTime: 57779
Countdown: 0
SampleSet: Soft
StackLeniency: 0.7
Mode: 0
LetterboxInBreaks: 0
WidescreenStoryboard: 1
EpilepsyWarning: 1

[Editor]
DistanceSpacing: 0.8
BeatDivisor: 2
GridSize: 4
TimelineZoom: 1.9

[Metadata]
Title:Sakura, Reincarnation
TitleUnicode:さくら、Reincarnation
Artist:Sasaki Sayaka
ArtistUnicode:佐咲紗花
Creator:EnuHQ
Version:Insane
Source:さくら、もゆ。-as the Night's, Reincarnation-
Tags:山本美禰子 Yamamoto Mineko 石倉誉之 Ishikura Takashi 小高光太郎 Kodaka Koutarou favorite opening galgame eroge visual novel winter favorite moyu japanese female vocal video game pop j-pop jpop MajK00 Ninjaking311 AsuKow ohm002
BeatmapID:4011400
BeatmapSetID:1742473

[Difficulty]
HPDrainRate:4.5
CircleSize:3.8
OverallDifficulty:8.4
ApproachRate:9
SliderMultiplier:1.64
SliderTickRate:1

[Events]
//Background and Video events
0,0,"background gaming.jpg",0,0
//Break Periods
2,50935,52621
//Storyboard Layer 0 (Background)
//Storyboard Layer 1 (Fail)
//Storyboard Layer 2 (Pass)
//Storyboard Layer 3 (Foreground)
//Storyboard Layer 4 (Overlay)
//Storyboard Sound Samples

[TimingPoints]
349,331.491712707182,4,2,1,50,1,0
3000,-119.047619047619,4,2,1,50,0,0
8304,-185.185185185185,4,2,1,50,0,0
9630,-119.047619047619,4,2,1,50,0,0
13608,-106.382978723404,4,2,1,50,0,0
21564,-294.11764705882,4,2,1,40,0,0
24216,-135.135135135135,4,2,1,50,0,0
34824,-116.279069767442,4,2,1,50,0,0
45431,-121.951219512195,4,2,1,50,0,0
53387,-106.382978723404,4,2,1,50,0,0
58691,-98.0392156862745,4,2,1,75,0,0
98470,-98.0392156862745,4,2,1,50,0,0
101122,-119.047619047619,4,2,1,50,0,0
106426,-185.185185185185,4,2,1,50,0,0
107752,-119.047619047619,4,2,1,50,0,0
111730,-106.382978723404,4,2,1,50,0,0
119686,-106.382978723404,4,2,1,40,0,0
122337,-106.382978723404,4,2,1,50,0,0
126813,-106.382978723404,4,2,1,15,0,0

[Colours]
Combo1 : 255,111,111
Combo2 : 163,252,238
Combo3 : 222,253,130

[HitObjects]
256,192,349,12,8,2669,2:3:0:0:
503,242,3000,6,0,P|494:208|480:177,1,68.88000000000002,6|0,1:0|2:0,2:0:0:0:
443,82,3332,2,0,P|434:48|420:17,1,68.88000000000002,2|0,2:0|2:0,2:0:0:0:
342,99,3663,2,0,P|303:87|268:79,1,68.88000000000002,2|0,2:0|2:0,2:0:0:0:
195,21,3995,2,0,P|156:32|121:40,1,68.88000000000002,2|0,2:0|1:0,2:0:0:0:
62,1,4244,5,0,1:0:0:0:
61,0,4326,2,0,P|100:92|46:175,2,206.6400000000001,14|8|4,2:0|1:3|1:3,2:0:0:0:
247,244,5652,6,0,P|214:233|180:225,1,68.88000000000002,6|0,1:0|2:0,2:0:0:0:
238,344,5984,2,0,P|270:333|304:325,1,68.88000000000002,2|0,2:0|2:0,2:0:0:0:
422,382,6315,2,0,P|402:335|422:289,1,103.32000000000005,2|0,2:0|2:0,2:0:0:0:
442,270,6647,2,0,P|434:236|422:203,1,68.88000000000002,2|0,2:0|1:3,2:0:0:0:
446,187,6895,5,0,1:3:0:0:
446,187,6978,2,0,P|479:194|512:205,1,68.88000000000002,12|0,2:0|2:0,2:0:0:0:
392,52,7310,1,2,1:0:0:0:
473,82,7476,2,0,P|406:98|340:120,1,137.76000000000005,12|4,2:3|1:3,2:0:0:0:
392,52,7973,1,4,1:3:0:0:
239,267,8304,6,0,P|216:181|181:100,1,177.12000000000018,6|2,1:0|2:0,2:0:0:0:
459,321,9465,5,2,2:0:0:0:
401,266,9630,2,0,P|434:273|467:284,1,68.88000000000002,6|0,1:0|2:0,2:0:0:0:
402,175,9962,2,0,P|369:185|335:193,1,68.88000000000002,2|0,2:0|2:0,2:0:0:0:
425,85,10293,1,2,2:0:0:0:
491,197,10459,1,0,1:0:0:0:
491,197,10542,1,0,1:0:0:0:
491,197,10625,1,10,2:0:0:0:
231,29,10956,6,0,P|197:86|225:145,1,137.76000000000005,6|8,1:0|2:0,2:0:0:0:
312,284,11453,1,10,2:0:0:0:
443,170,11619,1,8,2:0:0:0:
306,89,11785,1,8,2:0:0:0:
411,267,11951,1,8,2:0:0:0:
313,101,12116,1,8,2:0:0:0:
422,280,12282,6,0,P|455:287|488:297,1,68.88000000000002,6|0,1:0|2:0,2:0:0:0:
346,203,12614,1,8,2:0:0:0:
301,372,12779,2,0,P|333:362|367:354,1,68.88000000000002,2|0,1:0|2:0,2:0:0:0:
256,245,13111,1,2,1:0:0:0:
388,354,13277,1,8,2:0:0:0:
160,265,13608,6,0,B|122:214|122:214|151:128,1,154.16000000000037,6|0,1:0|1:0,2:0:0:0:
314,53,14271,2,0,P|299:18|266:0,1,77.08000000000018,2|0,1:0|2:0,2:0:0:0:
353,138,14603,2,0,P|385:118|398:82,1,77.08000000000018,2|0,1:0|2:0,2:0:0:0:
280,208,14934,6,0,P|272:170|261:134,1,77.08000000000018,2|0,1:0|2:0,2:0:0:0:
402,222,15266,1,2,1:0:0:0:
353,297,15431,2,0,P|361:259|372:222,1,77.08000000000018,2|0,2:0|1:0,2:0:0:0:
434,322,15763,2,0,P|410:360|302:373,1,154.16000000000037,2|0,2:0|2:0,2:0:0:0:
142,310,16260,6,0,P|153:346|161:384,1,77.08000000000018,6|0,1:0|2:0,2:0:0:0:
183,241,16592,1,2,2:0:0:0:
59,358,16757,2,0,P|27:338|14:302,1,77.08000000000018,2|0,2:0|1:0,2:0:0:0:
103,172,17089,2,0,P|91:208|83:246,1,77.08000000000018,2|0,2:0|1:0,2:0:0:0:
15,139,17420,1,2,2:0:0:0:
254,82,17752,5,2,2:0:0:0:
159,0,17918,1,2,1:0:0:0:
267,179,18083,2,0,P|231:168|193:160,1,77.08000000000018,2|0,2:0|1:0,2:0:0:0:
310,0,18415,1,0,1:0:0:0:
399,147,18581,1,8,2:0:0:0:
171,24,18912,6,0,B|114:48|114:48|102:81|102:81|42:109,1,154.16000000000037,6|0,1:0|1:0,2:0:0:0:
183,230,19409,1,0,2:0:0:0:
60,291,19575,2,0,L|85:218,1,77.08000000000018,0|0,1:0|1:0,2:0:0:0:
276,371,19907,2,0,L|250:298,1,77.08000000000018,2|0,1:0|1:0,2:0:0:0:
342,143,20238,5,8,2:0:0:0:
183,230,20404,1,0,1:0:0:0:
304,59,20569,2,0,P|270:76|253:110,1,77.08000000000018,8|0,2:0|1:0,2:0:0:0:
405,275,20901,5,8,2:0:0:0:
342,143,21067,1,4,1:3:0:0:
482,45,21232,2,0,L|456:118,1,77.08000000000018,8|0,2:0|2:0,2:0:0:0:
328,4,21564,6,0,B|213:19|249:64|146:78,1,195.16000000000233,6|2,1:0|2:0,2:0:0:0:
89,23,22890,1,8,1:3:0:0:
210,178,23387,1,8,2:3:0:0:
52,315,23719,1,4,2:3:0:0:
106,218,23884,1,4,2:3:0:0:
252,384,24216,6,0,P|308:361|366:344,1,121.36000000000011,6|2,1:0|2:0,2:0:0:0:
512,211,24879,2,0,P|453:194|397:171,1,121.36000000000011,2|2,2:0|2:0,2:0:0:0:
319,241,25376,5,0,2:0:0:0:
319,241,25542,2,0,P|270:207|262:148,1,121.36000000000011,2|2,1:0|2:0,2:0:0:0:
311,81,26039,1,0,1:0:0:0:
177,0,26371,2,0,P|148:9|120:20,1,60.680000000000064,2|0,2:0|1:0,2:0:0:0:
18,11,26702,5,2,2:0:0:0:
18,11,26868,2,0,P|23:69|70:105,1,121.36000000000011,0|2,1:0|2:0,2:0:0:0:
0,184,27365,1,2,2:0:0:0:
150,332,27697,1,2,2:0:0:0:
150,332,27862,2,0,L|127:266,1,60.680000000000064,2|0,2:0|2:0,2:0:0:0:
191,224,28194,6,0,L|168:157,1,60.680000000000064,2|0,1:0|2:0,2:0:0:0:
144,90,28525,1,2,2:0:0:0:
261,169,28691,2,0,P|318:151|351:100,1,121.36000000000011,0|2,1:0|2:0,2:0:0:0:
249,25,29188,2,0,P|258:54|269:82,1,60.680000000000064,0|0,1:0|2:0,2:0:0:0:
329,242,29520,6,0,P|351:298|370:356,1,121.36000000000011,2|2,1:0|2:0,2:0:0:0:
260,328,30017,1,2,2:0:0:0:
377,161,30348,1,2,2:0:0:0:
190,28,30680,1,2,2:0:0:0:
268,0,30846,6,0,L|202:23,1,60.680000000000064,0|0,1:0|2:0,2:0:0:0:
113,51,31177,1,2,2:0:0:0:
113,51,31343,2,0,L|47:74,1,60.680000000000064,0|0,1:0|2:0,2:0:0:0:
186,169,31674,2,0,P|194:140|186:111,1,60.680000000000064,2|0,2:0|1:0,2:0:0:0:
93,230,32006,5,2,2:0:0:0:
93,230,32172,2,0,P|151:248|208:271,1,121.36000000000011,2|2,1:0|2:0,2:0:0:0:
313,139,32835,2,0,P|340:191|322:247,1,121.36000000000011,2|2,2:0|2:0,2:0:0:0:
281,318,33332,5,2,2:0:0:0:
281,318,33498,2,0,P|337:295|395:277,1,121.36000000000011,0|2,1:0|2:0,2:0:0:0:
474,249,33995,1,0,1:0:0:0:
474,249,34161,2,0,P|481:277|473:306,1,60.680000000000064,0|2,1:0|2:0,2:0:0:0:
385,376,34492,2,0,P|377:347|384:318,1,60.680000000000064,2|0,2:0|2:0,2:0:0:0:
512,230,34824,6,0,P|444:202|375:180,1,141.03999999999982,6|0,1:0|1:0,2:0:0:0:
465,49,35321,2,0,P|479:83|488:115,1,70.51999999999991,2|0,2:0|1:0,2:0:0:0:
332,4,35652,2,0,P|346:38|355:70,1,70.51999999999991,2|0,2:0|1:0,2:0:0:0:
257,167,35984,1,2,2:0:0:0:
165,13,36150,6,0,P|216:17|251:55,1,105.77999999999987,2|0,1:0|2:0,2:0:0:0:
263,81,36481,2,0,P|229:90|196:104,1,70.51999999999991,0|2,1:0|2:0,2:0:0:0:
63,216,36813,1,0,1:0:0:0:
200,194,36978,1,2,2:0:0:0:
200,194,37061,1,0,2:0:0:0:
200,194,37144,2,0,P|167:180|133:170,1,70.51999999999991,0|0,1:0|2:0,2:0:0:0:
0,15,37476,6,0,P|50:62|52:130,1,141.03999999999982,0|0,1:0|1:0,2:0:0:0:
169,18,37973,2,0,P|155:50|145:84,1,70.51999999999991,2|0,2:0|1:0,2:0:0:0:
16,209,38304,2,0,P|29:241|39:275,1,70.51999999999991,2|0,2:0|1:0,2:0:0:0:
127,180,38636,1,2,2:0:0:0:
213,292,38802,6,0,B|164:312|164:312|149:345|149:345|95:370,1,141.03999999999982,0|0,1:0|1:0,2:0:0:0:
215,209,39299,1,2,2:0:0:0:
215,209,39465,1,0,1:0:0:0:
303,314,39630,1,2,2:0:0:0:
370,206,39796,2,0,P|336:215|303:229,1,70.51999999999991,0|0,1:0|2:0,2:0:0:0:
441,327,40128,6,0,P|494:251|469:201,1,141.03999999999982,2|0,1:0|1:0,2:0:0:0:
353,380,40625,2,0,P|335:311|307:247,1,141.03999999999982,2|0,2:0|2:0,2:0:0:0:
377,130,41122,1,0,1:0:0:0:
377,130,41288,1,2,2:0:0:0:
476,251,41453,6,0,P|443:237|409:228,1,70.51999999999991,2|0,1:0|2:0,2:0:0:0:
284,150,41785,2,0,P|251:163|217:172,1,70.51999999999991,0|0,1:0|2:0,2:0:0:0:
364,32,42116,2,0,P|387:78|376:129,2,105.77999999999987,0|0|2,1:0|2:0|2:0,2:0:0:0:
290,71,42779,5,12,2:0:0:0:
290,71,43111,1,0,1:0:0:0:
326,229,43277,1,0,1:0:0:0:
184,96,43442,1,8,2:0:0:0:
98,275,43608,1,8,2:0:0:0:
240,186,43774,1,8,2:0:0:0:
110,50,43940,1,2,1:0:0:0:
0,183,44105,6,0,L|74:157,1,70.51999999999991,8|8,2:0|2:0,2:0:0:0:
161,297,44437,2,0,L|94:274,1,70.51999999999991,8|4,2:0|2:3,2:0:0:0:
174,176,44768,1,10,2:0:0:0:
174,176,44934,1,8,2:3:0:0:
255,345,45100,2,0,P|245:315|255:279,1,70.51999999999991,2|0,1:0|2:0,2:0:0:0:
448,240,45431,6,0,B|373:266|395:288|335:313,1,134.4800000000001,6|2,1:0|2:0,2:0:0:0:
270,152,45929,1,2,1:0:0:0:
320,225,46094,2,0,L|297:161,1,67.24000000000005,8|0,2:0|2:0,2:0:0:0:
336,50,46426,1,2,1:0:0:0:
386,123,46592,6,0,L|363:59,1,67.24000000000005,0|0,1:0|2:0,2:0:0:0:
154,187,47089,2,0,P|177:163|183:130,1,67.24000000000005,2|0,2:0|1:0,2:0:0:0:
70,69,47420,2,0,P|79:100|104:122,1,67.24000000000005,10|0,2:0|2:0,2:0:0:0:
222,48,47752,2,0,P|189:39|158:50,1,67.24000000000005,2|0,2:0|2:0,2:0:0:0:
263,173,48083,6,0,P|326:150|391:133,1,134.4800000000001,0|2,1:0|2:0,2:0:0:0:
308,60,48581,1,0,1:0:0:0:
401,211,48746,2,0,P|368:200|336:192,1,67.24000000000005,8|0,2:0|2:0,2:0:0:0:
406,98,49078,1,0,1:0:0:0:
486,267,49244,6,0,P|514:208|481:151,1,134.4800000000001,2|8,2:0|2:0,2:0:0:0:
406,291,49741,2,0,P|416:323|424:355,1,67.24000000000005,8|2,2:3|1:0,2:0:0:0:
430,373,49989,1,0,1:0:0:0:
430,373,50072,1,8,2:0:0:0:
323,253,50238,1,8,1:3:0:0:
248,351,50404,2,0,P|279:361|311:352,1,67.24000000000005,4|0,2:3|2:0,2:0:0:0:
233,256,50735,5,0,1:0:0:0:
358,1,53221,5,0,1:0:0:0:
358,1,53304,1,0,1:0:0:0:
357,0,53387,2,0,P|372:35|383:72,1,77.08000000000018,14|0,2:0|1:0,2:0:0:0:
500,225,53719,1,0,1:0:0:0:
485,79,53884,2,0,P|469:114|458:151,1,77.08000000000018,14|0,2:0|1:0,2:0:0:0:
396,302,54216,1,0,1:0:0:0:
500,225,54382,1,12,2:0:0:0:
320,304,54547,6,0,B|377:327|377:327|392:361|392:361|448:387,1,154.16000000000037,0|8,1:0|2:0,2:0:0:0:
295,220,55045,2,0,P|260:235|235:265,1,77.08000000000018,0|0,1:0|1:0,2:0:0:0:
399,194,55376,1,8,2:0:0:0:
399,194,55459,1,8,2:3:0:0:
399,194,55542,2,0,L|385:236,1,38.54000000000009,0|0,1:0|1:0,2:0:0:0:
345,352,55708,1,14,2:0:0:0:
134,197,56039,5,10,2:0:0:0:
239,377,56205,1,10,2:0:0:0:
134,197,56536,5,10,2:0:0:0:
26,378,56868,6,0,P|62:363|98:352,1,77.08000000000018,10|0,2:0|1:0,2:0:0:0:
124,333,57116,1,0,1:0:0:0:
124,333,57199,2,0,P|160:347|196:358,1,77.08000000000018,14|0,2:0|2:0,2:0:0:0:
311,238,57531,1,8,2:0:0:0:
396,384,57697,1,8,2:0:0:0:
218,226,58028,6,0,L|230:189,3,38.54000000000009,0|0|0|0,1:0|2:0|1:2|1:2,2:0:0:0:
316,153,58360,1,0,1:2:0:0:
296,121,58442,1,0,1:2:0:0:
264,101,58525,1,0,1:2:0:0:
226,95,58608,1,0,1:2:0:0:
189,105,58691,6,0,B|97:70|97:70|35:107,2,167.28,6|10|0,1:0|2:0|1:0,2:0:0:0:
367,186,59520,1,0,1:0:0:0:
278,275,59686,2,0,P|265:234|250:195,1,83.64,8|0,2:0|2:0,2:0:0:0:
366,52,60017,5,2,1:0:0:0:
366,52,60183,1,0,1:0:0:0:
445,188,60348,2,0,P|404:174|365:186,1,83.64,8|0,2:0|2:0,2:0:0:0:
489,95,60680,1,0,1:0:0:0:
489,95,60846,1,0,1:0:0:0:
400,274,61011,2,0,P|361:287|321:277,1,83.64,8|0,2:0|2:0,2:0:0:0:
176,384,61343,6,0,B|217:341|217:286|217:286|177:235,1,167.28,2|8,1:0|2:0,2:0:0:0:
34,275,61840,2,0,P|65:300|105:305,1,83.64,2|0,2:0|1:0,2:0:0:0:
230,138,62172,1,0,1:0:0:0:
97,213,62337,1,8,2:0:0:0:
252,356,62503,6,0,P|237:316|224:276,1,83.64,2|0,1:0|2:0,2:0:0:0:
385,175,62835,1,0,1:0:0:0:
350,278,63000,2,0,P|362:238|377:199,1,83.64,10|0,2:0|2:0,2:0:0:0:
217,62,63332,1,2,1:0:0:0:
271,193,63498,1,0,1:0:0:0:
420,93,63663,2,0,P|380:77|340:65,1,83.64,10|0,2:0|2:0,2:0:0:0:
166,147,63995,6,0,P|122:78|144:0,2,167.28,6|8|2,1:0|2:0|1:0,2:0:0:0:
50,278,64824,1,0,1:0:0:0:
60,188,64989,2,0,P|44:228|32:268,1,83.64,8|2,2:0|2:0,2:0:0:0:
115,377,65321,5,0,1:0:0:0:
120,381,65487,1,0,1:0:0:0:
221,276,65652,2,0,P|182:263|142:273,1,83.64,8|0,2:0|2:0,2:0:0:0:
260,375,65984,1,2,1:0:0:0:
199,173,66150,1,2,1:0:0:0:
320,294,66315,2,0,P|332:253|347:215,1,83.64,8|0,2:0|2:0,2:0:0:0:
466,384,66647,6,0,B|431:363|383:354|383:354|350:381|301:381,1,167.28,2|8,1:0|2:0,2:0:0:0:
462,193,67144,2,0,P|446:232|435:273,1,83.64,2|8,2:0|2:3,2:0:0:0:
328,179,67476,1,0,1:0:0:0:
410,372,67641,1,8,2:0:0:0:
240,266,67807,6,0,P|281:278|319:293,1,83.64,6|0,1:0|2:0,2:0:0:0:
180,374,68139,1,0,1:0:0:0:
109,273,68304,2,0,P|121:232|136:194,1,83.64,8|0,2:0|2:0,2:0:0:0:
145,11,68636,1,4,1:3:0:0:
70,112,68802,1,8,2:0:0:0:
70,112,68884,1,8,2:0:0:0:
70,112,68967,2,0,P|90:107|109:100,1,41.82,8|8,2:0|2:0,2:0:0:0:
198,78,69133,2,0,P|217:72|237:66,1,41.82,8|8,2:0|2:0,2:0:0:0:
361,8,69299,6,0,P|326:81|362:153,2,167.28,6|8|0,1:0|2:0|1:0,2:0:0:0:
470,190,70128,1,0,1:0:0:0:
511,58,70293,2,0,P|470:70|432:85,1,83.64,8|2,2:0|2:0,2:0:0:0:
335,263,70625,5,2,1:0:0:0:
446,182,70790,1,0,1:0:0:0:
342,348,70956,2,0,P|300:345|267:321,1,83.64,8|2,2:0|2:0,2:0:0:0:
360,177,71288,1,2,1:0:0:0:
360,177,71453,1,2,2:0:0:0:
456,361,71619,2,0,P|440:322|428:281,1,83.64,8|2,2:0|2:0,2:0:0:0:
257,219,71951,6,0,B|195:241|195:241|175:279|175:279|110:305,1,167.28,2|8,1:0|2:0,2:0:0:0:
286,384,72448,2,0,P|270:345|258:304,1,83.64,2|0,2:0|1:0,2:0:0:0:
105,187,72779,1,0,1:0:0:0:
137,347,72945,2,0,P|153:308|165:267,1,83.64,8|2,2:0|2:0,2:0:0:0:
254,145,73277,5,2,1:0:0:0:
337,280,73442,1,0,1:0:0:0:
440,160,73608,2,0,P|398:152|360:166,1,83.64,8|2,2:0|2:0,2:0:0:0:
443,290,73940,1,2,1:0:0:0:
443,290,74105,1,0,1:0:0:0:
309,358,74271,2,0,P|320:317|336:279,1,83.64,10|2,2:0|2:0,2:0:0:0:
193,146,74603,6,0,P|171:224|215:292,2,167.28,6|10|2,1:0|2:0|1:0,2:0:0:0:
380,194,75431,1,0,1:0:0:0:
273,200,75597,2,0,P|312:184|352:172,1,83.64,10|2,2:0|2:0,2:0:0:0:
267,96,75929,5,2,1:0:0:0:
367,287,76094,1,0,1:0:0:0:
457,132,76260,2,0,P|472:171|484:211,1,83.64,10|0,2:0|2:0,2:0:0:0:
311,67,76592,2,0,P|326:106|338:146,1,83.64,2|0,1:0|1:0,2:0:0:0:
177,11,76923,2,0,P|192:50|204:90,1,83.64,8|0,2:0|2:0,2:0:0:0:
105,240,77255,6,0,P|155:204|216:212,1,125.46000000000001,6|0,1:0|2:0,2:0:0:0:
238,237,77586,2,0,P|222:277|210:316,1,83.64,10|0,2:0|2:0,2:0:0:0:
420,214,77918,1,2,1:0:0:0:
420,214,78083,1,0,1:0:0:0:
262,82,78249,1,8,2:0:0:0:
331,278,78415,6,0,P|346:318|358:357,1,83.64,6|0,1:0|2:0,2:0:0:0:
172,196,78746,1,0,1:0:0:0:
210,355,78912,2,0,P|222:315|237:275,1,83.64,10|2,2:0|2:0,2:0:0:0:
295,163,79244,1,2,1:0:0:0:
138,282,79409,5,8,2:0:0:0:
138,282,79492,1,8,2:0:0:0:
138,282,79575,1,10,2:0:0:0:
96,284,79658,1,8,2:0:0:0:
58,267,79741,1,8,2:0:0:0:
33,234,79824,1,8,2:0:0:0:
24,195,79907,6,0,P|50:113|82:31,2,167.28,6|8|2,1:0|2:0|1:0,2:0:0:0:
166,84,80735,1,0,1:0:0:0:
125,189,80901,2,0,P|137:148|152:110,1,83.64,8|2,2:0|2:0,2:0:0:0:
243,249,81232,5,2,1:0:0:0:
243,249,81398,1,0,1:0:0:0:
348,119,81564,2,0,P|309:106|269:116,1,83.64,8|0,2:0|2:0,2:0:0:0:
353,252,81895,1,2,1:0:0:0:
465,120,82061,1,0,1:0:0:0:
318,20,82227,2,0,P|333:58|345:98,1,83.64,8|0,2:0|2:0,2:0:0:0:
457,226,82558,6,0,P|480:306|510:384,1,167.28,2|8,1:0|2:0,2:0:0:0:
309,285,83056,2,0,P|349:296|387:312,1,83.64,2|0,2:0|1:0,2:0:0:0:
244,189,83387,1,2,1:0:0:0:
325,384,83553,1,8,2:0:0:0:
185,275,83719,6,0,P|172:314|182:354,1,83.64,2|0,2:0|2:0,2:0:0:0:
79,206,84050,1,2,2:0:0:0:
0,351,84216,2,0,P|38:335|78:323,1,83.64,10|0,2:0|2:0,2:0:0:0:
192,135,84547,1,2,1:0:0:0:
79,206,84713,1,0,2:0:0:0:
222,334,84879,2,0,P|210:293|193:255,1,83.64,10|0,2:0|2:0,2:0:0:0:
297,76,85210,6,0,B|205:111|205:111|143:74,2,167.28,6|8|2,1:0|2:0|1:0,2:0:0:0:
410,233,86039,1,0,2:0:0:0:
455,116,86205,2,0,P|467:75|484:37,1,83.64,8|0,2:0|2:0,2:0:0:0:
410,233,86536,5,2,1:0:0:0:
330,89,86702,1,0,1:0:0:0:
501,226,86868,2,0,P|460:237|422:254,1,83.64,8|0,2:0|2:0,2:0:0:0:
320,383,87199,1,0,1:0:0:0:
211,285,87365,1,0,1:0:0:0:
303,171,87531,2,0,P|320:208|314:249,1,83.64,8|0,2:0|2:0,2:0:0:0:
422,98,87862,6,0,P|343:67|263:44,1,167.28,2|8,1:0|2:0,2:0:0:0:
91,0,88360,2,0,P|107:38|118:78,1,83.64,0|0,1:0|1:0,2:0:0:0:
90,211,88691,1,2,1:0:0:0:
9,79,88857,1,10,2:0:0:0:
171,215,89023,6,0,B|109:237|109:237|89:275|89:275|24:301,1,167.28,6|0,1:0|1:0,2:0:0:0:
185,384,89520,2,0,P|191:343|174:305,1,83.64,10|0,2:0|2:0,2:0:0:0:
79,384,89851,1,8,1:3:0:0:
256,258,90017,1,8,2:0:0:0:
256,258,90100,1,8,2:0:0:0:
256,258,90183,2,0,P|276:263|295:270,1,41.82,8|8,2:0|2:0,2:0:0:0:
385,302,90348,2,0,P|404:309|424:314,1,41.82,8|8,2:0|2:0,2:0:0:0:
369,208,90514,6,0,P|338:286|313:365,2,167.28,6|8|0,1:0|2:0|1:0,2:0:0:0:
358,27,91343,1,0,1:0:0:0:
508,82,91509,2,0,P|468:93|430:110,1,83.64,8|2,2:0|2:0,2:0:0:0:
274,151,91840,6,0,P|235:134|195:123,1,83.64,0|0,1:0|2:0,2:0:0:0:
251,27,92172,1,8,2:0:0:0:
251,27,92337,1,2,2:0:0:0:
102,115,92503,2,0,P|90:74|74:36,1,83.64,2|0,1:0|1:0,2:0:0:0:
131,198,92835,2,0,P|147:236|158:276,1,83.64,8|2,2:0|2:0,2:0:0:0:
271,195,93166,6,0,P|241:117|216:38,2,167.28,2|10|0,1:0|2:0|1:0,2:0:0:0:
322,363,93995,1,0,1:0:0:0:
399,214,94161,1,8,2:0:0:0:
512,327,94326,6,0,P|473:340|433:330,1,83.64,2|2,2:0|1:0,2:0:0:0:
475,148,94658,2,0,P|491:186|502:226,1,83.64,0|8,1:0|2:0,2:0:0:0:
337,48,94989,2,0,P|376:35|416:45,1,83.64,2|0,2:0|1:0,2:0:0:0:
374,227,95321,2,0,P|358:189|347:149,1,83.64,0|8,1:0|2:0,2:0:0:0:
221,229,95652,1,2,2:0:0:0:
121,59,95818,6,0,B|183:81|183:81|203:119|203:119|268:145,2,167.28,6|0|0,1:0|1:0|1:0,2:0:0:0:
10,189,96647,1,0,1:0:0:0:
142,246,96813,2,0,P|131:205|114:167,1,83.64,8|2,2:0|2:0,2:0:0:0:
71,373,97144,5,0,1:0:0:0:
228,279,97310,1,0,1:0:0:0:
28,195,97476,1,8,2:0:0:0:
183,367,97641,1,4,2:3:0:0:
364,235,97807,5,4,1:3:0:0:
364,235,97973,1,4,1:3:0:0:
277,347,98139,2,0,P|258:287|236:228,1,125.46000000000001,10|0,2:0|2:0,2:0:0:0:
229,207,98470,5,14,2:0:0:0:
256,192,98553,12,2,99796,2:0:0:0:
311,131,100293,5,2,1:0:0:0:
311,131,100376,1,2,1:0:0:0:
311,131,100459,2,0,P|326:94|339:52,1,83.64,10|8,2:0|2:0,2:0:0:0:
342,25,100708,1,8,2:0:0:0:
342,25,100790,2,0,P|322:30|303:37,1,41.82,8|8,2:0|2:0,2:0:0:0:
214,59,100956,2,0,P|195:65|175:71,1,41.82,8|8,2:0|2:0,2:0:0:0:
107,164,101122,6,0,P|86:98|61:33,2,137.76000000000005,6|2|2,1:0|2:0|2:0,2:0:0:0:
321,269,102116,1,2,2:0:0:0:
222,378,102282,5,0,1:0:0:0:
222,378,102365,1,0,1:0:0:0:
222,378,102448,2,0,P|191:318|214:256,1,137.76000000000005,14|2,2:0|2:0,2:0:0:0:
312,356,102945,1,8,2:3:0:0:
410,267,103277,1,2,2:0:0:0:
410,267,103442,1,8,2:3:0:0:
272,171,103774,6,0,P|306:162|337:148,1,68.88000000000002,6|0,1:0|2:0,2:0:0:0:
432,111,104105,2,0,P|466:102|497:88,1,68.88000000000002,2|0,2:0|2:0,2:0:0:0:
335,0,104437,2,0,P|344:34|358:65,1,68.88000000000002,2|0,2:0|2:0,2:0:0:0:
410,191,104768,2,0,P|424:222|432:255,1,68.88000000000002,2|0,2:0|1:3,2:0:0:0:
497,311,105017,5,0,1:3:0:0:
496,310,105100,2,0,P|430:300|381:345,1,137.76000000000005,14|2,2:0|2:0,2:0:0:0:
245,384,105597,2,0,P|290:335|280:269,1,137.76000000000005,12|4,2:3|1:3,2:0:0:0:
231,205,106094,1,4,1:3:0:0:
87,384,106426,6,0,P|64:298|29:217,1,177.12000000000018,14|2,2:0|2:0,2:0:0:0:
282,287,107586,5,2,2:0:0:0:
194,309,107752,2,0,P|226:298|260:290,1,68.88000000000002,4|0,1:0|2:0,2:0:0:0:
358,237,108083,2,0,P|365:270|376:303,1,68.88000000000002,2|0,2:0|2:0,2:0:0:0:
278,197,108415,2,0,P|270:163|259:130,1,68.88000000000002,2|0,2:0|1:0,2:0:0:0:
257,114,108663,1,0,1:0:0:0:
257,114,108746,1,14,2:0:0:0:
498,256,109078,6,0,B|445:278|445:278|434:304|434:304|381:328,1,137.76000000000005,6|0,1:0|1:0,2:0:0:0:
260,373,109575,1,10,2:0:0:0:
360,246,109741,1,8,2:0:0:0:
202,143,109907,1,8,2:0:0:0:
264,274,110072,1,8,2:0:0:0:
371,125,110238,1,8,2:0:0:0:
264,274,110404,6,0,P|231:263|197:255,1,68.88000000000002,6|0,1:0|2:0,2:0:0:0:
32,375,110735,1,10,2:0:0:0:
94,255,110901,2,0,P|104:287|112:321,1,68.88000000000002,6|0,1:0|2:0,2:0:0:0:
3,215,111232,1,0,1:0:0:0:
117,344,111398,1,8,2:0:0:0:
272,108,111730,6,0,B|353:134|325:161|401:191,1,154.16000000000037,6|0,1:0|1:0,2:0:0:0:
157,143,112393,2,0,P|146:105|132:69,1,77.08000000000018,2|0,1:0|2:0,2:0:0:0:
185,226,112724,2,0,P|195:263|209:299,1,77.08000000000018,2|0,1:0|2:0,2:0:0:0:
35,237,113056,6,0,P|63:212|101:206,1,77.08000000000018,2|0,1:0|2:0,2:0:0:0:
86,384,113387,1,2,1:0:0:0:
113,292,113553,2,0,P|99:328|88:365,1,77.08000000000018,2|0,2:0|1:0,2:0:0:0:
200,212,113884,2,0,P|274:235|345:263,1,154.16000000000037,2|0,2:0|2:0,2:0:0:0:
286,372,114382,6,0,P|254:352|241:316,1,77.08000000000018,6|0,1:0|2:0,2:0:0:0:
312,192,114713,1,2,1:0:0:0:
397,314,114879,2,0,P|360:300|323:289,1,77.08000000000018,2|0,2:0|1:0,2:0:0:0:
405,208,115210,2,0,P|441:218|478:232,1,77.08000000000018,2|0,2:0|1:0,2:0:0:0:
374,122,115542,1,2,2:0:0:0:
244,290,115873,5,2,2:0:0:0:
134,176,116039,1,2,1:0:0:0:
241,67,116205,2,0,P|249:104|238:140,1,77.08000000000018,2|0,2:0|1:0,2:0:0:0:
88,268,116536,1,0,1:0:0:0:
129,156,116702,2,0,P|118:119|104:83,1,77.08000000000018,8|0,2:0|2:0,2:0:0:0:
214,258,117034,6,0,P|273:305|352:291,1,154.16000000000037,6|8,1:0|2:0,2:0:0:0:
302,195,117531,1,0,2:0:0:0:
453,292,117697,2,0,L|428:219,1,77.08000000000018,0|0,1:0|1:0,2:0:0:0:
235,375,118028,2,0,L|261:302,1,77.08000000000018,2|0,1:0|1:0,2:0:0:0:
187,90,118360,5,8,2:0:0:0:
302,195,118525,1,0,1:0:0:0:
416,68,118691,2,0,L|489:93,1,77.08000000000018,8|2,2:0|2:0,2:0:0:0:
413,193,119023,1,10,2:0:0:0:
298,88,119188,1,0,1:0:0:0:
184,215,119354,2,0,L|111:190,1,77.08000000000018,8|0,2:0|2:0,2:0:0:0:
239,381,119686,5,6,1:0:0:0:
256,192,119768,12,2,121011,2:0:0:0:
195,119,121509,5,4,2:3:0:0:
195,119,121840,5,8,2:3:0:0:
340,37,122006,1,4,2:3:0:0:
194,258,122337,5,6,2:0:0:0:
256,192,122420,12,0,126813,2:0:0:0:
