osu file format v14

[General]
AudioFilename: Marine.mp3
AudioLeadIn: 0
PreviewTime: 51694
Countdown: 0
SampleSet: Soft
StackLeniency: 0.7
Mode: 0
LetterboxInBreaks: 0
WidescreenStoryboard: 0

[Editor]
DistanceSpacing: 1.4
BeatDivisor: 4
GridSize: 8
TimelineZoom: 3.199999

[Metadata]
Title:Marine Blue ni Sotte short ver.
TitleUnicode:マリンブルーに沿って short ver.
Artist:Sasaki Sayaka
ArtistUnicode:佐咲紗花
Creator:Alexsander
Version:Collab Hard
Source:ちいさな彼女の小夜曲
Tags:Atlantico Chiisana Kanojo no Serenade eroge visual novel Seto Kousuke victorfernando
BeatmapID:1654644
BeatmapSetID:783399

[Difficulty]
HPDrainRate:5.5
CircleSize:3.6
OverallDifficulty:7
ApproachRate:8
SliderMultiplier:1.4
SliderTickRate:1

[Events]
//Background and Video events
0,0,"bg.jpg",0,0
//Break Periods
//Storyboard Layer 0 (Background)
//Storyboard Layer 1 (Fail)
//Storyboard Layer 2 (Pass)
//Storyboard Layer 3 (Foreground)
//Storyboard Sound Samples

[TimingPoints]
1111,333.333333333333,4,2,1,70,1,0
15610,-100,4,2,1,40,0,0
26444,-100,4,2,1,50,0,0
42444,-111.111111111111,4,2,1,40,0,0
47777,-100,4,2,1,45,0,0
48444,-100,4,2,1,55,0,0
49110,-100,4,2,1,65,0,0
50444,-100,4,2,1,70,0,1
51777,-100,4,2,1,55,0,0
52944,-100,4,2,1,80,0,1
74444,-100,4,2,1,50,0,1
75110,-100,4,2,1,60,0,1
75777,-100,4,2,1,70,0,1
76110,-100,4,2,1,80,0,1
78110,-100,4,2,1,40,0,0
79110,-100,4,2,1,70,0,0

[Colours]
Combo1 : 235,150,194
Combo2 : 165,197,105
Combo3 : 224,166,137
Combo4 : 107,185,199

[HitObjects]
40,144,3777,5,2,0:0:0:0:
160,296,4110,1,4,0:1:0:0:
224,224,4277,1,2,0:3:0:0:
224,224,4360,1,2,0:3:0:0:
224,224,4444,2,0,P|264:216|352:208,1,105,8|0,0:0|0:0,0:0:0:0:
376,200,4777,1,0,3:0:0:0:
344,104,4944,6,0,P|256:112|192:128,1,140,6|0,0:0|0:0,0:0:0:0:
120,72,5444,1,8,0:0:0:0:
56,144,5610,2,0,P|48:200|48:224,1,70,2|0,0:0|0:0,0:0:0:0:
128,272,5944,2,0,P|128:328|120:368,1,70,2|8,0:0|0:0,0:0:0:0:
224,360,6277,6,0,B|288:336|288:392|368:360,1,140,2|0,0:0|0:0,0:0:0:0:
432,296,6777,1,8,0:0:0:0:
384,208,6944,2,0,P|376:160|392:120,1,70,2|0,0:0|0:0,0:0:0:0:
432,56,7277,1,2,0:0:0:0:
432,56,7444,1,10,0:0:0:0:
381,140,7610,6,0,P|317:156|229:116,1,140,6|0,0:0|0:0,0:0:0:0:
176,64,8110,1,8,0:0:0:0:
248,133,8277,2,0,P|256:189|248:213,1,70,2|0,0:0|0:0,0:0:0:0:
176,256,8610,2,0,P|171:297|184:336,1,70,2|8,0:0|0:0,0:0:0:0:
272,360,8944,6,0,L|432:344,1,140,2|0,0:0|0:0,0:0:0:0:
488,280,9444,1,8,0:0:0:0:
456,184,9610,2,0,P|448:144|464:96,1,70,2|0,0:0|0:0,0:0:0:0:
408,24,9944,2,0,L|336:32,1,70,2|8,0:3|0:0,0:0:0:0:
312,128,10277,6,0,P|248:112|168:88,1,140,6|0,0:0|0:0,0:0:0:0:
120,168,10777,2,0,P|126:223|128:256,1,70,8|0,0:0|0:0,0:0:0:0:
200,296,11110,2,0,P|240:280|336:328,1,140,8|8,0:0|0:0,0:0:0:0:
408,368,11610,1,0,0:0:0:0:
488,304,11777,6,0,P|480:240|480:216,1,70,10|0,0:0|0:0,0:0:0:0:
440,144,12110,2,0,P|448:80|448:48,1,70,10|0,0:0|0:0,0:0:0:0:
368,16,12444,2,0,P|280:16|288:16,1,70,10|0,0:0|0:0,0:0:0:0:
248,104,12777,2,0,P|200:104|160:96,1,70,10|0,0:0|0:0,0:0:0:0:
105,166,13110,6,0,L|114:241,1,70,8|2,0:0|0:3,0:0:0:0:
164,319,13444,1,2,0:3:0:0:
246,267,13610,2,0,P|284:259|327:269,1,70,8|2,0:0|0:3,0:0:0:0:
378,339,13944,1,2,0:3:0:0:
421,251,14110,2,0,L|420:176,1,70,8|2,0:0|0:3,0:0:0:0:
381,90,14444,1,0,0:0:0:0:
322,168,14610,6,0,L|252:168,1,70,8|2,0:0|0:3,0:0:0:0:
200,252,14944,1,0,0:0:0:0:
270,322,15110,1,8,0:0:0:0:
366,304,15277,1,8,0:0:0:0:
366,304,15610,5,2,0:0:0:0:
436,235,15777,2,0,P|455:173|450:93,1,140,4|0,0:0|0:0,0:0:0:0:
389,22,16277,1,2,0:0:0:0:
389,22,16444,2,0,P|317:30|221:38,1,140,2|2,0:0|0:0,0:0:0:0:
163,83,16944,6,0,P|179:139|187:171,1,70,2|0,0:0|0:0,0:0:0:0:
184,248,17277,2,0,P|240:224|320:256,1,140,2|2,0:0|0:3,0:0:0:0:
376,320,17777,1,2,0:3:0:0:
431,238,17944,2,0,P|479:231|519:247,2,70,2|10|2,0:3|0:0|0:3,0:0:0:0:
376,320,18444,6,0,L|224:344,1,140,4|0,0:0|0:0,0:0:0:0:
168,272,18944,1,0,0:0:0:0:
168,272,19110,2,0,B|192:240|192:240|176:112,1,140,2|0,0:0|0:0,0:0:0:0:
248,64,19610,6,0,L|344:72,1,70,2|0,0:0|0:0,0:0:0:0:
408,112,19944,2,0,B|384:144|384:144|400:264,1,140,2|0,0:0|0:0,0:0:0:0:
352,328,20444,1,0,0:0:0:0:
280,264,20610,2,0,P|224:224|152:248,1,140,6|0,0:0|1:0,0:0:0:0:
112,256,21027,1,0,1:0:0:0:
112,256,21110,6,0,L|96:96,1,140,4|0,0:0|0:0,0:0:0:0:
144,32,21610,2,0,L|224:48,1,70,2|0,0:0|0:0,0:0:0:0:
280,120,21944,2,0,L|368:104,1,70,2|0,0:0|0:0,0:0:0:0:
440,152,22277,6,0,P|432:208|440:240,1,70,2|0,0:0|0:0,0:0:0:0:
464,312,22610,1,2,0:0:0:0:
376,360,22777,1,2,0:0:0:0:
304,296,22944,2,0,B|240:320|240:264|160:296,1,140,2|2,0:0|0:3,0:0:0:0:
104,216,23444,2,0,P|112:176|104:136,1,70,0|2,0:0|0:3,0:0:0:0:
48,72,23777,6,0,P|112:104|200:72,1,140,6|0,0:0|0:0,0:0:0:0:
256,32,24277,2,0,P|312:16|400:64,1,140,2|2,0:0|0:0,0:0:0:0:
440,128,24777,1,2,0:3:0:0:
440,128,24944,6,0,P|424:232|416:280,1,140,6|0,1:2|1:0,0:0:0:0:
344,328,25444,2,0,P|304:328|256:336,1,70,0|0,1:0|1:0,0:0:0:0:
184,288,25777,2,0,P|144:288|96:296,1,70,0|0,1:0|1:0,0:0:0:0:
40,232,26110,1,0,1:0:0:0:
40,232,26444,6,0,P|64:152|48:80,1,140,4|8,0:0|0:0,0:0:0:0:
128,32,26944,1,2,0:0:0:0:
208,96,27110,2,0,P|272:80|304:72,1,70,2|0,0:0|0:0,0:0:0:0:
352,136,27444,1,8,0:0:0:0:
352,136,27610,6,0,P|344:184|328:304,1,140,2|2,0:0|0:0,0:0:0:0:
256,336,28110,1,8,0:0:0:0:
184,272,28277,1,2,0:3:0:0:
224,184,28444,2,0,P|232:120|224:96,1,70,2|2,0:0|0:0,0:0:0:0:
168,40,28777,2,0,P|128:40|80:40,1,70,10|10,0:0|0:0,0:0:0:0:
24,104,29110,6,0,P|35:189|48:264,1,140,2|8,0:0|0:0,0:0:0:0:
104,320,29610,1,2,0:0:0:0:
104,320,29777,2,0,P|136:312|176:296,1,70,2|0,0:0|0:0,0:0:0:0:
252,240,30110,1,8,0:0:0:0:
340,284,30277,6,0,P|332:324|328:372,1,70,2|0,0:0|0:0,0:0:0:0:
424,332,30610,2,0,P|432:292|436:244,1,70,2|8,0:0|0:0,0:0:0:0:
472,171,30944,1,2,0:0:0:0:
396,108,31110,1,2,0:0:0:0:
304,152,31277,2,0,B|240:176|240:120|160:160,1,140,4|2,0:0|0:0,0:0:0:0:
88,216,31777,6,0,P|104:272|120:312,2,70,6|0|8,0:0|0:0|0:0,0:0:0:0:
168,156,32277,2,0,P|176:92|176:68,1,70,2|0,0:0|0:0,0:0:0:0:
248,24,32610,2,0,P|288:32|320:40,1,70,2|8,0:0|0:0,0:0:0:0:
408,72,32944,6,0,P|384:120|416:216,1,140,2|2,0:0|0:0,0:0:0:0:
456,280,33444,1,8,0:0:0:0:
400,360,33610,2,0,P|336:344|248:328,1,140,2|2,0:0|0:3,0:0:0:0:
176,280,34110,1,8,0:0:0:0:
240,208,34277,1,2,0:0:0:0:
240,208,34360,1,8,0:3:0:0:
240,208,34444,6,0,P|248:168|232:128,1,70,2|0,0:0|0:0,0:0:0:0:
171,70,34777,1,8,0:0:0:0:
256,24,34944,2,0,B|336:8|320:64|416:32,1,140,2|2,0:0|0:0,0:0:0:0:
464,104,35444,1,10,0:0:0:0:
464,104,35610,6,0,P|456:160|448:256,1,140,6|2,0:0|0:0,0:0:0:0:
384,312,36110,2,0,B|360:264|352:256|336:224,1,70,8|2,0:0|0:0,0:0:0:0:
280,184,36444,2,0,P|248:224|232:248,1,70,8|8,0:0|0:0,0:0:0:0:
168,288,36777,2,0,P|112:272|104:272,3,35,8|8|8|8,0:0|0:0|0:0|0:0,0:0:0:0:
88,256,37110,6,0,P|120:184|96:96,1,140,6|8,0:0|0:0,0:0:0:0:
48,56,37610,1,0,0:0:0:0:
112,125,37777,2,0,P|160:136|200:128,1,70,2|0,0:3|0:0,0:0:0:0:
264,88,38110,1,8,0:0:0:0:
336,152,38277,6,0,L|312:312,1,140,2|0,0:0|0:0,0:0:0:0:
248,360,38777,2,0,P|192:344|168:336,1,70,8|2,0:0|0:0,0:0:0:0:
128,256,39110,2,0,P|94:264|60:274,1,70,2|0,0:0|0:0,0:0:0:0:
40,176,39444,1,10,0:0:0:0:
40,176,39610,6,0,P|112:160|200:144,1,140,2|2,0:0|0:0,0:0:0:0:
272,184,40110,2,0,P|264:216|256:256,1,70,8|2,0:0|0:0,0:0:0:0:
304,336,40444,1,2,0:0:0:0:
304,336,40610,2,0,P|360:336|384:336,1,70,2|8,0:3|0:0,0:0:0:0:
456,280,40944,1,2,0:0:0:0:
416,192,41110,6,0,P|408:160|432:104,1,70,0|2,0:0|0:0,0:0:0:0:
368,40,41444,2,0,L|216:48,1,140,10|8,0:0|0:0,0:0:0:0:
136,24,41944,1,8,0:0:0:0:
136,24,42027,1,8,0:0:0:0:
136,24,42110,2,0,L|80:16,3,35,8|8|8|8,0:0|0:0|0:0|0:0,0:0:0:0:
56,32,42444,6,0,P|32:96|72:152,1,125.999996154785,6|2,0:0|0:3,0:0:0:0:
128,192,42944,1,0,0:0:0:0:
208,152,43110,2,0,L|336:160,1,125.999996154785,2|2,0:0|0:3,0:0:0:0:
416,120,43610,1,0,0:0:0:0:
472,192,43777,6,0,P|488:256|456:328,1,125.999996154785,2|2,0:0|0:3,0:0:0:0:
400,368,44277,1,0,0:0:0:0:
336,312,44444,2,0,L|208:304,1,125.999996154785,2|2,0:0|0:3,0:0:0:0:
160,232,44944,1,0,0:0:0:0:
224,168,45110,6,0,P|248:104|208:40,1,125.999996154785,2|2,0:0|0:3,0:0:0:0:
152,112,45610,1,0,0:0:0:0:
224,168,45777,2,0,B|296:136|288:192|368:152,1,125.999996154785,2|2,0:0|0:3,0:0:0:0:
416,104,46277,1,10,0:0:0:0:
464,176,46444,6,0,P|464:224|456:248,1,62.9999980773926,2|8,0:3|0:0,0:0:0:0:
384,288,46777,2,0,P|384:336|392:368,1,62.9999980773926,2|10,0:3|0:0,0:0:0:0:
296,336,47110,2,0,P|248:296|160:304,1,125.999996154785,2|2,0:3|0:3,0:0:0:0:
88,120,47777,6,0,P|184:128|224:96,1,140,6|0,0:0|0:0,0:0:0:0:
288,40,48277,1,2,0:0:0:0:
376,104,48444,2,0,L|360:272,1,140,6|0,0:0|0:0,0:0:0:0:
312,328,48944,1,2,0:0:0:0:
224,272,49110,6,0,P|160:248|88:280,1,140,6|0,0:0|0:0,0:0:0:0:
24,344,49610,1,2,0:0:0:0:
96,272,49777,2,0,P|128:184|104:128,1,140,6|2,0:0|0:0,0:0:0:0:
304,56,50444,6,0,L|384:64,1,70,6|0,0:0|0:0,0:0:0:0:
408,152,50777,2,0,L|328:144,1,70,8|0,0:0|0:0,0:0:0:0:
240,192,51110,2,0,P|264:248|224:328,1,140,8|8,0:0|0:0,0:0:0:0:
148,363,51610,1,0,0:0:0:0:
236,318,51777,6,0,L|385:326,1,140,2|0,0:0|0:0,0:0:0:0:
450,262,52277,2,0,P|458:222|450:174,1,70,2|0,0:0|0:0,0:0:0:0:
369,146,52610,2,0,P|361:98|377:58,1,70,8|0,0:0|0:0,0:0:0:0:
264,32,52944,6,0,L|120:48,1,140,6|2,0:0|0:3,0:0:0:0:
187,122,53444,2,0,P|205:160|199:203,1,70,8|0,0:0|0:0,0:0:0:0:
180,282,53777,1,2,0:3:0:0:
180,282,53944,1,2,0:3:0:0:
276,268,54110,2,0,L|350:282,1,70,8|0,0:0|0:0,0:0:0:0:
429,229,54444,6,0,P|432:192|415:149,1,70,2|2,0:0|0:3,0:0:0:0:
385,70,54777,1,8,0:0:0:0:
291,39,54944,2,0,P|247:44|214:34,1,70,2|2,0:0|0:3,0:0:0:0:
131,73,55277,2,0,P|136:117|126:150,1,70,2|8,0:0|0:0,0:0:0:0:
53,203,55610,6,0,L|221:199,1,140,6|2,0:0|0:3,0:0:0:0:
278,247,56110,2,0,P|289:205|285:169,1,70,8|0,0:0|0:0,0:0:0:0:
242,90,56444,1,2,0:3:0:0:
242,90,56610,1,2,0:3:0:0:
336,60,56777,2,0,L|417:60,1,70,8|0,0:0|0:0,0:0:0:0:
479,125,57110,6,0,L|472:200,1,70,6|2,0:0|0:3,0:0:0:0:
402,264,57444,1,8,0:0:0:0:
367,176,57610,2,0,P|329:170|274:185,1,70,2|2,0:0|0:3,0:0:0:0:
203,147,57944,2,0,P|165:153|110:138,1,70,2|8,0:0|0:0,0:0:0:0:
73,70,58277,6,0,L|85:233,1,140,6|2,0:0|0:0,0:0:0:0:
72,307,58777,1,8,0:0:0:0:
170,308,58944,2,0,L|309:297,1,140,2|2,0:0|0:3,0:0:0:0:
404,322,59444,1,8,0:0:0:0:
454,236,59610,6,0,P|468:163|416:94,1,140,2|2,0:0|0:3,0:0:0:0:
355,53,60110,1,8,0:0:0:0:
355,53,60277,2,0,P|341:126|393:195,1,140,2|2,0:0|0:3,0:0:0:0:
334,271,60777,2,0,L|238:270,1,70,8|0,0:0|0:0,0:0:0:0:
177,316,61110,6,0,B|147:239|200:242|168:159,1,140,2|8,0:0|0:0,0:0:0:0:
119,97,61610,1,2,0:0:0:0:
201,43,61777,2,0,B|278:13|275:66|358:34,1,140,2|8,0:0|0:0,0:0:0:0:
434,21,62277,1,2,0:0:0:0:
492,99,62444,6,0,L|488:175,1,70,2|0,0:0|0:0,0:0:0:0:
488,168,62694,1,8,0:0:0:0:
488,168,62777,1,8,0:0:0:0:
416,235,62944,2,0,L|326:230,1,70,2|2,0:0|3:0,0:0:0:0:
303,206,63194,1,8,0:0:0:0:
303,206,63277,2,0,L|293:160,3,35,8|8|8|8,0:0|0:0|0:0|0:0,0:0:0:0:
267,131,63610,6,0,P|204:115|127:168,1,140,6|2,0:0|0:3,0:0:0:0:
80,226,64110,2,0,L|86:305,1,70,8|0,0:0|0:0,0:0:0:0:
152,368,64444,1,2,0:3:0:0:
152,368,64610,1,2,0:3:0:0:
217,295,64777,2,0,L|312:289,1,70,8|0,0:0|0:0,0:0:0:0:
381,318,65110,6,0,L|391:234,1,70,2|0,0:0|0:0,0:0:0:0:
436,161,65444,1,8,0:0:0:0:
378,82,65610,2,0,P|341:79|292:92,1,70,2|2,0:0|0:3,0:0:0:0:
228,142,65944,2,0,P|225:179|238:228,1,70,2|8,0:0|0:0,0:0:0:0:
298,282,66277,6,0,B|262:302|262:302|151:299,1,140,6|2,0:0|0:3,0:0:0:0:
82,243,66777,2,0,L|76:164,1,70,8|0,0:0|0:0,0:0:0:0:
124,87,67110,1,2,0:3:0:0:
124,87,67277,1,2,0:3:0:0:
194,155,67444,2,0,P|228:140|254:112,1,70,8|0,0:0|0:0,0:0:0:0:
268,21,67777,6,0,L|174:25,1,70,2|2,0:0|0:3,0:0:0:0:
124,87,68110,1,8,0:0:0:0:
104,183,68277,2,0,L|113:272,1,70,8|8,0:0|0:0,0:0:0:0:
168,331,68610,2,0,P|188:308|195:290,3,35,8|8|8|8,0:0|0:0|0:0|0:0,0:0:0:0:
210,259,68944,6,0,P|275:238|349:265,1,140,6|2,0:0|0:3,0:0:0:0:
424,311,69444,2,0,L|436:238,1,70,10|0,0:0|0:0,0:0:0:0:
378,161,69777,2,0,L|366:88,1,70,10|0,0:0|0:0,0:0:0:0:
310,11,70110,2,0,P|275:18|228:7,1,70,10|0,0:0|0:0,0:0:0:0:
143,20,70444,6,0,P|108:13|61:24,1,70,10|0,0:0|0:0,0:0:0:0:
37,101,70777,2,0,L|47:186,1,70,10|2,0:0|0:3,0:0:0:0:
139,196,71110,2,0,L|129:111,1,70,10|0,0:0|0:0,0:0:0:0:
224,158,71444,2,0,L|232:227,1,70,10|2,0:0|0:3,0:0:0:0:
254,271,71694,1,8,0:0:0:0:
254,271,71777,6,0,L|351:260,1,70,10|0,0:0|0:0,0:0:0:0:
420,244,72110,2,0,L|443:169,1,70,8|0,0:0|0:0,0:0:0:0:
431,78,72444,1,8,0:0:0:0:
340,42,72610,1,2,0:3:0:0:
252,87,72777,2,0,L|155:76,1,70,8|0,0:0|0:0,0:0:0:0:
108,143,73110,6,0,L|121:221,1,70,10|0,0:0|0:0,0:0:0:0:
200,269,73444,2,0,L|213:191,1,70,8|2,0:0|0:3,0:0:0:0:
303,166,73777,2,0,L|353:165,3,35,10|8|8|8,0:3|0:0|0:0|0:0,0:0:0:0:
381,144,74110,2,0,L|431:145,3,35,8|8|8|8,0:0|0:0|0:0|0:0,0:0:0:0:
455,174,74444,6,0,L|444:256,1,70,14|2,0:0|0:0,0:0:0:0:
391,325,74777,2,0,L|309:314,1,70,8|2,0:0|0:3,0:0:0:0:
233,359,75110,1,10,0:0:0:0:
199,266,75277,1,2,0:3:0:0:
132,337,75444,2,0,P|75:338|50:326,1,70,8|2,0:0|0:3,0:0:0:0:
10,251,75777,6,0,P|9:194|21:169,1,70,10|2,0:0|0:3,0:0:0:0:
67,100,76110,1,8,0:0:0:0:
107,192,76277,1,2,0:3:0:0:
159,108,76444,2,0,P|196:100|243:107,1,70,10|2,0:0|0:3,0:0:0:0:
289,179,76777,2,0,P|326:187|373:180,1,70,8|2,0:0|0:3,0:0:0:0:
444,137,77110,5,2,0:0:0:0:
444,137,78110,5,2,0:0:0:0:
316,286,78444,2,0,L|171:275,1,140,2|2,0:0|0:0,0:0:0:0:
105,216,78944,1,2,0:0:0:0:
85,120,79110,2,0,L|77:72,2,35,8|8|8,0:0|0:0|0:0,0:0:0:0:
177,154,79444,1,8,0:0:0:0:
257,98,79610,6,0,B|331:75|329:122|409:90,1,140,6|0,0:0|0:0,0:0:0:0:
448,184,80110,1,8,0:0:0:0:
448,184,80277,2,0,L|456:256,1,70,2|0,0:0|0:0,0:0:0:0:
376,312,80610,2,0,L|368:232,1,70,2|8,0:0|0:0,0:0:0:0:
311,161,80944,6,0,B|279:185|279:185|159:169,1,140,2|0,0:0|0:0,0:0:0:0:
107,105,81444,1,8,0:0:0:0:
179,171,81610,2,0,P|191:225|175:265,1,70,2|0,0:0|0:0,0:0:0:0:
155,331,81944,1,2,0:0:0:0:
155,331,82110,1,10,0:0:0:0:
248,360,82277,6,0,L|408:352,1,140,6|0,0:0|0:0,0:0:0:0:
445,273,82777,1,8,0:0:0:0:
392,192,82944,2,0,P|384:144|400:104,1,70,2|0,0:0|0:0,0:0:0:0:
344,40,83277,2,0,P|304:48|256:32,1,70,2|8,0:0|0:0,0:0:0:0:
176,32,83610,6,0,B|120:8|80:32|80:32|136:72,1,140,2|0,0:0|0:0,0:0:0:0:
168,136,84110,1,8,0:0:0:0:
96,200,84277,2,0,P|168:176|240:224,1,140,2|2,0:0|0:0,0:0:0:0:
288,280,84777,1,10,0:0:0:0:
360,216,84944,6,0,L|368:56,1,140,6|0,0:0|0:0,0:0:0:0:
456,112,85444,2,0,L|451:190,1,70,8|0,0:0|0:0,0:0:0:0:
360,216,85777,1,8,0:0:0:0:
280,160,85944,1,0,0:0:0:0:
192,200,86110,2,0,P|152:192|104:208,1,70,8|0,0:0|0:0,0:0:0:0:
40,256,86444,6,0,L|56:344,1,70,10|0,0:0|0:0,0:0:0:0:
144,352,86777,2,0,L|128:272,1,70,10|0,0:0|0:0,0:0:0:0:
224,296,87110,2,0,L|240:392,1,70,10|0,0:0|0:0,0:0:0:0:
320,320,87444,2,0,L|304:232,1,70,10|0,0:0|0:0,0:0:0:0:
392,200,87777,6,0,L|408:288,2,70,8|2|2,0:0|0:3|0:3,0:0:0:0:
448,120,88277,2,0,L|432:51,2,70,8|2|2,0:0|0:3|0:3,0:0:0:0:
392,200,88777,2,0,L|298:195,1,70,8|2,0:0|0:0,0:0:0:0:
231,233,89110,5,2,0:0:0:0:
187,145,89277,1,8,0:0:0:0:
112,208,89444,2,0,P|119:240|129:268,3,35,0|0|0|0,1:0|1:0|1:0|1:0,0:0:0:0:
139,286,89777,2,0,P|147:342|147:350,3,35,8|2|2|2,0:0|0:0|0:0|0:0,0:0:0:0:
159,367,90110,2,0,L|215:375,2,35,2|2|2,0:0|0:0|0:0,0:0:0:0:
256,192,90360,12,2,92944,0:0:0:0:
