osu file format v14

[General]
AudioFilename: audio.mp3
AudioLeadIn: 0
PreviewTime: 52239
Countdown: 1
SampleSet: Soft
StackLeniency: 0.7
Mode: 0
LetterboxInBreaks: 0
WidescreenStoryboard: 1

[Editor]
DistanceSpacing: 6
BeatDivisor: 4
GridSize: 4
TimelineZoom: 1.9

[Metadata]
Title:Marine Blue ni Sotte
TitleUnicode:マリンブルーに沿って
Artist:Sasaki Sayaka
ArtistUnicode:佐咲紗花
Creator:_Meep_
Version:Extreme
Source:ちいさな彼女の小夜曲
Tags:
BeatmapID:993135
BeatmapSetID:463658

[Difficulty]
HPDrainRate:7
CircleSize:3.5
OverallDifficulty:8
ApproachRate:9.3
SliderMultiplier:0.900000005960469
SliderTickRate:2

[Events]
//Background and Video events
0,0,"ev_main_13.jpg",0,0
//Break Periods
//Storyboard Layer 0 (Background)
//Storyboard Layer 1 (Fail)
//Storyboard Layer 2 (Pass)
//Storyboard Layer 3 (Foreground)
//Storyboard Sound Samples

[TimingPoints]
4415,333.333333333333,4,2,0,5,1,0
4416,-66.6666666666667,4,2,0,60,0,0
10905,-66.6666666666667,4,1,0,5,0,0
13571,-200,4,1,0,5,0,0
14738,-200,4,3,0,58,0,0
15654,-200,4,2,0,35,0,0
53238,-200,4,2,0,68,0,0
53581,-200,4,2,0,70,0,1
79248,-200,4,2,0,70,0,0

[Colours]
Combo1 : 128,0,255
Combo2 : 255,255,0
Combo3 : 255,0,0
Combo4 : 255,100,240

[HitObjects]
256,192,915,12,0,4248,0:0:0:0:
96,80,4414,5,0,0:0:0:0:
112,96,4748,1,0,0:0:0:0:
272,336,4915,6,0,L|256:288,1,33.750001510978
256,288,5081,1,0,0:0:0:0:
253,254,5165,1,0,0:0:0:0:
263,222,5248,1,0,0:0:0:0:
275,190,5331,1,0,0:0:0:0:
280,157,5415,1,0,0:0:0:0:
279,123,5498,1,0,0:0:0:0:
274,90,5581,1,0,0:0:0:0:
144,64,5748,5,0,0:0:0:0:
112,192,5915,1,0,0:0:0:0:
224,144,6081,1,0,0:0:0:0:
384,64,6248,6,0,L|448:112,1,67.5000030219559
406,184,6581,2,0,L|352:144,1,67.5000030219559
320,224,6915,2,0,L|384:272,1,67.5000030219559
384,272,7248,5,0,0:0:0:0:
128,272,7415,1,0,0:0:0:0:
228,138,7581,6,0,L|148:98,1,67.5000030219559
168,108,7915,1,0,0:0:0:0:
416,272,8081,1,0,0:0:0:0:
416,272,8248,6,0,P|384:304|352:336,1,67.5000030219559
144,320,8581,2,0,P|112:288|80:256,1,67.5000030219559
96,112,8915,2,0,P|128:80|160:48,1,67.5000030219559
368,64,9248,2,0,P|400:96|432:128,1,67.5000030219559
415,111,9581,1,0,0:0:0:0:
416,272,9748,1,0,0:0:0:0:
416,112,9915,1,0,0:0:0:0:
320,288,10081,1,0,0:0:0:0:
416,112,10248,1,0,0:0:0:0:
336,96,10415,6,0,P|336:144|352:192,1,67.5000030219559
340,162,10748,1,0,0:0:0:0:
416,92,10915,2,0,B|368:92|416:-4|480:92|416:188|320:92|416:-52|528:92|416:220|272:92|416:-100|576:92|416:252,2,337.50001510978
416,92,12748,5,0,0:0:0:0:
232,232,13081,1,0,0:0:0:0:
232,64,13415,1,0,0:0:0:0:
132,272,13748,6,0,L|156:292,2,22.5000001490117
372,120,14248,2,0,L|400:104,2,22.5000001490117
344,208,14748,5,0,0:0:0:0:
292,324,14915,1,0,0:0:0:0:
168,60,15081,1,0,0:0:0:0:
308,320,15248,1,0,0:0:0:0:
80,184,15415,1,0,0:0:0:0:
312,320,15581,1,0,0:0:0:0:
372,96,15748,6,0,L|384:108,2,11.2500000745059
128,112,16415,5,0,0:0:0:0:
332,272,17081,5,0,0:0:0:0:
336,96,17581,6,0,P|352:112|372:120,1,45.0000002980235
144,292,18248,5,0,0:0:0:0:
140,108,18415,1,0,0:0:0:0:
140,108,18581,1,0,0:0:0:0:
288,308,18748,1,0,0:0:0:0:
288,308,18915,1,0,0:0:0:0:
408,172,19081,1,0,0:0:0:0:
128,304,19748,6,0,L|112:308,1,11.2500000745059
128,128,20081,6,0,L|140:136,1,11.2500000745059
144,140,20248,2,0,P|168:140|184:152,1,45.0000002980235
188,164,20665,2,0,L|188:184,1,11.2500000745059
404,104,21081,6,0,L|400:124,1,11.2500000745059
400,128,21248,2,0,L|392:164,1,33.7500002235176
392,160,21581,5,0,0:0:0:0:
304,64,21748,1,0,0:0:0:0:
312,224,22081,5,0,0:0:0:0:
236,112,22248,1,0,0:0:0:0:
112,256,22581,1,0,0:0:0:0:
184,316,22915,5,0,0:0:0:0:
440,84,23248,5,0,0:0:0:0:
448,192,23415,1,0,0:0:0:0:
456,300,23581,1,0,0:0:0:0:
192,80,24248,5,0,0:0:0:0:
160,272,24415,1,0,0:0:0:0:
388,96,24748,6,0,L|392:112,1,11.2500000745059
416,256,24915,5,0,0:0:0:0:
256,192,25248,5,0,0:0:0:0:
96,256,25415,1,0,0:0:0:0:
256,192,25581,1,0,0:0:0:0:
368,160,25748,5,0,0:0:0:0:
384,192,25915,1,0,0:0:0:0:
400,128,26081,1,0,0:0:0:0:
352,208,26248,1,0,0:0:0:0:
352,96,26415,1,0,0:0:0:0:
384,256,26581,1,0,0:0:0:0:
240,208,26748,1,0,0:0:0:0:
216,116,26915,5,0,0:0:0:0:
416,284,27081,2,0,L|400:304,2,22.5000001490117
380,124,27748,5,0,0:0:0:0:
208,268,27915,2,0,L|216:288,2,22.5000001490117
260,168,28581,5,0,0:0:0:0:
372,320,28748,1,0,0:0:0:0:
476,176,28915,1,0,0:0:0:0:
260,120,29081,1,0,0:0:0:0:
444,308,29248,1,0,0:0:0:0:
372,128,29415,1,0,0:0:0:0:
248,284,29581,1,0,0:0:0:0:
452,224,29748,1,0,0:0:0:0:
132,96,29915,2,0,L|120:120,2,22.5000001490117
440,156,30415,6,0,L|432:184,1,22.5000001490117
432,192,30748,1,0,0:0:0:0:
428,204,30915,2,0,P|409:229|390:241,1,45.0000002980235
133,135,32248,6,0,L|141:143,1,11.2500000745059
141,143,32415,2,0,P|144:160|152:168,3,22.5000001490117
160,312,33248,5,0,0:0:0:0:
300,240,33415,2,0,L|332:236,1,22.5000001490117
384,160,33915,1,0,0:0:0:0:
416,288,34081,1,0,0:0:0:0:
496,208,34248,1,0,0:0:0:0:
136,284,34915,5,0,0:0:0:0:
196,72,35081,1,0,0:0:0:0:
296,304,35248,1,0,0:0:0:0:
104,112,35415,1,0,0:0:0:0:
344,164,35581,1,0,0:0:0:0:
244,88,35915,1,0,0:0:0:0:
292,284,36081,1,0,0:0:0:0:
148,264,36248,2,0,L|132:272,1,11.2500000745059
304,160,36415,6,0,L|304:192,1,22.5000001490117
304,192,36748,1,0,0:0:0:0:
400,264,36915,1,0,0:0:0:0:
308,192,37081,1,0,0:0:0:0:
144,220,37248,5,0,0:0:0:0:
135,203,37331,1,0,0:0:0:0:
131,184,37415,1,0,0:0:0:0:
132,165,37498,1,0,0:0:0:0:
139,147,37581,1,0,0:0:0:0:
150,132,37665,1,0,0:0:0:0:
268,102,37748,6,0,B|280:210|296:130|311:232,1,135.00000089407
84,128,38915,6,0,B|60:174|92:200|71:243,1,112.500000745059
73,238,40081,5,0,0:0:0:0:
320,192,40415,6,0,B|304:192|288:208|328:192|272:192|272:192|240:182,1,78.750000521541
244,184,41081,5,0,0:0:0:0:
80,108,41248,1,0,0:0:0:0:
152,288,41415,1,0,0:0:0:0:
312,200,41581,1,0,0:0:0:0:
152,168,42081,5,0,0:0:0:0:
160,160,42165,1,0,0:0:0:0:
168,152,42248,1,0,0:0:0:0:
176,144,42331,1,0,0:0:0:0:
192,136,42415,1,0,0:0:0:0:
208,128,42498,1,0,0:0:0:0:
224,124,42581,1,0,0:0:0:0:
244,120,42665,1,0,0:0:0:0:
264,120,42748,1,0,0:0:0:0:
136,132,43081,6,0,L|136:172,1,33.7500002235176
136,172,43415,1,0,0:0:0:0:
336,88,43748,5,0,0:0:0:0:
340,100,43831,2,0,L|360:136,1,33.7500002235176
192,148,44414,6,0,L|182:165,1,11.2500000745059
179,166,44581,1,0,0:0:0:0:
171,171,44664,2,0,L|157:185,1,11.2500000745059
364,224,45081,6,0,L|361:206,1,11.2500000745059
359,188,45248,1,0,0:0:0:0:
356,168,45415,1,0,0:0:0:0:
92,172,45748,5,0,0:0:0:0:
164,84,45915,2,0,L|144:108,1,22.5000001490117
196,284,46248,1,0,0:0:0:0:
256,112,46415,2,0,P|272:112|304:96,1,45.0000002980235
128,76,46915,5,0,0:0:0:0:
420,332,47081,2,0,L|408:312,1,22.5000001490117
236,212,47415,2,0,L|224:232,1,22.5000001490117
400,176,47748,2,0,L|424:184,1,22.5000001490117
280,88,48081,2,0,L|272:68,1,22.5000001490117
104,80,48415,6,0,L|80:128,1,45.0000002980235
128,248,48915,1,0,0:0:0:0:
192,144,49081,2,0,P|208:168|252:180,1,67.5000004470352
224,304,49665,1,0,0:0:0:0:
224,304,49748,2,0,B|264:256|264:256|304:248|320:208,1,135.00000089407
164,84,51081,6,0,L|144:108,2,22.5000001490117
292,128,51581,2,0,L|304:104,2,22.5000001490117
144,224,51998,2,0,L|148:208,1,11.2500000745059
152,196,52164,1,0,0:0:0:0:
280,316,52248,6,0,L|272:304,1,11.2500000745059
116,92,53248,5,0,0:0:0:0:
128,100,53331,1,0,0:0:0:0:
140,108,53415,1,0,0:0:0:0:
152,120,53498,1,0,0:0:0:0:
164,136,53581,2,0,P|164:176|168:184,1,45.0000002980235
280,104,54081,5,0,0:0:0:0:
408,200,54248,1,0,0:0:0:0:
276,220,54415,1,0,0:0:0:0:
360,112,54581,1,0,0:0:0:0:
236,168,54748,1,0,0:0:0:0:
340,252,54915,1,0,0:0:0:0:
392,128,55081,1,0,0:0:0:0:
272,68,55248,1,0,0:0:0:0:
152,132,55415,6,0,L|140:140,1,11.2500000745059
132,144,55581,2,0,L|148:168,1,22.5000001490117
352,92,55915,2,0,L|352:108,2,11.2500000745059
244,184,56248,1,0,0:0:0:0:
140,268,56415,1,0,0:0:0:0:
160,136,56581,1,0,0:0:0:0:
256,232,56748,1,0,0:0:0:0:
296,104,56915,1,0,0:0:0:0:
192,192,57081,1,0,0:0:0:0:
204,56,57248,1,0,0:0:0:0:
280,168,57415,1,0,0:0:0:0:
112,104,57581,1,0,0:0:0:0:
152,260,57748,5,0,0:0:0:0:
244,152,58081,2,0,L|224:148,1,11.2500000745059
336,96,58248,1,0,0:0:0:0:
280,244,58581,1,0,0:0:0:0:
168,152,58915,6,0,B|158:164|164:168|164:168|149:190|160:204|160:204|168:192,1,67.5000004470352
64,88,59581,1,0,0:0:0:0:
155,249,60081,5,0,0:0:0:0:
328,148,60248,2,0,L|360:208,1,67.5000004470352
359,207,60915,1,0,0:0:0:0:
176,104,61415,6,0,L|152:112,1,22.5000001490117
140,116,61748,2,0,B|116:132|104:152|104:152|88:108,1,90.0000005960469
296,96,62748,6,0,L|320:104,1,22.5000001490117
200,160,63248,6,0,L|180:168,1,22.5000001490117
392,264,63748,6,0,L|408:284,1,22.5000001490117
416,296,63998,1,0,0:0:0:0:
419,266,64081,1,0,0:0:0:0:
418,235,64165,1,0,0:0:0:0:
414,206,64248,1,0,0:0:0:0:
409,176,64331,1,0,0:0:0:0:
272,84,64415,5,0,0:0:0:0:
160,216,64581,1,0,0:0:0:0:
280,276,64748,1,0,0:0:0:0:
256,176,64915,1,0,0:0:0:0:
192,296,65081,1,0,0:0:0:0:
136,136,65248,1,0,0:0:0:0:
92,256,65415,1,0,0:0:0:0:
52,80,65581,1,0,0:0:0:0:
244,84,65748,6,0,L|208:112,1,45.0000002980235
164,240,66248,1,0,0:0:0:0:
428,300,66581,5,0,0:0:0:0:
208,144,66915,6,0,L|188:156,1,22.5000001490117
232,284,67248,1,0,0:0:0:0:
284,120,67415,1,0,0:0:0:0:
144,208,67581,1,0,0:0:0:0:
288,224,67748,1,0,0:0:0:0:
176,76,67915,1,0,0:0:0:0:
176,272,68081,1,0,0:0:0:0:
360,184,68248,1,0,0:0:0:0:
256,268,68415,5,0,0:0:0:0:
136,104,68748,5,0,0:0:0:0:
316,196,68915,1,0,0:0:0:0:
316,196,69248,1,0,0:0:0:0:
68,88,69581,6,0,L|72:120,1,22.5000001490117
192,192,69915,1,0,0:0:0:0:
108,248,70081,1,0,0:0:0:0:
160,96,70248,1,0,0:0:0:0:
192,288,70415,1,0,0:0:0:0:
96,160,70581,1,0,0:0:0:0:
192,176,70748,1,0,0:0:0:0:
96,336,70915,1,0,0:0:0:0:
272,304,71081,5,0,0:0:0:0:
304,144,71248,1,0,0:0:0:0:
192,320,71415,1,0,0:0:0:0:
368,96,71581,1,0,0:0:0:0:
112,304,71748,1,0,0:0:0:0:
448,80,71915,1,0,0:0:0:0:
192,64,72081,1,0,0:0:0:0:
384,336,72248,1,0,0:0:0:0:
124,176,72415,5,0,0:0:0:0:
356,296,72581,1,0,0:0:0:0:
236,124,72748,1,0,0:0:0:0:
168,344,72915,1,0,0:0:0:0:
352,128,73081,1,0,0:0:0:0:
140,132,73248,1,0,0:0:0:0:
308,284,73415,1,0,0:0:0:0:
248,128,73581,1,0,0:0:0:0:
312,288,73748,6,0,L|296:280,2,11.2500000745059
312,288,73998,2,0,L|320:300,2,11.2500000745059
308,268,74248,1,0,0:0:0:0:
303,257,74331,1,0,0:0:0:0:
299,247,74415,1,0,0:0:0:0:
298,236,74498,1,0,0:0:0:0:
300,225,74581,1,0,0:0:0:0:
298,214,74665,1,0,0:0:0:0:
293,204,74748,1,0,0:0:0:0:
120,136,74915,6,0,L|112:160,1,22.5000001490117
368,352,75248,1,0,0:0:0:0:
368,47,75415,1,0,0:0:0:0:
189,105,75581,1,0,0:0:0:0:
478,199,75748,5,0,0:0:0:0:
189,293,75915,1,0,0:0:0:0:
368,44,76081,1,0,0:0:0:0:
188,104,76248,1,0,0:0:0:0:
368,352,76415,5,0,0:0:0:0:
480,196,76581,1,0,0:0:0:0:
188,292,76748,1,0,0:0:0:0:
192,100,76915,1,0,0:0:0:0:
368,48,77081,5,0,0:0:0:0:
480,192,77248,1,0,0:0:0:0:
184,288,77415,1,0,0:0:0:0:
336,184,77581,2,0,L|352:192,1,11.2500000745059
256,192,77748,12,0,79081,0:0:0:0:
168,136,79748,5,0,0:0:0:0:
184,140,79831,1,0,0:0:0:0:
200,144,79915,1,0,0:0:0:0:
212,152,79998,1,0,0:0:0:0:
216,168,80081,1,0,0:0:0:0:
220,180,80165,1,0,0:0:0:0:
232,188,80248,2,0,P|256:196|280:192,1,45.0000002980235
260,92,80748,5,0,0:0:0:0:
112,232,80915,2,0,L|132:252,1,22.5000001490117
172,220,81248,2,0,L|192:240,1,22.5000001490117
232,200,81581,2,0,L|252:220,1,22.5000001490117
372,272,81915,5,0,0:0:0:0:
324,144,82081,1,0,0:0:0:0:
240,224,82248,1,0,0:0:0:0:
288,288,82415,1,0,0:0:0:0:
240,144,82581,1,0,0:0:0:0:
400,208,82748,1,0,0:0:0:0:
320,128,82915,1,0,0:0:0:0:
224,120,83081,6,0,L|208:140,1,22.5000001490117
272,304,83415,1,0,0:0:0:0:
144,260,83581,1,0,0:0:0:0:
224,192,83748,1,0,0:0:0:0:
336,260,83915,1,0,0:0:0:0:
300,128,84081,1,0,0:0:0:0:
164,112,84248,5,0,0:0:0:0:
276,184,84415,1,0,0:0:0:0:
172,248,84581,1,0,0:0:0:0:
288,320,84748,1,0,0:0:0:0:
348,200,84915,1,0,0:0:0:0:
276,84,85081,5,0,0:0:0:0:
208,200,85248,1,0,0:0:0:0:
104,284,85415,1,0,0:0:0:0:
212,336,85581,2,0,B|245:296|294:352|319:316,1,112.500000745059
332,148,87081,5,0,0:0:0:0:
352,136,87748,5,0,0:0:0:0:
332,144,88415,5,0,0:0:0:0:
248,248,88581,1,0,0:0:0:0:
212,116,88748,1,0,0:0:0:0:
344,276,88915,1,0,0:0:0:0:
328,88,89081,5,0,0:0:0:0:
176,236,89248,1,0,0:0:0:0:
184,52,89415,1,0,0:0:0:0:
264,160,89581,1,0,0:0:0:0:
424,152,89748,5,0,0:0:0:0:
152,160,89915,1,0,0:0:0:0:
456,256,90081,1,0,0:0:0:0:
88,252,90248,1,0,0:0:0:0:
196,52,90415,1,0,0:0:0:0:
205,87,90498,1,0,0:0:0:0:
216,122,90581,1,0,0:0:0:0:
228,156,90665,1,0,0:0:0:0:
241,190,90748,1,0,0:0:0:0:
380,140,90915,5,0,0:0:0:0:
120,204,91415,6,0,L|120:180,1,22.5000001490117
168,192,91748,2,0,L|168:164,1,22.5000001490117
224,152,92081,6,0,L|224:174,1,22.5000001490117
272,140,92415,2,0,L|272:162,1,22.5000001490117
224,288,92748,5,0,0:0:0:0:
288,128,92915,1,0,0:0:0:0:
284,256,93081,1,0,0:0:0:0:
260,104,93248,1,0,0:0:0:0:
224,336,93414,1,0,0:0:0:0:
340,280,93581,2,0,L|356:284,1,11.2500000745059
