osu file format v14

[General]
AudioFilename: audio.mp3
AudioLeadIn: 0
PreviewTime: 174112
Countdown: 0
SampleSet: Soft
StackLeniency: 0.5
Mode: 0
LetterboxInBreaks: 0
WidescreenStoryboard: 0

[Editor]
DistanceSpacing: 1.5
BeatDivisor: 4
GridSize: 4
TimelineZoom: 2.2

[Metadata]
Title:Marine Blue ni Sotte
TitleUnicode:マリンブルーに沿って
Artist:Sasaki Sayaka
ArtistUnicode:佐咲紗花
Creator:Maaadbot
Version:Confession
Source:ちいさな彼女の小夜曲
Tags:atlantico blue fem female vocals feminine chiikano chiisana kanojo no serenade sayokyoku feng eroge galgame visual novel opening japanese pop video game jpop j-pop asukow grazuko shayks nakaronix kuki1537
BeatmapID:3708437
BeatmapSetID:1797079

[Difficulty]
HPDrainRate:5.6
CircleSize:4
OverallDifficulty:9.2
ApproachRate:9.3
SliderMultiplier:1.82
SliderTickRate:1

[Events]
//Background and Video events
0,0,"bg1Horny.jpg",0,0
//Break Periods
//Storyboard Layer 0 (Background)
//Storyboard Layer 1 (Fail)
//Storyboard Layer 2 (Pass)
//Storyboard Layer 3 (Foreground)
//Storyboard Layer 4 (Overlay)
//Storyboard Sound Samples

[TimingPoints]
-304,333.333333333333,4,2,22,45,1,0
3529,-138.888888888889,4,2,22,5,0,0
3695,-121.951219512195,4,2,22,55,0,0
4862,-98.0392156862745,4,2,22,75,0,0
11612,-98.0392156862745,4,2,22,5,0,0
11695,-98.0392156862745,4,2,22,75,0,0
15612,-98.0392156862745,4,2,22,5,0,0
15695,-121.951219512195,4,2,22,55,0,0
18279,-121.951219512195,4,2,22,5,0,0
18362,-121.951219512195,4,2,22,55,0,0
20779,-121.951219512195,4,2,22,5,0,0
20862,-121.951219512195,4,2,22,55,0,0
23112,-121.951219512195,4,2,22,5,0,0
23195,-121.951219512195,4,2,22,55,0,0
23612,-121.951219512195,4,2,22,5,0,0
23695,-121.951219512195,4,2,22,55,0,0
26362,-108.695652173913,4,2,22,65,0,0
26612,-108.695652173913,4,2,22,5,0,0
26695,-108.695652173913,4,2,22,65,0,0
29279,-108.695652173913,4,2,22,5,0,0
29362,-108.695652173913,4,2,22,65,0,0
31612,-108.695652173913,4,2,22,5,0,0
31695,-108.695652173913,4,2,22,65,0,0
34612,-108.695652173913,4,2,22,5,0,0
34695,-108.695652173913,4,2,22,65,0,0
37029,-121.951219512195,4,2,22,55,0,0
39945,-121.951219512195,4,2,22,5,0,0
40029,-121.951219512195,4,2,22,55,0,0
47695,-108.695652173913,4,2,22,65,0,0
49945,-108.695652173913,4,2,22,5,0,0
50029,-108.695652173913,4,2,22,65,0,0
50612,-108.695652173913,4,2,22,5,0,0
50695,-108.695652173913,4,2,22,65,0,0
51695,-161.290322580645,4,2,22,65,0,0
52779,-161.290322580645,4,2,22,5,0,0
52862,-89.2857142857143,4,2,22,85,0,1
62279,-89.2857142857143,4,2,22,5,0,1
62362,-89.2857142857143,4,2,22,85,0,1
64945,-89.2857142857143,4,2,22,5,0,1
65029,-89.2857142857143,4,2,22,85,0,1
74612,-89.2857142857143,4,2,22,5,0,1
74695,-89.2857142857143,4,2,22,85,0,1
78362,-89.2857142857143,4,2,22,5,0,1
79029,-89.2857142857143,4,2,22,85,0,1
79529,-98.0392156862745,4,2,22,75,0,0
90362,-108.695652173913,4,2,22,65,0,0
90612,-108.695652173913,4,2,22,5,0,0
90695,-108.695652173913,4,2,22,65,0,0
98612,-108.695652173913,4,2,22,5,0,0
98695,-108.695652173913,4,2,22,65,0,0
101279,-108.695652173913,4,2,22,5,0,0
101362,-108.695652173913,4,2,22,65,0,0
103612,-108.695652173913,4,2,22,5,0,0
103695,-108.695652173913,4,2,22,65,0,0
106029,-238.095238095238,4,2,22,65,0,0
106279,-238.095238095238,4,2,22,5,0,0
106362,-108.695652173913,4,2,22,65,0,0
111695,-89.2857142857143,4,2,22,65,0,0
115779,-89.2857142857143,4,2,22,5,0,0
115862,-89.2857142857143,4,2,22,65,0,0
116862,-89.2857142857143,4,2,22,85,0,1
126279,-89.2857142857143,4,2,22,5,0,1
126362,-89.2857142857143,4,2,22,85,0,1
128945,-89.2857142857143,4,2,22,5,0,1
129029,-89.2857142857143,4,2,22,85,0,1
135612,-89.2857142857143,4,2,22,5,0,1
135695,-89.2857142857143,4,2,22,85,0,1
138612,-89.2857142857143,4,2,22,5,0,1
138695,-89.2857142857143,4,2,22,85,0,1
143695,-121.951219512195,4,2,22,55,0,0
143945,-121.951219512195,4,2,22,5,0,0
144029,-121.951219512195,4,2,22,55,0,0
154362,-108.695652173913,4,2,22,65,0,0
155279,-108.695652173913,4,2,22,5,0,0
155362,-108.695652173913,4,2,22,65,0,0
159945,-108.695652173913,4,2,22,5,0,0
160029,-108.695652173913,4,2,22,65,0,0
164862,-98.0392156862745,4,2,22,75,0,0
171279,-98.0392156862745,4,2,22,5,0,0
171362,-98.0392156862745,4,2,22,75,0,0
174362,-161.290322580645,4,2,22,75,0,0
175529,-138.888888888889,4,2,22,45,0,0
176695,-161.290322580645,4,2,22,45,0,0
176945,-138.888888888889,4,2,22,5,0,0
177029,-138.888888888889,4,2,22,45,0,0
177529,-161.290322580645,4,2,22,45,0,0
178195,-138.888888888889,4,2,22,45,0,0
179279,-138.888888888889,4,2,22,5,0,0
179362,-138.888888888889,4,2,22,45,0,0
179695,-89.2857142857143,4,2,22,85,0,1
184945,-89.2857142857143,4,2,22,5,0,1
185029,-89.2857142857143,4,2,22,85,0,1
186695,-108.695652173913,4,2,22,65,0,1
191529,-89.2857142857143,4,2,22,85,0,1
197279,-89.2857142857143,4,2,22,5,0,1
197362,-89.2857142857143,4,2,22,85,0,1
198612,-89.2857142857143,4,2,22,5,0,1
198695,-89.2857142857143,4,2,22,85,0,1
199945,-89.2857142857143,4,2,22,5,0,1
200029,-89.2857142857143,4,2,22,85,0,1
201279,-89.2857142857143,4,2,22,5,0,1
201362,-89.2857142857143,4,2,22,85,0,1
202612,-89.2857142857143,4,2,22,5,0,1
202695,-89.2857142857143,4,2,22,85,0,1
203945,-89.2857142857143,4,2,22,5,0,1
204029,-89.2857142857143,4,2,22,85,0,1
207945,-89.2857142857143,4,2,22,5,0,1
208029,-89.2857142857143,4,2,22,85,0,1
212362,333.333333333333,4,2,22,5,1,1
213028,-98.0392156862745,4,2,22,85,0,1
213528,-98.0392156862745,4,2,22,75,0,0
213695,333.333333333333,4,2,22,72,1,0
223112,-98.0392156862745,4,2,22,5,0,0
223195,-98.0392156862745,4,2,22,75,0,0
223278,-98.0392156862745,4,2,22,5,0,0
223362,-98.0392156862745,4,2,22,75,0,0
223445,-98.0392156862745,4,2,22,5,0,0
223528,-98.0392156862745,4,2,22,75,0,0
223612,-98.0392156862745,4,2,22,5,0,0
223695,-98.0392156862745,4,2,22,75,0,0
223778,-98.0392156862745,4,2,22,5,0,0
223862,-98.0392156862745,4,2,22,75,0,0
223945,-98.0392156862745,4,2,22,5,0,0
224028,-98.0392156862745,4,2,22,75,0,0
224112,-98.0392156862745,4,2,22,5,0,0
224195,-98.0392156862745,4,2,22,75,0,0
234861,-138.888888888889,4,2,22,75,0,0
237528,-98.0392156862745,4,2,22,35,0,0

[Colours]
Combo1 : 252,163,211
Combo2 : 247,171,68

[HitObjects]
256,192,362,12,0,3529,0:2:0:0:
61,113,3695,6,0,P|131:137|195:175,1,149.240002277222,2|2,0:2|0:2,0:2:0:0:
270,79,4195,2,0,P|248:85|230:91,1,37.3100005693054,0|0,1:2|1:2,0:2:0:0:
83,216,4362,1,2,1:2:0:0:
86,239,4445,1,0,1:2:0:0:
90,263,4528,1,8,0:2:0:0:
94,287,4612,1,8,0:2:0:0:
97,311,4695,1,8,0:2:0:0:
101,335,4779,1,8,0:2:0:0:
104,355,4862,6,0,B|139:343|177:326|177:326|209:332|209:332|243:313|278:305,1,185.640001133057,2|0,1:2|1:2,0:2:0:0:
456,197,5362,1,8,0:2:0:0:
415,383,5529,2,0,P|404:338|388:295,1,92.8200005665283,2|0,0:2|1:2,0:2:0:0:
272,184,5862,1,2,1:2:0:0:
472,276,6029,1,8,0:2:0:0:
262,359,6195,6,0,P|228:314|106:333,1,185.640001133057,2|0,1:2|1:2,0:2:0:0:
11,170,6695,1,8,0:2:0:0:
185,215,6862,2,0,P|236:190|289:183,1,92.8200005665283,2|0,0:2|1:2,0:2:0:0:
81,113,7195,1,2,1:2:0:0:
275,52,7362,1,10,0:2:0:0:
90,202,7529,6,0,P|104:263|125:405,1,185.640001133057,6|0,1:2|1:2,0:2:0:0:
6,199,8029,1,8,0:2:0:0:
190,271,8195,2,0,P|205:210|236:174,1,92.8200005665283,2|0,0:2|1:2,0:2:0:0:
389,119,8529,1,2,1:2:0:0:
279,263,8695,1,8,0:2:0:0:
141,55,8862,6,0,B|165:66|206:75|206:75|233:106|233:106|273:115|305:130,1,185.640001133057,2|0,1:2|1:2,0:2:0:0:
473,0,9362,1,8,0:2:0:0:
389,119,9529,2,0,P|408:170|411:223,1,92.8200005665283,2|0,0:2|1:2,0:2:0:0:
293,351,9862,1,10,0:2:0:0:
284,336,9945,1,8,0:2:0:0:
287,318,10029,1,10,0:2:0:0:
512,221,10195,6,0,P|481:292|369:285,1,185.640001133057,6|0,1:2|1:2,0:2:0:0:
196,242,10695,2,0,P|153:260|108:273,1,92.8200005665283,8|0,0:2|0:2,0:2:0:0:
0,119,11029,1,0,1:2:0:0:
174,171,11195,1,0,1:2:0:0:
11,347,11362,2,0,P|8:294|84:290,1,139.230000849792,8|0,0:2|0:2,0:2:0:0:
123,353,11695,5,2,1:2:0:0:
77,158,11862,1,0,1:2:0:0:
232,297,12029,2,0,P|243:251|264:210,1,92.8200005665283,10|0,0:2|0:2,0:2:0:0:
168,57,12362,1,2,1:2:0:0:
348,171,12529,1,0,1:2:0:0:
108,244,12695,2,0,P|97:198|76:157,1,92.8200005665283,10|0,0:2|0:2,0:2:0:0:
363,61,13029,5,14,0:2:0:0:
228,325,13195,1,0,1:2:0:0:
261,8,13362,1,0,1:2:0:0:
368,292,13529,5,10,0:2:0:0:
75,149,13695,1,0,1:2:0:0:
425,175,13862,1,0,1:2:0:0:
117,34,14029,5,10,0:2:0:0:
228,353,14195,1,0,1:2:0:0:
411,72,14362,5,2,1:2:0:0:
195,260,14529,2,0,P|163:243|99:237,1,92.8200005665283,10|0,0:2|1:2,0:2:0:0:
346,136,14862,1,0,1:2:0:0:
212,376,15029,5,8,0:2:0:0:
97,12,15195,1,8,0:2:0:0:
77,30,15529,6,0,P|90:50|96:89,1,46.4100002832642,2|0,0:2|0:2,0:2:0:0:
32,150,15695,6,0,P|105:155|171:190,1,149.240002277222,6|0,1:2|0:2,0:2:0:0:
302,203,16195,1,2,0:2:0:0:
302,203,16362,2,0,B|273:219|250:231|250:231|234:256|234:256|206:267|180:284,1,149.240002277222,2|2,0:2|0:2,0:2:0:0:
85,343,16862,6,0,P|129:354|166:372,1,74.6200011386109,2|0,0:2|0:2,0:2:0:0:
180,284,17195,2,0,P|145:269|109:261,1,74.6200011386109,2|0,0:2|0:2,0:2:0:0:
196,194,17529,1,2,0:2:0:0:
110,102,17695,2,0,P|100:145|120:179,2,74.6200011386109,2|2|2,0:2|1:2|0:2,0:2:0:0:
192,58,18195,2,0,P|212:70|243:79,1,37.3100005693054,2|0,1:2|0:2,0:2:0:0:
408,119,18362,6,0,P|336:108|281:154,1,149.240002277222,2|0,1:2|0:2,0:2:0:0:
141,194,18862,1,2,0:2:0:0:
141,194,19029,2,0,B|161:207|199:222|199:222|212:243|212:243|243:254|266:267,1,149.240002277222,2|2,0:2|0:2,0:2:0:0:
359,296,19529,6,0,P|335:324|326:360,1,74.6200011386109,2|0,0:2|0:2,0:2:0:0:
215,384,19862,2,0,P|206:347|182:319,1,74.6200011386109,2|0,0:2|0:2,0:2:0:0:
266,267,20195,1,0,0:2:0:0:
266,267,20362,1,0,0:2:0:0:
103,259,20529,2,0,P|150:244|203:190,1,111.930001707916,0|0,0:2|0:2,0:2:0:0:
207,183,20862,1,2,1:2:0:0:
57,26,21029,6,0,P|81:70|114:179,1,149.240002277222,6|2,1:2|0:2,0:2:0:0:
16,272,21529,2,0,P|11:231|46:208,1,74.6200011386109,2|0,0:2|0:2,0:2:0:0:
183,213,21862,2,0,P|226:224|261:244,1,74.6200011386109,2|0,0:2|0:2,0:2:0:0:
371,366,22195,6,0,P|325:323|240:365,1,149.240002277222,2|2,0:2|0:2,0:2:0:0:
85,283,22695,1,2,0:2:0:0:
160,353,22862,2,0,P|168:303|194:231,1,111.930001707916,2|0,0:2|0:2,0:2:0:0:
183,213,23195,2,0,P|148:181|115:191,1,74.6200011386109,0|0,1:2|0:2,0:2:0:0:
0,198,23529,2,0,P|28:205|52:223,1,37.3100005693054,2|0,1:2|0:2,0:2:0:0:
174,303,23695,6,0,P|226:281|338:261,1,149.240002277222,2|2,1:2|0:2,0:2:0:0:
440,211,24195,2,0,P|426:245|417:281,1,74.6200011386109,2|0,0:2|0:2,0:2:0:0:
352,172,24529,1,2,0:2:0:0:
443,365,24695,1,2,1:2:0:0:
498,57,24862,6,0,P|445:32|370:86,1,149.240002277222,10|0,0:2|1:2,0:2:0:0:
253,249,25362,1,0,1:2:0:0:
494,145,25529,1,0,1:2:0:0:
176,48,25695,1,0,1:2:0:0:
427,288,25862,1,10,0:2:0:0:
427,288,25945,1,8,0:2:0:0:
427,288,26029,1,10,0:2:0:0:
431,263,26362,6,0,P|369:272|313:300,1,125.579995784363,6|0,1:2|0:2,0:2:0:0:
289,319,26695,2,0,P|253:300|247:260,1,83.7199971895753,8|2,0:2|0:2,0:2:0:0:
349,89,27029,1,2,1:2:0:0:
175,201,27195,1,0,1:2:0:0:
390,255,27362,1,10,0:2:0:0:
219,88,27529,6,0,P|171:103|134:111,1,83.7199971895753,2|0,1:2|0:2,0:2:0:0:
408,160,27862,2,0,P|456:175|493:183,1,83.7199971895753,2|8,1:2|0:2,0:2:0:0:
257,312,28195,1,2,0:2:0:0:
328,191,28362,1,2,0:2:0:0:
415,339,28529,1,2,1:2:0:0:
200,211,28695,1,10,0:2:0:0:
421,91,28862,1,2,1:2:0:0:
328,191,29029,6,0,B|317:142|317:142|320:122|320:122|304:58,1,125.579995784363,2|0,1:2|0:2,0:2:0:0:
297,36,29362,1,8,0:2:0:0:
415,176,29529,1,2,0:2:0:0:
223,120,29695,2,0,P|177:141|135:151,1,83.7199971895753,2|0,0:2|1:2,0:2:0:0:
10,47,30029,1,10,0:2:0:0:
128,240,30195,6,0,P|139:290|133:340,1,83.7199971895753,2|0,1:2|0:2,0:2:0:0:
45,237,30529,1,2,1:2:0:0:
213,384,30695,2,0,P|223:327|260:214,1,167.439994379151,8|0,0:2|0:2,0:2:0:0:
137,322,31195,1,0,1:2:0:0:
335,272,31362,2,0,B|355:280|385:288|385:288|398:302|398:302|421:306|450:316,1,125.579995784363,8|0,0:2|0:2,0:2:0:0:
479,325,31695,5,6,1:2:0:0:
325,358,31862,1,0,1:2:0:0:
459,234,32029,1,10,0:2:0:0:
199,158,32195,2,0,P|243:194|354:156,1,167.439994379151,2|2,1:2|1:2,0:2:0:0:
432,46,32695,1,8,0:2:0:0:
274,114,32862,6,0,P|265:73|246:35,1,83.7199971895753,2|0,1:2|0:2,0:2:0:0:
370,192,33195,1,2,1:2:0:0:
340,5,33362,1,10,0:2:0:0:
199,158,33529,2,0,P|124:196|57:246,1,167.439994379151,2|0,1:2|1:2,0:2:0:0:
51,80,34029,2,0,P|97:91|143:110,1,83.7199971895753,8|2,0:2|0:2,0:2:0:0:
177,39,34279,1,8,0:2:0:0:
177,39,34362,6,0,P|116:15|52:1,1,125.579995784363,2|0,1:2|0:2,0:2:0:0:
29,0,34695,1,10,0:2:0:0:
249,81,34862,2,0,P|288:66|328:56,2,83.7199971895753,2|0|2,0:2|1:2|1:2,0:2:0:0:
95,107,35362,1,10,0:2:0:0:
311,154,35529,6,0,B|342:166|380:174|380:174|394:190|394:190|430:198|464:212,1,167.439994379151,6|0,1:2|1:2,0:2:0:0:
236,223,36029,1,8,0:2:0:0:
498,125,36195,1,0,1:2:0:0:
373,362,36362,1,8,0:2:0:0:
298,131,36529,1,10,0:2:0:0:
298,131,36612,1,8,0:2:0:0:
298,131,36695,2,0,P|304:108|307:84,1,41.8599985947876,2|8,0:2|0:2,0:2:0:0:
402,12,36862,2,0,P|405:32|410:52,1,41.8599985947876,10|0,0:2|0:2,0:2:0:0:
512,224,37029,6,0,P|484:288|470:367,2,149.240002277222,6|8|0,1:2|0:2|1:2,0:2:0:0:
511,96,37862,1,0,1:2:0:0:
403,253,38029,1,10,0:2:0:0:
306,90,38195,6,0,B|332:105|367:119|367:119|378:134|378:134|408:144|435:158,1,149.240002277222,2|2,1:2|1:2,0:2:0:0:
330,322,38695,1,10,0:2:0:0:
238,211,38862,2,0,P|279:203|320:185,1,74.6200011386109,2|0,0:2|1:2,0:2:0:0:
227,311,39195,1,0,1:2:0:0:
444,265,39362,2,0,P|409:251|372:244,1,74.6200011386109,8|2,0:2|0:2,0:2:0:0:
159,248,39695,6,0,P|125:262|43:278,1,111.930001707916,2|0,1:2|0:2,0:2:0:0:
20,282,40029,2,0,P|-6:257|-2:222,1,74.6200011386109,10|2,0:2|0:2,0:2:0:0:
174,104,40362,1,2,1:2:0:0:
54,155,40529,1,0,1:2:0:0:
249,184,40695,1,10,0:2:0:0:
115,11,40862,6,0,P|143:51|248:48,1,149.240002277222,2|2,1:2|1:2,0:2:0:0:
418,0,41362,2,0,P|396:38|395:80,1,74.6200011386109,12|0,0:2|0:2,0:2:0:0:
481,239,41695,1,0,1:2:0:0:
312,144,41862,1,8,0:2:0:0:
291,151,41945,1,8,0:2:0:0:
270,158,42029,1,10,0:2:0:0:
477,61,42195,1,0,1:2:0:0:
477,61,42279,1,0,1:2:0:0:
477,61,42362,6,0,B|482:95|490:126|490:126|485:146|485:146|493:175|497:206,1,149.240002277222,6|0,1:2|1:2,0:2:0:0:
334,235,42862,1,2,0:2:0:0:
334,235,43029,2,0,P|318:277|301:396,1,149.240002277222,2|0,1:2|1:2,0:2:0:0:
510,365,43529,1,2,0:2:0:0:
510,365,43695,6,0,P|493:316|395:318,1,149.240002277222,2|0,1:2|1:2,0:2:0:0:
211,347,44195,1,2,0:2:0:0:
211,347,44362,2,0,P|202:273|179:203,1,149.240002277222,2|0,1:2|1:2,0:2:0:0:
314,89,44862,1,2,0:2:0:0:
314,89,45029,6,0,B|332:85|343:62|343:62|347:134|286:165,1,149.240002277222,2|0,1:2|1:2,0:2:0:0:
126,55,45529,1,2,0:2:0:0:
126,55,45695,2,0,B|149:48|181:35|181:35|206:39|206:39|231:26|267:17,1,149.240002277222,2|0,1:2|1:2,0:2:0:0:
164,128,46195,1,10,0:2:0:0:
346,57,46362,5,2,1:2:0:0:
346,57,46529,1,0,1:2:0:0:
288,239,46695,1,0,1:2:0:0:
245,107,46862,1,10,0:2:0:0:
417,247,47029,1,2,1:2:0:0:
309,161,47195,1,0,1:2:0:0:
335,324,47362,1,2,1:2:0:0:
495,119,47529,1,8,0:2:0:0:
495,119,47612,1,8,0:2:0:0:
495,119,47695,6,0,P|439:129|322:178,1,167.439994379151,6|0,1:2|0:2,0:2:0:0:
150,302,48195,1,2,0:2:0:0:
196,384,48362,2,0,P|224:335|229:212,1,167.439994379151,6|0,1:2|0:2,0:2:0:0:
63,178,48862,1,2,0:2:0:0:
63,178,49029,6,0,B|39:192|30:219|30:219|85:183|148:193,1,167.439994379151,6|0,1:2|0:2,0:2:0:0:
314,196,49529,1,2,0:2:0:0:
352,63,49695,2,0,B|306:84|306:84|295:101|295:101|228:134,1,125.579995784363,6|0,1:2|0:2,0:2:0:0:
219,137,50029,2,0,P|178:109|188:68,1,83.7199971895753,2|0,0:2|0:2,0:2:0:0:
373,148,50362,6,0,P|351:189|331:272,1,125.579995784363,6|0,1:2|0:2,0:2:0:0:
331,292,50695,1,0,1:2:0:0:
230,166,50862,1,2,1:2:0:0:
309,384,51029,1,2,1:2:0:0:
371,119,51195,1,0,1:2:0:0:
222,344,51362,1,0,1:2:0:0:
144,0,51529,1,2,1:2:0:0:
244,142,51695,6,0,B|233:187|233:187|237:205|237:205|223:255,1,112.839995523316,2|2,0:2|0:2,0:2:0:0:
128,341,52195,2,0,P|129:308|159:300,1,56.4199977616578,2|0,0:2|0:2,0:2:0:0:
292,303,52529,2,0,P|329:311|376:345,1,84.6299966424867,2|0,1:2|0:2,0:2:0:0:
454,316,52862,6,0,P|400:262|258:228,1,203.840002488281,6|0,1:2|1:2,0:2:0:0:
96,371,53362,2,0,P|74:338|100:272,1,101.920001244141,8|0,0:2|0:2,0:2:0:0:
312,134,53695,1,0,1:2:0:0:
67,202,53862,1,0,1:2:0:0:
273,316,54029,2,0,P|295:283|269:217,1,101.920001244141,10|0,0:2|0:2,0:2:0:0:
88,78,54362,5,2,1:2:0:0:
194,275,54529,1,0,1:2:0:0:
302,55,54695,1,10,0:2:0:0:
97,190,54862,2,0,P|41:169|-27:157,1,101.920001244141,2|0,0:2|1:2,0:2:0:0:
345,132,55195,2,0,P|401:111|469:99,1,101.920001244141,2|8,1:2|0:2,0:2:0:0:
247,383,55529,6,0,B|241:337|229:292|229:292|235:272|235:272|223:236|214:184,1,203.840002488281,2|0,1:2|1:2,0:2:0:0:
472,180,56029,2,0,P|452:233|448:284,1,101.920001244141,8|0,0:2|0:2,0:2:0:0:
250,176,56362,1,0,1:2:0:0:
470,96,56529,1,0,1:2:0:0:
225,183,56695,2,0,P|219:132|200:85,1,101.920001244141,10|0,0:2|0:2,0:2:0:0:
373,212,57029,5,2,1:2:0:0:
214,352,57195,1,2,1:2:0:0:
112,169,57362,1,10,0:2:0:0:
306,291,57529,2,0,P|362:314|400:340,1,101.920001244141,2|0,0:2|1:2,0:2:0:0:
109,293,57862,1,2,1:2:0:0:
339,209,58029,1,10,0:2:0:0:
188,24,58195,6,0,P|124:55|-25:109,1,203.840002488281,6|0,1:2|1:2,0:2:0:0:
269,137,58695,1,10,0:2:0:0:
130,266,58862,2,0,P|106:215|139:174,1,101.920001244141,2|0,0:2|1:2,0:2:0:0:
355,261,59195,1,0,1:2:0:0:
139,364,59362,1,10,0:2:0:0:
230,144,59529,6,0,P|251:190|266:238,1,101.920001244141,0|0,0:2|1:2,0:2:0:0:
373,381,59862,1,0,1:2:0:0:
165,271,60029,1,10,0:2:0:0:
396,182,60195,2,0,P|377:228|364:278,1,101.920001244141,2|0,0:2|1:2,0:2:0:0:
291,54,60529,1,0,1:2:0:0:
175,243,60695,2,0,P|116:216|66:206,1,101.920001244141,10|0,0:2|0:2,0:2:0:0:
204,25,61029,5,2,1:2:0:0:
291,224,61195,1,0,1:2:0:0:
113,90,61362,1,8,0:2:0:0:
48,300,61529,1,2,0:2:0:0:
262,137,61695,2,0,P|244:81|238:22,1,101.920001244141,2|0,1:2|1:2,0:2:0:0:
320,245,62029,1,8,0:2:0:0:
110,134,62195,2,0,P|138:143|160:164,1,50.9600006220703,2|0,0:2|0:2,0:2:0:0:
298,339,62362,5,2,1:2:0:0:
67,214,62529,1,0,1:2:0:0:
307,75,62695,2,0,P|281:131|272:188,1,101.920001244141,14|2,0:2|0:2,0:2:0:0:
434,383,63029,1,8,0:2:0:0:
431,357,63112,1,8,0:2:0:0:
428,331,63195,1,10,0:2:0:0:
425,305,63279,1,8,0:2:0:0:
422,279,63362,1,8,0:2:0:0:
419,253,63445,1,8,0:2:0:0:
416,227,63529,6,0,B|373:249|335:264|335:264|317:287|317:287|278:302|239:322,1,203.840002488281,6|0,1:2|1:2,0:2:0:0:
0,225,64029,2,0,P|58:248|127:268,1,101.920001244141,8|0,0:2|0:2,0:2:0:0:
302,108,64362,1,0,1:2:0:0:
101,180,64529,1,0,1:2:0:0:
265,343,64695,2,0,P|299:291|231:214,1,152.880001866211,10|0,0:2|0:2,0:2:0:0:
230,210,65029,5,2,1:2:0:0:
61,350,65195,1,0,1:2:0:0:
181,127,65362,1,10,0:2:0:0:
178,303,65529,2,0,P|122:270|75:262,1,101.920001244141,2|0,0:2|1:2,0:2:0:0:
302,115,65862,1,2,1:2:0:0:
97,172,66029,1,8,0:2:0:0:
268,374,66195,6,0,P|322:307|433:313,1,203.840002488281,2|0,1:2|1:2,0:2:0:0:
178,303,66695,2,0,P|156:258|179:214,1,101.920001244141,8|0,0:2|0:2,0:2:0:0:
362,62,67029,1,0,1:2:0:0:
255,254,67195,1,0,1:2:0:0:
130,60,67362,2,0,P|187:89|251:103,1,101.920001244141,10|0,0:2|0:2,0:2:0:0:
474,88,67695,5,2,1:2:0:0:
289,173,67862,1,0,1:2:0:0:
488,313,68029,2,0,P|504:258|453:221,1,101.920001244141,10|2,0:2|0:2,0:2:0:0:
259,157,68362,2,0,P|271:179|278:203,1,50.9600006220703,4|0,1:2|0:2,0:2:0:0:
374,384,68529,1,10,0:2:0:0:
374,384,68612,1,8,0:2:0:0:
374,384,68695,1,8,0:2:0:0:
374,384,68779,1,8,0:2:0:0:
374,384,68862,6,0,P|377:301|402:166,1,203.840002488281,6|0,1:2|1:2,0:2:0:0:
147,128,69362,2,0,P|171:173|182:222,1,101.920001244141,8|0,0:2|0:2,0:2:0:0:
384,88,69695,1,0,1:2:0:0:
294,272,69862,1,0,1:2:0:0:
264,11,70029,2,0,P|240:55|228:105,1,101.920001244141,8|0,0:2|0:2,0:2:0:0:
104,284,70362,5,0,1:2:0:0:
290,177,70529,1,0,1:2:0:0:
56,121,70695,2,0,P|111:144|160:173,1,101.920001244141,8|0,0:2|0:2,0:2:0:0:
263,300,71029,1,0,1:2:0:0:
63,210,71195,1,0,1:2:0:0:
319,165,71362,2,0,P|264:188|215:217,1,101.920001244141,10|0,0:2|0:2,0:2:0:0:
200,230,71612,1,8,0:2:0:0:
200,230,71695,5,2,1:2:0:0:
393,231,71862,1,0,1:2:0:0:
172,137,72029,2,0,P|147:94|168:50,1,101.920001244141,8|0,0:2|0:2,0:2:0:0:
410,12,72362,1,0,1:2:0:0:
242,95,72529,1,0,1:2:0:0:
471,172,72695,2,0,P|495:129|474:85,1,101.920001244141,10|2,0:2|0:2,0:2:0:0:
280,233,73029,5,0,1:2:0:0:
510,326,73195,1,2,1:2:0:0:
390,127,73362,2,0,P|367:187|365:242,1,101.920001244141,10|0,0:2|0:2,0:2:0:0:
366,253,73612,1,8,0:2:0:0:
366,253,73695,1,0,1:2:0:0:
85,377,73862,1,8,0:2:0:0:
82,351,73945,1,8,0:2:0:0:
79,325,74029,1,10,0:2:0:0:
76,299,74112,1,8,0:2:0:0:
73,273,74195,1,10,0:2:0:0:
70,247,74279,1,8,0:2:0:0:
67,221,74362,6,0,P|125:230|222:280,1,152.880001866211,6|0,1:2|0:2,0:2:0:0:
230,289,74695,1,0,1:2:0:0:
159,342,74862,1,2,1:2:0:0:
177,224,75029,1,0,1:2:0:0:
273,356,75195,1,0,1:2:0:0:
102,265,75362,1,2,1:2:0:0:
303,154,75529,1,0,1:2:0:0:
161,368,75695,5,10,0:2:0:0:
127,92,75862,1,8,0:2:0:0:
368,268,76029,1,8,0:2:0:0:
51,194,76195,1,8,0:2:0:0:
373,35,76362,1,10,0:2:0:0:
273,356,76529,1,8,0:2:0:0:
51,8,76695,1,8,0:2:0:0:
445,165,76862,1,8,0:2:0:0:
288,275,77029,5,2,0:2:0:0:
256,192,77112,12,0,78362,0:2:0:0:
296,117,79029,5,8,0:2:0:0:
296,117,79112,1,8,0:2:0:0:
296,117,79195,2,0,P|302:92|319:56,1,50.9600006220703,10|8,0:2|0:2,0:2:0:0:
392,0,79362,2,0,P|398:25|415:61,1,50.9600006220703,10|8,0:2|0:2,0:2:0:0:
493,158,79529,6,0,P|434:176|307:240,1,185.640001133057,6|0,1:2|1:2,0:2:0:0:
149,373,80029,1,8,0:2:0:0:
348,351,80195,2,0,P|297:332|230:322,1,92.8200005665283,2|0,0:2|1:2,0:2:0:0:
43,278,80529,1,2,1:2:0:0:
248,168,80695,1,8,0:2:0:0:
136,287,80862,6,0,B|126:248|117:217|117:217|120:189|120:189|105:147|96:107,1,185.640001133057,2|0,1:2|1:2,0:2:0:0:
300,0,81362,1,8,0:2:0:0:
188,110,81529,2,0,P|198:59|212:8,1,92.8200005665283,2|0,0:2|1:2,0:2:0:0:
438,2,81862,1,2,1:2:0:0:
268,140,82029,1,10,0:2:0:0:
492,244,82195,6,0,P|521:200|423:140,1,185.640001133057,6|0,1:2|1:2,0:2:0:0:
248,228,82695,1,8,0:2:0:0:
436,317,82862,2,0,P|481:341|519:376,1,92.8200005665283,2|0,0:2|1:2,0:2:0:0:
353,177,83195,1,2,1:2:0:0:
285,384,83362,1,8,0:2:0:0:
129,180,83529,6,0,P|156:91|171:0,1,185.640001133057,2|0,1:2|1:2,0:2:0:0:
52,139,84029,1,8,0:2:0:0:
263,24,84195,2,0,P|271:77|284:125,1,92.8200005665283,2|0,0:2|1:2,0:2:0:0:
151,266,84529,1,10,0:2:0:0:
136,273,84612,1,8,0:2:0:0:
117,268,84695,1,10,0:2:0:0:
332,189,84862,6,0,B|366:201|408:212|408:212|424:231|424:231|464:240|502:252,1,185.640001133057,6|0,1:2|1:2,0:2:0:0:
313,362,85362,2,0,P|291:322|308:280,1,92.8200005665283,8|0,0:2|0:2,0:2:0:0:
512,168,85695,1,0,1:2:0:0:
389,333,85862,1,0,1:2:0:0:
287,116,86029,2,0,P|336:102|386:70,1,92.8200005665283,8|0,0:2|0:2,0:2:0:0:
208,277,86362,5,2,1:2:0:0:
406,176,86529,1,0,1:2:0:0:
181,67,86695,2,0,B|161:113|161:113|181:158,1,92.8200005665283,10|0,0:2|0:2,0:2:0:0:
341,305,87029,1,2,1:2:0:0:
106,237,87195,1,0,1:2:0:0:
310,108,87362,2,0,B|330:154|330:154|310:199,1,92.8200005665283,10|0,0:2|0:2,0:2:0:0:
49,368,87695,5,14,0:2:0:0:
186,106,87862,1,0,1:2:0:0:
172,359,88029,1,0,1:2:0:0:
63,62,88195,5,10,0:2:0:0:
311,282,88362,1,0,1:2:0:0:
35,163,88529,1,0,1:2:0:0:
386,87,88695,5,10,0:2:0:0:
95,248,88862,1,0,1:2:0:0:
407,203,89029,1,0,1:2:0:0:
152,3,89195,5,10,0:2:0:0:
261,353,89362,1,0,1:2:0:0:
261,353,89445,1,8,0:2:0:0:
261,353,89529,1,8,0:2:0:0:
344,138,89695,1,4,1:2:0:0:
346,124,89779,1,0,1:2:0:0:
348,110,89862,1,8,0:2:0:0:
351,96,89945,1,8,0:2:0:0:
354,82,90029,2,0,L|341:21,1,46.4100002832642,8|8,0:2|0:2,0:2:0:0:
242,0,90195,2,0,L|229:60,1,46.4100002832642,10|8,0:2|0:2,0:2:0:0:
167,161,90362,6,0,P|187:215|195:302,1,125.579995784363,6|0,1:2|0:2,0:2:0:0:
229,304,90695,2,0,P|212:354|210:398,1,83.7199971895753,8|2,0:2|0:2,0:2:0:0:
70,229,91029,1,2,1:2:0:0:
136,332,91195,1,0,1:2:0:0:
42,214,91362,1,10,0:2:0:0:
230,222,91529,6,0,P|275:230|323:247,1,83.7199971895753,2|0,1:2|0:2,0:2:0:0:
419,274,91862,1,2,1:2:0:0:
257,354,92029,2,0,P|296:341|338:334,1,83.7199971895753,8|2,0:2|0:2,0:2:0:0:
505,306,92362,1,2,0:2:0:0:
398,265,92529,1,2,1:2:0:0:
511,133,92695,1,10,0:2:0:0:
347,193,92862,1,2,1:2:0:0:
512,44,93029,6,0,B|480:35|450:24|450:24|421:33|421:33|384:18|352:12,1,167.439994379151,2|8,1:2|0:2,0:2:0:0:
209,14,93529,1,2,0:2:0:0:
209,14,93695,2,0,P|237:59|235:108,1,83.7199971895753,2|0,0:2|1:2,0:2:0:0:
331,94,94029,1,10,0:2:0:0:
143,207,94195,6,0,P|103:168|161:85,1,167.439994379151,2|2,1:2|1:2,0:2:0:0:
327,181,94695,2,0,P|306:230|286:351,1,167.439994379151,8|0,0:2|0:2,0:2:0:0:
213,257,95195,1,0,1:2:0:0:
369,357,95362,2,0,P|394:324|363:289,1,83.7199971895753,8|2,0:2|0:2,0:2:0:0:
195,370,95695,5,6,1:2:0:0:
106,309,95862,1,2,1:2:0:0:
29,384,96029,1,10,0:2:0:0:
25,187,96195,2,0,P|95:220|213:252,1,167.439994379151,2|2,1:2|1:2,0:2:0:0:
325,161,96695,1,8,0:2:0:0:
265,219,96862,6,0,P|240:185|241:144,1,83.7199971895753,2|0,1:2|0:2,0:2:0:0:
363,14,97195,1,2,1:2:0:0:
174,94,97362,1,10,0:2:0:0:
404,179,97529,2,0,P|428:145|427:104,1,83.7199971895753,2|0,1:2|0:2,0:2:0:0:
296,81,97862,1,0,1:2:0:0:
392,276,98029,2,0,P|441:252|478:248,1,83.7199971895753,8|2,0:2|0:2,0:2:0:0:
438,346,98279,1,8,0:2:0:0:
438,346,98362,6,0,P|386:315|306:313,1,125.579995784363,2|0,1:2|0:2,0:2:0:0:
293,314,98695,2,0,P|265:351|280:388,1,83.7199971895753,10|2,0:2|0:2,0:2:0:0:
162,254,99029,1,0,1:2:0:0:
332,222,99195,1,2,1:2:0:0:
153,154,99362,1,10,0:2:0:0:
369,313,99529,6,0,B|331:328|302:336|302:336|286:355|286:355|246:364|217:377,1,167.439994379151,6|0,1:2|1:2,0:2:0:0:
33,187,100029,1,0,1:2:0:0:
231,289,100195,2,0,P|183:286|137:271,1,83.7199971895753,0|0,1:2|0:2,0:2:0:0:
124,267,100445,1,8,0:2:0:0:
124,267,100529,1,2,1:2:0:0:
306,169,100695,1,10,0:2:0:0:
112,38,100862,1,2,1:2:0:0:
112,38,100945,1,0,1:2:0:0:
112,38,101029,6,0,P|134:79|210:77,1,125.579995784363,6|0,1:2|0:2,0:2:0:0:
226,67,101362,2,0,P|263:40|310:51,1,83.7199971895753,8|0,0:2|0:2,0:2:0:0:
392,226,101695,1,0,1:2:0:0:
455,74,101862,1,0,1:2:0:0:
304,165,102029,1,10,0:2:0:0:
476,294,102195,6,0,P|520:261|455:172,1,167.439994379151,2|2,1:2|1:2,0:2:0:0:
353,229,102695,2,0,P|312:250|278:284,1,83.7199971895753,10|2,0:2|0:2,0:2:0:0:
163,376,103029,1,0,1:2:0:0:
224,218,103195,1,0,1:2:0:0:
359,316,103362,2,0,P|407:337|484:389,1,125.579995784363,8|0,0:2|0:2,0:2:0:0:
501,379,103695,6,0,P|521:333|488:303,1,83.7199971895753,2|0,1:2|0:2,0:2:0:0:
501,176,104029,2,0,P|455:156|425:189,1,83.7199971895753,10|2,0:2|0:2,0:2:0:0:
267,284,104362,1,2,1:2:0:0:
427,204,104529,1,2,1:2:0:0:
186,120,104695,1,10,0:2:0:0:
379,0,104862,6,0,P|359:65|337:185,1,167.439994379151,2|2,1:2|1:2,0:2:0:0:
235,378,105362,1,12,0:2:0:0:
159,121,105529,1,0,1:2:0:0:
366,271,105695,1,8,0:2:0:0:
110,207,105862,1,8,0:2:0:0:
89,214,105945,1,8,0:2:0:0:
66,220,106029,2,0,P|44:233|54:264,1,57.3299982504273,10|0,0:2|0:2,0:2:0:0:
110,340,106362,6,0,P|147:278|247:286,1,167.439994379151,6|0,1:2|1:2,0:2:0:0:
380,288,106862,1,2,0:2:0:0:
380,288,107029,2,0,B|316:321|316:321|307:341|307:341|220:390,1,167.439994379151,2|0,1:2|1:2,0:2:0:0:
311,219,107529,1,2,0:2:0:0:
311,219,107695,6,0,P|372:248|483:269,1,167.439994379151,2|0,1:2|1:2,0:2:0:0:
503,104,108195,1,2,0:2:0:0:
503,104,108362,1,2,1:2:0:0:
458,186,108529,1,8,0:2:0:0:
356,17,108695,1,0,1:2:0:0:
380,136,108862,1,10,0:2:0:0:
189,22,109029,6,0,P|201:76|308:84,1,167.439994379151,2|0,1:2|1:2,0:2:0:0:
72,32,109529,1,2,0:2:0:0:
72,32,109695,2,0,B|60:79|20:97|20:97|63:86|97:110,1,167.439994379151,2|0,1:2|1:2,0:2:0:0:
134,276,110195,1,10,0:2:0:0:
134,276,110279,1,10,0:2:0:0:
134,276,110362,6,0,P|59:274|44:188,1,167.439994379151,2|0,1:2|1:2,0:2:0:0:
183,138,110862,1,2,0:2:0:0:
211,330,111029,2,0,P|227:295|280:276,1,83.7199971895753,2|8,1:2|0:2,0:2:0:0:
343,217,111279,1,8,0:2:0:0:
343,217,111362,2,0,P|377:226|390:243,1,41.8599985947876,10|8,0:2|0:2,0:2:0:0:
481,268,111529,2,0,P|472:302|455:315,1,41.8599985947876,8|8,0:2|0:2,0:2:0:0:
385,376,111695,6,0,B|376:306|360:239|360:239|364:223|364:223|350:151|339:75,1,305.760003732422,6|10,1:2|0:2,0:2:0:0:
419,28,112279,1,8,0:2:0:0:
419,28,112362,2,0,P|476:42|425:236,1,305.760003732422,6|2,1:2|1:2,0:2:0:0:
332,217,112945,1,0,1:2:0:0:
332,217,113029,6,0,P|271:204|122:196,1,203.840002488281,6|0,1:2|1:2,0:2:0:0:
231,113,113529,1,2,1:2:0:0:
174,281,113695,1,2,1:2:0:0:
58,103,113862,1,0,1:2:0:0:
318,233,114029,1,2,1:2:0:0:
52,367,114195,1,0,1:2:0:0:
317,141,114362,5,10,0:2:0:0:
62,243,114529,1,8,0:2:0:0:
403,265,114695,1,8,0:2:0:0:
150,81,114862,1,10,0:2:0:0:
464,196,115029,1,10,0:2:0:0:
165,345,115195,1,8,0:2:0:0:
165,345,115279,1,8,0:2:0:0:
165,345,115362,2,0,P|148:309|156:283,1,50.9600006220703,8|8,0:2|0:2,0:2:0:0:
85,219,115529,2,0,P|121:202|147:210,1,50.9600006220703,10|8,0:2|0:2,0:2:0:0:
210,134,115695,5,2,0:2:0:0:
403,265,115862,2,0,P|379:316|368:376,1,101.920001244141,8|2,0:2|0:2,0:2:0:0:
367,384,116112,1,0,1:2:0:0:
367,384,116195,1,10,0:2:0:0:
325,157,116362,1,0,1:2:0:0:
506,276,116529,1,10,0:2:0:0:
506,276,116612,1,8,0:2:0:0:
505,275,116695,2,0,P|492:254|485:227,1,50.9600006220703,8|8,0:2|0:2,0:2:0:0:
335,45,116862,6,0,B|291:64|254:78|254:78|240:98|240:98|193:113|155:133,1,203.840002488281,6|0,1:2|1:2,0:2:0:0:
0,269,117362,2,0,P|57:288|119:299,1,101.920001244141,8|0,0:2|0:2,0:2:0:0:
295,193,117695,1,0,1:2:0:0:
69,171,117862,1,0,1:2:0:0:
168,369,118029,2,0,P|225:350|287:339,1,101.920001244141,10|0,0:2|0:2,0:2:0:0:
401,146,118362,5,2,1:2:0:0:
297,352,118529,1,0,1:2:0:0:
199,140,118695,1,10,0:2:0:0:
399,298,118862,2,0,P|446:267|437:209,1,101.920001244141,2|0,0:2|1:2,0:2:0:0:
196,276,119195,2,0,P|153:252|147:203,1,101.920001244141,2|8,1:2|0:2,0:2:0:0:
337,0,119529,6,0,P|319:77|301:231,1,203.840002488281,2|0,1:2|1:2,0:2:0:0:
52,198,120029,2,0,P|39:148|21:100,1,101.920001244141,8|0,0:2|0:2,0:2:0:0:
248,18,120362,1,0,1:2:0:0:
118,125,120529,1,0,1:2:0:0:
325,228,120695,2,0,P|337:178|355:130,1,101.920001244141,10|0,0:2|0:2,0:2:0:0:
164,43,121029,5,2,1:2:0:0:
237,265,121195,1,0,1:2:0:0:
383,55,121362,1,10,0:2:0:0:
149,210,121529,2,0,P|97:235|58:273,1,101.920001244141,2|0,0:2|1:2,0:2:0:0:
287,334,121862,1,2,1:2:0:0:
89,377,122029,1,10,0:2:0:0:
301,196,122195,6,0,P|377:222|518:246,1,203.840002488281,6|0,1:2|1:2,0:2:0:0:
328,113,122695,1,10,0:2:0:0:
512,51,122862,2,0,P|461:59|414:77,1,101.920001244141,2|0,0:2|1:2,0:2:0:0:
301,196,123195,1,0,1:2:0:0:
474,143,123362,1,10,0:2:0:0:
327,294,123529,6,0,P|276:285|229:267,1,101.920001244141,2|0,0:2|1:2,0:2:0:0:
110,140,123862,1,0,1:2:0:0:
301,196,124029,1,10,0:2:0:0:
147,352,124195,2,0,P|107:313|126:260,1,101.920001244141,2|0,0:2|1:2,0:2:0:0:
257,133,124529,1,0,1:2:0:0:
94,39,124695,2,0,P|35:66|-15:76,1,101.920001244141,10|0,0:2|0:2,0:2:0:0:
14,289,125029,5,2,1:2:0:0:
145,115,125195,1,0,1:2:0:0:
225,304,125362,1,8,0:2:0:0:
54,208,125529,1,2,0:2:0:0:
272,106,125695,2,0,P|254:162|248:221,1,101.920001244141,2|0,1:2|1:2,0:2:0:0:
154,373,126029,1,8,0:2:0:0:
324,245,126195,2,0,P|352:254|374:275,1,50.9600006220703,2|0,0:2|0:2,0:2:0:0:
452,365,126362,5,6,1:2:0:0:
222,326,126529,2,0,P|250:314|274:298,1,50.9600006220703,8|8,0:2|0:2,0:0:0:0:
448,195,126695,1,10,0:2:0:0:
464,168,126779,1,8,0:2:0:0:
466,137,126862,1,10,0:2:0:0:
452,109,126945,1,8,0:2:0:0:
425,93,127029,1,0,1:2:0:0:
414,82,127112,1,0,1:2:0:0:
410,67,127195,1,2,1:2:0:0:
413,52,127279,1,0,1:2:0:0:
424,41,127362,1,0,1:2:0:0:
472,323,127529,6,0,B|429:301|391:286|391:286|373:263|373:263|334:248|295:228,1,203.840002488281,6|0,1:2|1:2,0:2:0:0:
102,146,128029,2,0,P|123:204|142:273,1,101.920001244141,8|0,0:2|0:2,0:2:0:0:
257,377,128362,1,0,1:2:0:0:
46,305,128529,1,0,1:2:0:0:
222,160,128695,2,0,P|234:88|270:3,1,152.880001866211,10|0,0:2|0:2,0:2:0:0:
274,0,129029,5,2,1:2:0:0:
148,73,129195,1,0,1:2:0:0:
310,191,129362,1,10,0:2:0:0:
75,302,129529,2,0,P|131:269|178:261,1,101.920001244141,2|0,0:2|1:2,0:2:0:0:
319,106,129862,1,2,1:2:0:0:
124,180,130029,1,10,0:2:0:0:
346,308,130195,6,0,P|400:241|511:247,1,203.840002488281,2|0,1:2|1:2,0:2:0:0:
273,384,130695,2,0,P|263:327|240:277,1,101.920001244141,8|0,0:2|0:2,0:2:0:0:
386,154,131029,1,0,1:2:0:0:
451,336,131195,1,0,1:2:0:0:
277,177,131362,2,0,P|287:120|310:70,1,101.920001244141,10|0,0:2|0:2,0:2:0:0:
470,14,131695,5,2,1:2:0:0:
270,78,131862,1,2,1:2:0:0:
488,168,132029,2,0,P|504:223|453:260,1,101.920001244141,10|2,0:2|0:2,0:2:0:0:
342,367,132362,2,0,P|320:355|296:348,1,50.9600006220703,4|0,1:2|1:2,0:2:0:0:
165,307,132529,1,10,0:2:0:0:
145,310,132612,1,8,0:2:0:0:
125,313,132695,1,8,0:2:0:0:
104,317,132779,1,8,0:2:0:0:
89,331,132862,6,0,P|27:331|65:211,1,203.840002488281,6|0,1:2|1:2,0:2:0:0:
234,183,133362,2,0,P|285:204|355:211,1,101.920001244141,8|0,0:2|0:2,0:2:0:0:
171,111,133695,1,0,1:2:0:0:
365,49,133862,1,0,1:2:0:0:
151,17,134029,2,0,P|100:38|30:45,1,101.920001244141,8|0,0:2|0:2,0:2:0:0:
136,259,134362,5,0,1:2:0:0:
261,85,134529,1,0,1:2:0:0:
55,135,134695,2,0,P|28:168|61:222,1,101.920001244141,8|0,0:2|0:2,0:2:0:0:
255,289,135029,1,0,1:2:0:0:
57,360,135195,1,0,1:2:0:0:
232,181,135362,2,0,P|287:204|369:260,1,152.880001866211,10|0,0:2|0:2,0:2:0:0:
380,273,135695,5,2,1:2:0:0:
186,342,135862,1,0,1:2:0:0:
382,156,136029,2,0,P|438:142|486:118,1,101.920001244141,8|0,0:2|0:2,0:2:0:0:
476,320,136362,1,0,1:2:0:0:
299,219,136529,1,0,1:2:0:0:
506,219,136695,1,10,0:2:0:0:
331,320,136862,6,0,P|274:343|232:374,1,101.920001244141,2|0,0:2|1:2,0:2:0:0:
173,196,137195,1,2,1:2:0:0:
23,317,137362,2,0,P|80:340|122:371,1,101.920001244141,10|0,0:2|0:2,0:2:0:0:
134,379,137612,1,8,0:2:0:0:
134,379,137695,1,0,1:2:0:0:
262,141,137862,1,8,0:2:0:0:
242,146,137945,1,8,0:2:0:0:
222,151,138029,1,10,0:2:0:0:
202,156,138112,1,8,0:2:0:0:
182,161,138195,1,10,0:2:0:0:
162,166,138279,1,8,0:2:0:0:
142,171,138362,6,0,P|86:136|122:59,1,152.880001866211,6|0,1:2|0:2,0:2:0:0:
137,59,138695,1,0,1:2:0:0:
204,186,138862,1,2,1:2:0:0:
273,29,139029,1,0,1:2:0:0:
241,257,139195,1,0,1:2:0:0:
126,28,139362,1,2,1:2:0:0:
108,311,139529,1,0,1:2:0:0:
323,87,139695,5,10,0:2:0:0:
56,207,139862,1,8,0:2:0:0:
370,332,140029,1,8,0:2:0:0:
239,50,140195,1,8,0:2:0:0:
82,342,140362,1,10,0:2:0:0:
430,197,140529,1,8,0:2:0:0:
93,11,140695,1,8,0:2:0:0:
287,384,140862,1,8,0:2:0:0:
331,221,141029,5,2,0:2:0:0:
256,192,141112,12,0,142029,0:2:0:0:
102,184,142362,6,0,B|67:196|58:234|58:234|116:182|190:198,1,203.840002488281,2|2,1:2|0:2,0:2:0:0:
292,161,142862,2,0,P|266:213|262:268,1,101.920001244141,2|0,1:2|0:2,0:2:0:0:
143,287,143195,1,2,1:2:0:0:
143,287,143362,2,0,P|169:339|173:394,1,101.920001244141,2|0,1:2|1:2,0:2:0:0:
260,342,143612,1,0,1:2:0:0:
260,342,143695,6,0,B|310:327|310:327|317:328|317:328|374:310,1,111.930001707916,6|0,1:2|0:2,0:2:0:0:
398,304,144029,2,0,P|426:270|406:238,1,74.6200011386109,2|0,0:2|0:2,0:2:0:0:
458,166,144362,2,0,P|424:138|392:158,1,74.6200011386109,2|0,0:2|0:2,0:2:0:0:
325,91,144695,5,0,0:2:0:0:
325,91,144862,2,0,P|275:112|238:120,1,74.6200011386109,0|0,0:2|0:2,0:2:0:0:
191,182,145195,1,0,0:2:0:0:
191,182,145362,2,0,P|141:161|104:153,1,74.6200011386109,0|2,0:2|0:2,0:2:0:0:
20,79,145695,2,0,B|27:110|37:141|37:141|34:158|34:158|44:190|51:223,1,149.240002277222,2|2,0:2|0:2,0:2:0:0:
129,314,146195,1,2,0:2:0:0:
129,314,146362,6,0,P|148:279|120:235,2,74.6200011386109,0|0|0,0:2|0:2|0:2,0:2:0:0:
0,342,146862,1,0,0:2:0:0:
0,342,147029,2,0,P|42:357|76:388,1,74.6200011386109,2|0,0:2|0:2,0:2:0:0:
194,280,147362,2,0,P|152:295|118:326,1,74.6200011386109,2|0,0:2|0:2,0:2:0:0:
257,384,147695,6,0,B|267:365|283:355|283:355|270:342|268:314,1,74.6200011386109,2|0,0:2|0:2,0:2:0:0:
266,232,148029,2,0,B|255:213|239:203|239:203|252:190|254:162,1,74.6200011386109,2|0,0:2|0:2,0:2:0:0:
257,80,148362,2,0,B|267:61|283:51|283:51|270:38|268:10,1,74.6200011386109,2|0,0:2|0:2,0:2:0:0:
190,34,148695,1,2,0:2:0:0:
361,61,148862,1,2,1:2:0:0:
182,124,149029,6,0,P|136:139|32:192,1,149.240002277222,2|0,1:2|0:2,0:2:0:0:
7,15,149529,1,2,0:2:0:0:
7,15,149695,2,0,P|66:-7|92:81,1,149.240002277222,2|0,0:2|0:2,0:2:0:0:
45,184,150195,1,2,0:2:0:0:
45,184,150362,6,0,P|22:146|42:114,1,74.6200011386109,2|0,0:2|0:2,0:2:0:0:
133,240,150695,1,2,0:2:0:0:
133,240,150862,2,0,P|156:202|136:170,1,74.6200011386109,2|0,0:2|0:2,0:2:0:0:
21,289,151195,2,0,P|66:303|93:330,1,74.6200011386109,2|0,0:2|0:2,0:2:0:0:
155,384,151529,1,2,0:2:0:0:
155,384,151695,6,0,P|189:352|226:342,1,74.6200011386109,2|2,0:2|0:2,0:2:0:0:
288,279,152029,2,0,B|350:299|350:299|364:314|364:314|435:335,2,149.240002277222,2|0|0,0:2|0:2|0:2,0:2:0:0:
454,165,152862,6,0,P|432:203|428:244,1,74.6200011386109,0|0,1:2|0:2,0:2:0:0:
258,124,153195,2,0,P|280:162|284:203,1,74.6200011386109,0|0,1:2|0:2,0:2:0:0:
394,61,153529,2,0,P|372:99|368:140,1,74.6200011386109,0|0,1:2|0:2,0:2:0:0:
186,70,153862,1,0,1:2:0:0:
326,12,154029,1,0,1:2:0:0:
274,97,154195,1,2,1:2:0:0:
94,12,154362,6,0,P|136:36|132:152,1,167.439994379151,6|2,1:2|1:2,0:2:0:0:
62,266,154862,1,2,0:2:0:0:
62,266,155029,2,0,P|52:218|19:147,1,125.579995784363,2|0,1:2|0:2,0:2:0:0:
2,130,155362,1,2,1:2:0:0:
135,181,155529,6,0,P|181:198|214:228,1,83.7199971895753,2|0,0:2|1:2,0:2:0:0:
293,219,155862,2,0,P|276:265|246:298,1,83.7199971895753,2|0,0:2|1:2,0:2:0:0:
255,377,156195,2,0,P|209:360|176:330,1,83.7199971895753,2|0,0:2|1:2,0:2:0:0:
91,341,156529,2,0,P|97:289|144:164,1,167.439994379151,2|10,0:2|0:2,0:2:0:0:
177,103,156945,1,10,0:2:0:0:
177,103,157029,6,0,P|208:132|255:126,1,83.7199971895753,2|2,1:2|0:2,0:2:0:0:
310,60,157362,1,2,1:2:0:0:
310,60,157529,1,2,0:2:0:0:
393,151,157695,2,0,P|362:180|315:174,1,83.7199971895753,2|0,1:2|0:2,0:2:0:0:
217,301,158029,1,2,1:2:0:0:
217,301,158195,6,0,P|221:255|251:211,1,83.7199971895753,2|0,0:2|1:2,0:2:0:0:
402,253,158529,1,2,0:2:0:0:
298,281,158695,1,2,1:2:0:0:
298,281,158862,1,2,0:2:0:0:
439,338,159029,2,0,P|485:319|534:313,1,83.7199971895753,0|2,1:2|0:2,0:2:0:0:
462,144,159362,2,0,P|416:163|367:169,1,83.7199971895753,2|2,1:2|0:2,0:2:0:0:
212,342,159695,6,0,P|156:357|72:364,1,125.579995784363,6|0,1:2|0:2,0:2:0:0:
63,362,160029,1,0,1:2:0:0:
11,264,160195,1,0,1:2:0:0:
177,321,160362,1,0,1:2:0:0:
154,169,160529,1,0,1:2:0:0:
306,334,160695,1,2,1:2:0:0:
356,151,160862,1,2,1:2:0:0:
432,384,161029,5,8,0:2:0:0:
244,261,161195,1,8,0:2:0:0:
474,135,161362,1,8,0:2:0:0:
294,360,161529,1,8,0:2:0:0:
192,65,161695,1,10,0:2:0:0:
459,259,161862,1,8,0:2:0:0:
145,354,162029,1,10,0:2:0:0:
288,18,162195,1,8,0:2:0:0:
424,364,162362,5,14,0:2:0:0:
74,182,162529,1,0,1:2:0:0:
470,151,162695,1,0,1:2:0:0:
91,62,162862,5,10,0:2:0:0:
274,381,163029,1,2,1:2:0:0:
403,42,163195,1,0,1:2:0:0:
143,338,163362,5,8,0:2:0:0:
260,0,163529,1,2,1:2:0:0:
412,322,163695,1,2,1:2:0:0:
39,165,163862,5,8,0:2:0:0:
480,78,164029,1,2,1:2:0:0:
121,238,164195,1,2,1:2:0:0:
512,347,164362,5,8,0:2:0:0:
508,322,164445,1,8,0:2:0:0:
504,296,164529,1,10,0:2:0:0:
500,271,164612,1,8,0:2:0:0:
496,246,164695,1,10,0:2:0:0:
492,220,164779,1,8,0:2:0:0:
488,192,164862,6,0,B|452:206|418:219|418:219|405:242|405:242|361:255|326:272,1,185.640001133057,6|0,1:2|1:2,0:2:0:0:
238,52,165362,2,0,P|292:72|336:80,1,92.8200005665283,8|0,0:2|0:2,0:2:0:0:
192,254,165695,1,2,1:2:0:0:
380,146,165862,1,2,1:2:0:0:
146,71,166029,1,10,0:2:0:0:
328,255,166195,6,0,B|317:310|308:376|308:376|309:332|286:304,1,185.640001133057,2|2,1:2|1:2,0:2:0:0:
238,167,166695,1,8,0:2:0:0:
103,346,166862,2,0,P|159:364|202:400,1,92.8200005665283,2|0,0:2|1:2,0:2:0:0:
315,196,167195,1,2,1:2:0:0:
117,257,167362,1,8,0:2:0:0:
369,373,167529,6,0,P|386:282|410:193,1,185.640001133057,2|2,1:2|1:2,0:2:0:0:
326,58,168029,1,8,0:2:0:0:
512,205,168195,2,0,P|493:150|489:110,1,92.8200005665283,2|0,0:2|1:2,0:2:0:0:
307,177,168529,1,2,1:2:0:0:
445,40,168695,1,8,0:2:0:0:
283,196,168862,6,0,P|248:140|138:148,1,185.640001133057,2|2,1:2|1:2,0:2:0:0:
47,266,169362,1,10,0:2:0:0:
197,212,169529,2,0,P|175:262|169:309,1,92.8200005665283,2|8,1:2|0:2,0:2:0:0:
23,117,169862,1,2,1:2:0:0:
32,137,169945,1,8,0:2:0:0:
36,160,170029,1,8,0:2:0:0:
295,28,170195,6,0,B|257:48|225:64|225:64|209:96|209:96|165:114|127:135,1,185.640001133057,6|2,1:2|1:2,0:2:0:0:
109,35,170612,1,2,0:2:0:0:
109,35,170695,2,0,P|157:55|194:80,1,92.8200005665283,14|2,0:2|0:2,0:2:0:0:
300,142,170945,1,2,0:2:0:0:
300,142,171028,2,0,P|249:162|178:228,1,139.230000849792,2|0,1:2|0:2,0:2:0:0:
175,245,171362,1,14,0:2:0:0:
318,371,171529,1,0,0:2:0:0:
430,134,171695,5,10,0:2:0:0:
280,278,171862,1,2,1:2:0:0:
493,334,172029,1,2,0:2:0:0:
493,334,172112,1,8,0:2:0:0:
493,334,172195,2,0,P|461:289|413:287,1,92.8200005665283,10|0,0:2|1:2,0:2:0:0:
197,329,172529,1,10,0:2:0:0:
175,336,172612,1,10,0:2:0:0:
153,343,172695,1,10,0:2:0:0:
130,350,172779,1,10,0:2:0:0:
106,356,172862,2,0,P|114:333|123:304,1,46.4100002832642,0|0,1:2|1:2,0:0:0:0:
213,59,173029,5,10,0:2:0:0:
313,291,173195,1,0,1:2:0:0:
313,291,173279,1,0,1:2:0:0:
313,291,173362,1,0,1:2:0:0:
70,86,173529,5,10,0:2:0:0:
384,144,173695,1,0,1:2:0:0:
384,144,173779,1,0,1:2:0:0:
384,144,173862,1,0,1:2:0:0:
17,334,174029,5,10,0:2:0:0:
410,232,174195,1,10,0:2:0:0:
271,201,174362,6,0,P|232:210|205:234,1,56.4199977616578,2|0,0:2|0:2,0:2:0:0:
136,273,174695,1,2,0:2:0:0:
136,273,174862,2,0,P|163:302|197:313,1,56.4199977616578,2|0,0:2|0:2,0:2:0:0:
265,353,175195,2,0,P|276:314|269:279,1,56.4199977616578,2|0,0:2|0:2,0:2:0:0:
218,218,175529,6,0,P|251:250|442:176,1,262.080006398438,6|0,1:2|0:2,0:2:0:0:
456,115,176362,1,2,0:2:0:0:
284,178,176695,6,0,P|327:194|360:166,1,84.6299966424867,2|0,0:2|0:2,0:2:0:0:
313,112,177029,2,0,P|278:133|188:170,1,131.040003199219,2|2,0:2|0:2,0:2:0:0:
146,235,177529,2,0,P|119:217|108:189,1,56.4199977616578,2|0,0:2|0:2,0:2:0:0:
23,172,177862,2,0,P|28:140|50:121,1,56.4199977616578,2|0,0:2|0:2,0:2:0:0:
7,41,178195,6,0,B|38:1|89:0|144:39|116:56|145:102|200:110|248:58,1,262.080006398438,2|0,1:2|0:2,0:2:0:0:
351,12,179029,2,0,P|337:50|330:119,1,98.2800023994141,2|0,0:2|0:2,0:2:0:0:
302,137,179362,2,0,P|317:176|321:218,1,65.5200015996094,2|0,0:2|1:2,0:2:0:0:
372,271,179612,1,0,1:2:0:0:
372,271,179695,6,0,P|357:302|352:335,3,50.9600006220703,10|0|0|0,0:2|1:2|1:2|1:2,0:2:0:0:
197,249,180029,2,0,P|221:229|251:228,1,50.9600006220703,2|0,1:2|1:2,0:2:0:0:
444,213,180195,2,0,P|459:244|464:277,3,50.9600006220703,10|0|0|0,0:2|1:2|1:2|1:2,0:2:0:0:
273,301,180529,1,10,0:2:0:0:
233,291,180612,1,8,0:2:0:0:
193,281,180695,1,8,0:2:0:0:
153,271,180779,1,8,0:2:0:0:
113,261,180862,6,0,P|166:232|224:352,1,203.840002488281,6|0,1:2|1:2,0:2:0:0:
153,149,181362,1,10,0:2:0:0:
338,253,181529,2,0,P|350:200|382:149,1,101.920001244141,2|0,0:2|1:2,0:2:0:0:
305,7,181862,1,0,1:2:0:0:
128,163,182029,2,0,P|74:197|29:238,1,101.920001244141,10|2,0:2|0:2,0:2:0:0:
250,219,182362,5,2,1:2:0:0:
54,341,182529,1,0,1:2:0:0:
275,377,182695,1,10,0:2:0:0:
144,254,182862,2,0,P|158:302|166:353,1,101.920001244141,2|0,0:2|1:2,0:2:0:0:
273,179,183196,1,0,1:2:0:0:
384,384,183362,2,0,P|397:342|406:284,1,101.920001244141,10|0,0:2|0:2,0:2:0:0:
224,98,183696,5,2,1:2:0:0:
311,285,183862,1,0,1:2:0:0:
405,100,184029,1,12,0:2:0:0:
306,314,184196,1,2,0:2:0:0:
193,115,184362,2,0,P|204:52|205:-5,1,101.920001244141,2|0,1:2|1:2,0:2:0:0:
349,177,184696,1,8,0:2:0:0:
108,181,184862,2,0,P|136:190|158:211,1,50.9600006220703,2|0,0:2|0:2,0:2:0:0:
338,309,185029,6,0,B|365:302|398:291|398:291|423:295|423:295|449:281|484:273,1,152.880001866211,2|8,1:2|0:2,0:2:0:0:
510,266,185362,2,0,P|526:210|483:178,1,101.920001244141,2|2,1:2|0:2,0:2:0:0:
473,173,185612,1,8,0:2:0:0:
473,173,185695,1,8,0:2:0:0:
225,114,185862,1,2,1:2:0:0:
492,27,186029,1,6,1:2:0:0:
296,1,186195,6,0,P|322:78|337:209,1,203.840002488281,6|0,1:2|0:2,0:2:0:0:
276,282,186695,2,0,P|304:327|311:369,1,83.7199971895753,0|0,1:2|0:2,0:2:0:0:
482,170,187029,2,0,P|454:215|447:257,1,83.7199971895753,8|0,0:2|0:2,0:2:0:0:
225,114,187362,1,2,0:2:0:0:
358,215,187529,1,0,1:2:0:0:
165,282,187695,6,0,P|122:266|74:254,1,83.7199971895753,2|8,1:2|0:2,0:2:0:0:
84,162,188029,1,2,0:2:0:0:
0,384,188195,2,0,L|88:341,1,83.7199971895753,2|8,1:2|0:2,0:2:0:0:
210,121,188529,1,2,0:2:0:0:
275,361,188695,1,8,0:2:0:0:
165,198,188862,6,0,P|179:138|216:24,1,167.439994379151,6|0,1:2|0:2,0:2:0:0:
105,4,189362,2,0,P|83:48|107:76,1,83.7199971895753,0|0,1:2|0:2,0:2:0:0:
306,54,189695,2,0,P|354:39|403:34,1,83.7199971895753,8|0,0:2|0:2,0:2:0:0:
475,2,190029,1,2,0:2:0:0:
475,2,190195,1,0,1:2:0:0:
241,128,190362,5,10,0:2:0:0:
505,190,190529,1,0,1:2:0:0:
314,87,190695,1,10,0:2:0:0:
314,87,190779,1,8,0:2:0:0:
314,87,190862,1,2,1:2:0:0:
413,280,191029,1,0,1:2:0:0:
413,280,191113,1,0,1:2:0:0:
413,280,191195,2,0,P|418:309|433:335,1,41.8599985947876,10|8,0:2|0:2,0:2:0:0:
503,361,191362,2,0,P|510:341|512:320,1,41.8599985947876,10|8,0:2|0:2,0:2:0:0:
283,209,191529,6,0,B|238:226|204:238|204:238|187:264|187:264|143:275|103:294,1,203.840002488281,6|0,1:2|1:2,0:2:0:0:
0,107,192029,2,0,P|50:128|115:147,1,101.920001244141,8|0,0:2|0:2,0:2:0:0:
313,64,192362,1,0,1:2:0:0:
167,232,192529,1,0,1:2:0:0:
78,35,192695,2,0,P|128:14|193:-5,1,101.920001244141,8|0,0:2|0:2,0:2:0:0:
310,201,193029,5,0,1:2:0:0:
159,89,193195,1,0,1:2:0:0:
251,279,193362,2,0,P|268:330|272:398,1,101.920001244141,8|0,0:2|0:2,0:2:0:0:
70,254,193695,1,0,1:2:0:0:
303,172,193862,1,0,1:2:0:0:
186,365,194029,2,0,P|137:346|65:333,1,101.920001244141,10|0,0:2|0:2,0:2:0:0:
337,246,194362,5,2,1:2:0:0:
131,184,194529,1,0,1:2:0:0:
308,360,194695,2,0,P|351:335|430:312,1,101.920001244141,8|0,0:2|0:2,0:2:0:0:
473,106,195029,1,0,1:2:0:0:
276,189,195195,1,0,1:2:0:0:
497,330,195362,2,0,P|484:281|444:209,1,101.920001244141,10|2,0:2|0:2,0:2:0:0:
249,61,195695,5,8,0:2:0:0:
482,136,195862,1,2,1:2:0:0:
194,249,196029,5,10,0:2:0:0:
400,173,196195,1,0,1:2:0:0:
59,47,196362,5,0,1:2:0:0:
189,215,196529,1,8,0:2:0:0:
206,209,196612,1,8,0:2:0:0:
223,203,196695,1,10,0:2:0:0:
297,20,196862,1,2,1:2:0:0:
39,159,197029,6,0,P|60:220|80:338,1,152.880001866211,6|0,1:2|0:2,0:2:0:0:
77,338,197362,5,8,0:2:0:0:
161,74,197529,1,0,1:2:0:0:
288,384,197695,5,8,0:2:0:0:
229,123,197862,1,0,1:2:0:0:
387,340,198029,5,8,0:2:0:0:
459,76,198196,1,0,1:2:0:0:
240,265,198362,6,0,P|184:279|79:330,1,152.880001866211,10|0,0:2|0:2,0:2:0:0:
77,338,198695,5,8,0:2:0:0:
349,207,198862,1,0,1:2:0:0:
14,172,199029,5,8,0:2:0:0:
271,291,199195,1,0,1:2:0:0:
0,306,199362,5,8,0:2:0:0:
276,157,199529,1,0,1:2:0:0:
5,7,199695,6,0,B|12:41|19:70|19:70|16:92|16:92|26:126|31:156,1,152.880001866211,10|0,0:2|0:2,0:2:0:0:
39,183,200029,5,8,0:2:0:0:
198,0,200195,1,0,1:2:0:0:
216,315,200362,5,8,0:2:0:0:
118,76,200529,1,0,1:2:0:0:
104,381,200695,5,10,0:2:0:0:
223,128,200862,1,0,1:2:0:0:
409,346,201029,6,0,P|430:285|350:241,1,152.880001866211,10|0,0:2|0:2,0:2:0:0:
339,244,201362,5,10,0:2:0:0:
192,384,201529,1,0,1:2:0:0:
370,97,201695,5,10,0:2:0:0:
279,360,201862,1,0,1:2:0:0:
253,17,202029,5,10,0:2:0:0:
399,375,202195,1,0,1:2:0:0:
172,115,202362,6,0,P|108:158|30:194,1,152.880001866211,14|0,0:2|0:2,0:2:0:0:
11,209,202695,1,8,0:2:0:0:
154,25,202862,1,2,1:2:0:0:
321,217,203029,2,0,P|350:176|338:117,1,101.920001244141,10|0,0:2|1:2,0:2:0:0:
137,237,203362,1,8,0:2:0:0:
322,310,203529,1,0,1:2:0:0:
72,167,203695,6,0,B|100:159|132:146|132:146|157:148|157:148|184:132|216:124,1,152.880001866211,8|0,0:2|0:2,0:2:0:0:
247,108,204029,1,8,0:2:0:0:
28,75,204195,1,2,1:2:0:0:
186,310,204362,2,0,P|223:269|214:212,1,101.920001244141,10|0,0:2|1:2,0:2:0:0:
104,20,204695,1,10,0:2:0:0:
28,252,204862,1,2,1:2:0:0:
28,252,204945,1,2,1:2:0:0:
28,252,205029,6,0,P|53:308|57:361,1,101.920001244141,14|0,0:2|1:2,0:2:0:0:
175,140,205362,1,0,1:2:0:0:
292,369,205529,2,0,P|299:318|321:273,1,101.920001244141,10|0,0:2|1:2,0:2:0:0:
232,33,205862,1,0,1:2:0:0:
119,223,206029,6,0,P|171:251|215:224,1,101.920001244141,10|0,0:2|1:2,0:2:0:0:
344,0,206362,1,0,1:2:0:0:
488,202,206529,2,0,P|436:230|392:203,1,101.920001244141,10|0,0:2|1:2,0:2:0:0:
165,108,206862,1,0,1:2:0:0:
467,12,207029,2,0,P|444:69|439:123,1,101.920001244141,10|0,0:2|0:2,0:2:0:0:
384,186,207279,1,8,0:2:0:0:
384,186,207362,2,0,P|398:219|402:244,1,50.9600006220703,10|8,0:2|0:2,0:2:0:0:
486,279,207529,2,0,P|492:254|502:231,1,50.9600006220703,10|8,0:2|0:2,0:2:0:0:
301,79,207695,6,0,B|271:91|238:102|238:102|228:120|228:120|195:128|167:144,1,152.880001866211,6|0,1:2|0:2,0:2:0:0:
140,155,208029,1,0,1:2:0:0:
203,26,208195,1,2,1:2:0:0:
215,209,208362,1,0,1:2:0:0:
338,86,208529,1,0,1:2:0:0:
238,298,208695,1,2,1:2:0:0:
463,186,208862,1,0,1:2:0:0:
221,384,209029,5,10,0:2:0:0:
366,104,209195,1,8,0:2:0:0:
501,384,209362,1,8,0:2:0:0:
161,190,209529,1,8,0:2:0:0:
511,28,209695,1,10,0:2:0:0:
309,357,209862,1,8,0:2:0:0:
85,0,210029,1,8,0:2:0:0:
509,185,210195,1,8,0:2:0:0:
411,316,210362,5,2,0:2:0:0:
256,192,210445,12,0,212362,0:2:0:0:
111,14,213028,5,0,1:2:0:0:
23,129,213195,1,8,0:2:0:0:
23,129,213278,1,8,0:2:0:0:
23,129,213362,2,0,P|44:137|63:150,1,46.4100002832642,10|10,0:2|0:2,0:2:0:0:
183,195,213528,6,0,P|99:235|24:290,1,185.640001133057,6|0,1:2|1:2,0:2:0:0:
145,123,214028,1,8,0:2:0:0:
220,282,214195,2,0,P|235:337|236:396,1,91,2|0,0:2|1:2,0:2:0:0:
310,154,214528,1,2,1:2:0:0:
125,236,214695,1,10,0:2:0:0:
323,360,214862,6,0,P|386:297|473:313,1,182,2|0,1:2|1:2,0:2:0:0:
292,242,215362,1,8,0:2:0:0:
493,143,215528,2,0,P|446:135|405:114,1,91,2|0,0:2|1:2,0:2:0:0:
218,12,215862,1,2,1:2:0:0:
444,41,216028,1,10,0:2:0:0:
180,95,216195,6,0,B|140:114|107:128|107:128|92:150|92:150|53:164|21:189,1,182,2|0,1:2|1:2,0:2:0:0:
124,17,216695,1,8,0:2:0:0:
171,208,216862,2,0,P|149:258|146:301,1,91,2|0,0:2|1:2,0:2:0:0:
245,368,217195,1,2,1:2:0:0:
46,281,217362,1,8,0:2:0:0:
295,224,217528,6,0,P|332:175|266:79,1,182,2|0,1:2|1:2,0:2:0:0:
143,194,218028,1,8,0:2:0:0:
381,265,218195,2,0,P|424:278|461:304,1,91,2|0,0:2|1:2,0:2:0:0:
281,359,218528,1,10,0:2:0:0:
281,359,218612,1,10,0:2:0:0:
281,359,218695,1,10,0:2:0:0:
483,215,218862,6,0,P|458:125|454:35,1,182,6|0,1:2|1:2,0:2:0:0:
258,142,219362,2,0,P|303:151|342:177,1,91,8|0,0:2|0:2,0:2:0:0:
198,25,219695,1,0,1:2:0:0:
371,92,219862,1,0,1:2:0:0:
199,217,220028,2,0,P|160:241|114:251,1,91,8|0,0:2|0:2,0:2:0:0:
9,62,220362,5,2,1:2:0:0:
226,134,220528,1,0,1:2:0:0:
9,281,220695,2,0,P|30:231|35:178,1,91,10|0,0:2|0:2,0:2:0:0:
264,44,221028,1,2,1:2:0:0:
76,119,221195,1,0,1:2:0:0:
285,217,221362,2,0,P|338:238|369:265,1,91,14|0,0:2|0:2,0:2:0:0:
464,316,221612,1,8,0:2:0:0:
464,316,221695,6,0,P|411:337|379:365,1,91,6|0,1:2|1:2,0:2:0:0:
367,383,221945,1,8,0:2:0:0:
367,383,222028,1,0,1:2:0:0:
197,224,222195,1,0,1:2:0:0:
431,150,222362,1,10,1:2:0:0:
427,166,222445,1,8,3:2:0:0:
424,183,222528,1,8,3:2:0:0:
286,23,222695,1,0,1:2:0:0:
175,260,222862,1,8,0:2:0:0:
175,260,222945,1,8,0:2:0:0:
175,260,223028,6,0,L|235:237,1,46.4100002832642,10|0,0:2|0:2,0:2:0:0:
301,101,223195,2,0,L|290:164,1,46.4100002832642,2|0,1:2|0:2,0:2:0:0:
375,289,223362,2,0,L|325:248,1,45.5,2|0,0:2|0:2,0:2:0:0:
149,96,223528,2,0,P|171:122|199:131,1,46.4100002832642,10|0,0:2|0:2,0:2:0:0:
443,155,223695,2,0,P|409:161|387:182,1,46.4100002832642,2|0,1:2|0:2,0:2:0:0:
244,380,223861,2,0,P|255:347|249:322,1,46.4100002832642,10|0,0:2|0:2,0:2:0:0:
308,14,224028,2,0,P|306:43|313:71,1,46.4100002832642,2|0,1:2|0:2,0:2:0:0:
508,339,224195,6,0,P|483:282|370:294,1,185.640001133057,6|0,1:2|1:2,0:2:0:0:
172,371,224694,1,8,0:2:0:0:
262,190,224862,2,0,P|279:241|275:301,1,92.8200005665283,2|0,0:2|1:2,0:2:0:0:
78,179,225195,1,2,1:2:0:0:
291,68,225362,1,10,0:2:0:0:
193,288,225528,6,0,P|179:229|169:94,1,185.640001133057,6|0,1:2|1:2,0:2:0:0:
388,280,226028,2,0,P|363:329|359:371,1,92.8200005665283,8|2,0:2|0:2,0:2:0:0:
262,190,226361,1,0,1:2:0:0:
476,280,226527,1,2,0:2:0:0:
476,280,226612,1,8,0:2:0:0:
476,280,226695,1,8,0:2:0:0:
261,83,226861,6,0,B|224:100|197:108|197:108|177:136|177:136|139:144|89:171,1,185.640001133057,6|0,1:2|1:2,0:2:0:0:
4,316,227361,1,8,0:2:0:0:
168,237,227528,2,0,P|214:245|263:264,1,92.8200005665283,2|0,0:2|1:2,0:2:0:0:
100,165,227861,1,2,1:2:0:0:
286,81,228027,1,8,0:2:0:0:
23,15,228195,6,0,P|84:68|185:23,1,185.640001133057,6|0,1:2|1:2,0:2:0:0:
373,0,228694,1,8,0:2:0:0:
285,109,228861,2,0,P|268:148|264:209,1,92.8200005665283,2|0,0:2|1:2,0:2:0:0:
378,342,229195,1,10,0:2:0:0:
386,327,229277,1,10,0:2:0:0:
384,313,229361,1,10,0:2:0:0:
168,237,229528,6,0,P|112:258|-3:314,1,185.640001133057,6|0,1:2|1:2,0:2:0:0:
79,116,230028,2,0,P|134:107|167:153,1,92.8200005665283,8|0,0:2|0:2,0:2:0:0:
78,375,230361,1,0,1:2:0:0:
0,180,230527,1,0,1:2:0:0:
201,316,230695,2,0,P|244:298|289:286,1,92.8200005665283,8|0,0:2|0:2,0:2:0:0:
486,115,231028,5,10,0:2:0:0:
383,342,231194,1,0,1:2:0:0:
257,31,231361,5,10,0:2:0:0:
308,303,231527,1,0,1:2:0:0:
183,88,231695,5,10,0:2:0:0:
120,295,231861,1,0,1:2:0:0:
70,148,232027,1,10,0:2:0:0:
70,148,232111,1,8,0:2:0:0:
70,148,232195,2,0,P|100:159|128:171,1,46.4100002832642,0|0,1:2|1:2,0:2:0:0:
326,323,232361,5,14,0:2:0:0:
162,56,232527,1,0,1:2:0:0:
209,363,232694,1,0,1:2:0:0:
401,73,232861,5,10,0:2:0:0:
89,262,233027,1,0,1:2:0:0:
438,248,233194,1,0,1:2:0:0:
111,174,233361,5,10,0:2:0:0:
423,46,233527,1,0,1:2:0:0:
247,291,233694,5,2,1:2:0:0:
122,10,233861,1,8,0:2:0:0:
396,121,234027,1,8,0:2:0:0:
396,121,234110,1,8,0:2:0:0:
396,121,234195,2,0,P|386:148|382:175,1,46.4100002832642,0|8,1:2|0:2,0:2:0:0:
333,241,234361,2,0,P|375:259|408:291,1,92.8200005665283,8|0,0:2|0:2,0:2:0:0:
494,193,234611,1,8,0:2:0:0:
494,193,234695,2,0,P|471:199|451:211,1,46.4100002832642,8|8,0:2|0:2,0:2:0:0:
327,347,234861,6,0,B|293:295|285:227|336:175|336:175|393:97|345:6|232:-4|167:55|175:128|175:128|117:42|-25:75|-50:205|26:283|109:272|109:272|146:270|206:294|212:347,1,1048.32002559375,0|2,1:2|0:2,0:2:0:0:
