osu file format v14

[General]
AudioFilename: op.mp3
AudioLeadIn: 0
PreviewTime: 115362
Countdown: 0
SampleSet: Soft
StackLeniency: 0.4
Mode: 0
LetterboxInBreaks: 0
WidescreenStoryboard: 1

[Editor]
DistanceSpacing: 1.3
BeatDivisor: 4
GridSize: 16
TimelineZoom: 2.099999

[Metadata]
Title:Marine Blue ni Sotte
TitleUnicode:マリンブルーに沿って
Artist:Sasaki Sayaka
ArtistUnicode:佐咲紗花
Creator:Koiyuki
Version:Advanced
Source:ちいさな彼女の小夜曲
Tags:Chiisana Kanojo no Serenade Sayokyoku feng eroge galgame visual novel opening Tsukuyomi Kinomi Fycho Mei Meg iMage-- Minakami Yuki mtbbsben
BeatmapID:984032
BeatmapSetID:182958

[Difficulty]
HPDrainRate:4.5
CircleSize:3.8
OverallDifficulty:5
ApproachRate:7
SliderMultiplier:1.3
SliderTickRate:1

[Events]
//Background and Video events
0,0,"1.jpg",0,0
//Break Periods
2,77229,78129
2,90562,98629
2,143895,153462
2,175729,179962
2,210562,212295
//Storyboard Layer 0 (Background)
//Storyboard Layer 1 (Fail)
//Storyboard Layer 2 (Pass)
//Storyboard Layer 3 (Foreground)
//Storyboard Sound Samples

[TimingPoints]
-304,333.333333333333,4,2,1,80,1,0
15529,-125,4,2,1,60,0,0
24862,-100,4,2,1,80,0,0
42362,-125,4,2,1,60,0,0
46362,-100,4,2,1,80,0,0
52862,-100,4,2,1,90,0,1
77029,-100,4,2,1,80,0,0
78029,-125,4,2,1,80,0,0
79029,-100,4,2,1,80,0,0
106362,-125,4,2,1,60,0,0
111695,-100,4,2,1,80,0,0
116862,-100,4,2,1,90,0,1
141029,-100,4,2,1,80,0,0
142362,-125,4,2,1,50,0,0
154362,-100,4,2,1,80,0,0
180862,-100,4,2,1,90,0,1
210362,-100,4,2,1,80,0,0
212362,333.333333333333,4,2,1,80,1,0
237528,-100,4,2,2,50,0,0

[Colours]
Combo1 : 255,96,96
Combo2 : 255,255,128
Combo3 : 66,255,160
Combo4 : 117,117,255

[HitObjects]
256,192,362,12,0,3695,0:0:0:0:
301,229,4029,5,2,0:0:0:0:
351,161,4195,2,0,L|344:124,7,32.5,2|2|2|0|2|0|2|0,0:0|0:0|0:0|0:0|0:0|0:0|0:0|0:0,0:0:0:0:
351,87,4862,6,0,P|282:110|224:16,1,195,4|8,0:0|0:0,0:0:0:0:
138,17,5529,2,0,L|59:23,1,65,0|2,0:0|0:0,0:0:0:0:
48,102,5862,2,0,L|112:97,1,65,2|8,0:0|0:0,0:0:0:0:
143,175,6195,6,0,B|168:231|168:231|148:381,1,195,2|8,0:0|0:0,0:0:0:0:
67,345,6862,2,0,P|134:281|219:316,1,195,0|10,0:0|0:0,0:0:0:0:
303,332,7529,6,0,P|388:366|455:303,1,195,4|8,0:0|0:0,0:0:0:0:
488,225,8195,2,0,P|485:192|471:163,1,65,2|2,0:0|0:0,0:0:0:0:
387,176,8529,2,0,P|389:143|403:114,1,65,0|8,0:0|0:0,0:0:0:0:
471,64,8862,6,0,B|402:87|402:87|346:60|279:66,1,195,2|8,0:0|0:0,0:0:0:0:
211,17,9529,2,0,P|198:47|198:80,1,65,2|0,0:0|0:0,0:0:0:0:
252,145,9862,2,0,L|259:196,2,32.5,2|0|8,0:0|0:0|0:0,0:0:0:0:
173,176,10195,6,0,L|39:164,1,130,4|0,0:0|0:0,0:0:0:0:
17,245,10695,2,0,P|2:273|-1:309,1,65,8|0,0:0|0:0,0:0:0:0:
83,298,11029,2,0,P|84:330|99:362,1,65,2|0,0:0|0:0,0:0:0:0:
169,313,11362,2,0,P|186:340|215:361,1,65,8|0,0:0|0:0,0:0:0:0:
251,283,11695,6,0,P|272:223|264:159,1,130,2|8,0:0|0:0,0:0:0:0:
108,20,12362,2,0,P|87:81|95:145,1,130,2|8,0:0|0:0,0:0:0:0:
293,80,13029,6,0,L|226:72,2,65,4|2|2,0:0|0:0|0:0,0:0:0:0:
365,36,13529,2,0,L|432:28,2,65,8|2|2,0:0|0:0|0:0,0:0:0:0:
368,120,14029,2,0,P|380:163|376:197,1,65,8|2,0:0|0:0,0:0:0:0:
319,242,14362,6,0,P|307:285|311:319,2,65,2|8|2,0:0|0:0|0:0,0:0:0:0:
389,288,14862,2,0,L|476:283,1,65,2|10,0:0|0:0,0:0:0:0:
511,197,15195,1,10,0:0:0:0:
511,197,15695,6,0,P|461:204|413:185,1,104,4|0,0:0|0:0,0:0:0:0:
365,58,16362,2,0,P|314:50|266:69,1,104,2|0,0:0|0:0,0:0:0:0:
194,111,16862,6,0,B|150:124|150:124|92:116,1,104,2|2,0:0|0:0,0:0:0:0:
20,290,17695,1,0,0:0:0:0:
20,290,17862,2,0,B|64:277|64:277|121:284,1,104,2|2,0:0|0:0,0:0:0:0:
175,348,18362,6,0,P|225:355|273:336,1,104,2|0,0:0|0:0,0:0:0:0:
327,178,19029,2,0,L|321:55,1,104,2|0,0:0|0:0,0:0:0:0:
399,44,19529,6,0,L|404:147,1,104,2|2,0:0|0:0,0:0:0:0:
472,194,20029,2,0,P|482:169|485:144,2,52,0|0|2,0:0|0:0|0:0,0:0:0:0:
418,257,20529,2,0,L|354:251,1,52,2|0,0:0|0:0,0:0:0:0:
327,178,20862,1,2,0:0:0:0:
327,178,20945,1,0,0:0:0:0:
327,178,21029,6,0,P|274:178|215:193,1,104,6|0,0:0|0:0,0:0:0:0:
162,244,21529,2,0,B|151:287|151:287|162:364,1,104,2|0,0:0|0:0,0:0:0:0:
28,243,22195,6,0,B|39:200|39:200|28:123,1,104,2|0,0:0|0:0,0:0:0:0:
15,58,22695,2,0,L|77:63,1,52,2|2,0:0|0:0,0:0:0:0:
222,72,23195,2,0,P|272:68|314:38,1,104,2|2,0:0|0:0,0:0:0:0:
412,55,23695,6,0,P|365:32|314:37,1,104,2|0,0:0|0:0,0:0:0:0:
303,120,24195,2,0,P|349:142|400:137,1,104,2|2,0:0|0:0,0:0:0:0:
479,110,24695,1,0,0:0:0:0:
432,231,24862,6,0,L|448:359,1,130,2|2,0:0|0:0,0:0:0:0:
347,222,25362,2,0,L|355:288,1,65,2|2,0:0|0:0,0:0:0:0:
262,213,25695,1,0,0:0:0:0:
311,144,25862,2,0,L|315:105,2,32.5,0|0|2,0:0|0:0|0:0,0:0:0:0:
214,283,26362,6,0,P|152:264|87:263,1,130,4|8,0:0|0:0,0:0:0:0:
15,309,26862,1,0,0:0:0:0:
15,309,27029,2,0,P|3:272|13:229,1,65,2|0,0:0|0:0,0:0:0:0:
62,183,27362,1,8,0:0:0:0:
18,110,27529,6,0,B|56:97|75:73|75:73|89:104|126:123,1,130,2|2,0:0|0:0,0:0:0:0:
152,41,28029,2,0,L|289:49,1,130,8|2,0:0|0:0,0:0:0:0:
356,88,28529,1,2,0:0:0:0:
356,88,28695,2,0,P|388:85|418:74,1,65,8|0,0:0|0:0,0:0:0:0:
482,18,29029,6,0,B|503:51|503:51|491:141,1,130,2|8,0:0|0:0,0:0:0:0:
435,204,29529,1,0,0:0:0:0:
435,204,29695,2,0,L|443:275,1,65,2|0,0:0|0:0,0:0:0:0:
406,346,30029,1,8,0:0:0:0:
329,310,30195,6,0,P|263:304|199:342,1,130,0|2,0:0|0:0,0:0:0:0:
129,364,30695,1,8,0:0:0:0:
129,364,30862,2,0,P|92:365|54:353,1,65,0|2,0:0|0:0,0:0:0:0:
18,287,31195,2,0,L|32:136,1,130,4|0,0:0|0:0,0:0:0:0:
88,95,31695,6,0,P|83:65|67:32,2,65,4|0|8,0:0|0:0|0:0,0:0:0:0:
165,131,32195,2,0,P|197:128|227:117,1,65,2|0,0:0|0:0,0:0:0:0:
315,74,32529,2,0,L|307:156,1,65,2|8,0:0|0:0,0:0:0:0:
249,198,32862,6,0,P|242:255|281:335,1,130,2|2,0:0|0:0,0:0:0:0:
346,354,33362,1,8,0:0:0:0:
346,354,33529,2,0,B|404:336|404:336|493:350,1,130,0|2,0:0|0:0,0:0:0:0:
495,265,34029,2,0,L|408:252,1,65,8|0,0:0|0:0,0:0:0:0:
366,200,34362,6,0,P|362:167|371:136,1,65,2|0,0:0|0:0,0:0:0:0:
447,98,34695,1,8,0:0:0:0:
447,98,34862,2,0,P|455:66|452:31,1,65,0|2,0:0|0:0,0:0:0:0:
373,4,35195,1,2,0:0:0:0:
319,69,35362,1,8,0:0:0:0:
243,107,35529,6,0,P|180:100|127:63,1,130,4|2,0:0|0:0,0:0:0:0:
63,119,36029,2,0,L|-1:126,1,65,8|2,0:0|0:0,0:0:0:0:
105,192,36362,2,0,L|41:200,1,65,8|2,0:0|0:0,0:0:0:0:
3,276,36695,2,0,L|-1:308,2,32.5,8|0|0,0:0|0:0|0:0,0:0:0:0:
66,358,37029,6,0,P|121:327|185:329,1,130,4|8,0:0|0:0,0:0:0:0:
348,369,37695,2,0,P|379:380|411:381,2,65,2|2|8,0:0|0:0|0:0,0:0:0:0:
285,311,38195,6,0,P|263:250|274:186,1,130,2|2,0:0|0:0,0:0:0:0:
330,123,38695,2,0,P|335:93|328:59,1,65,8|0,0:0|0:0,0:0:0:0:
250,94,39029,1,2,0:0:0:0:
439,9,39362,1,8,0:0:0:0:
505,164,39695,6,0,L|513:237,1,65,2|0,0:0|0:0,0:0:0:0:
419,150,40029,2,0,L|427:215,1,65,8|0,0:0|0:0,0:0:0:0:
384,288,40362,2,0,P|423:306|445:327,2,65,2|2|8,0:0|0:0|0:0,0:0:0:0:
312,333,40862,6,0,P|255:363|192:356,1,130,2|2,0:0|0:0,0:0:0:0:
175,273,41362,2,0,P|231:242|294:249,2,130,8|0|8,0:0|0:0|0:0,0:0:0:0:
245,93,42362,6,0,B|257:47|252:9|252:9|266:21,1,104,4|2,0:0|0:0,0:0:0:0:
165,123,43029,2,0,B|119:110|81:115|81:115|93:101,1,104,2|2,0:0|0:0,0:0:0:0:
196,201,43695,6,0,B|183:246|188:284|188:284|174:272,1,104,2|2,0:0|0:0,0:0:0:0:
275,170,44362,2,0,B|320:182|358:177|358:177|346:191,1,104,2|2,0:0|0:0,0:0:0:0:
174,272,45029,6,0,L|70:278,1,104,2|2,0:0|0:0,0:0:0:0:
28,97,45695,2,0,L|131:90,1,104,2|2,0:0|0:0,0:0:0:0:
207,124,46195,1,0,0:0:0:0:
260,59,46362,6,0,P|233:42|201:38,1,65,2|4,0:0|0:3,0:0:0:0:
343,75,46695,2,0,P|343:42|330:13,1,65,2|4,0:0|0:3,0:0:0:0:
370,154,47029,2,0,P|398:138|417:112,1,65,2|4,0:0|0:3,0:0:0:0:
315,216,47362,2,0,P|342:232|374:236,1,65,2|2,0:0|0:0,0:0:0:0:
488,205,47695,5,6,0:0:0:0:
232,252,48362,5,6,0:0:0:0:
469,287,49029,5,6,0:0:0:0:
213,170,49695,5,6,0:0:0:0:
308,45,50362,5,4,0:0:0:0:
308,45,50529,1,0,0:0:0:0:
234,88,50695,2,0,P|194:86|155:67,1,65,2|2,0:0|0:0,0:0:0:0:
68,19,51029,1,10,0:0:0:0:
77,102,51195,1,10,0:0:0:0:
86,186,51362,2,0,L|74:250,1,65,10|10,0:0|0:0,0:0:0:0:
74,250,52529,6,0,L|85:186,1,65,2|0,0:0|0:0,0:0:0:0:
20,131,52862,6,0,P|76:100|137:118,1,130,6|2,0:0|0:0,0:0:0:0:
203,168,53362,2,0,P|235:168|266:158,1,65,8|0,0:0|0:0,0:0:0:0:
326,99,53695,2,0,L|322:34,2,65,2|0|8,0:0|0:0|0:0,0:0:0:0:
397,144,54195,1,0,0:0:0:0:
464,92,54362,6,0,P|480:153|450:209,1,130,2|8,0:0|0:0,0:0:0:0:
396,274,54862,2,0,P|424:290|456:295,1,65,0|0,0:0|0:0,0:0:0:0:
339,210,55195,2,0,P|307:215|278:231,1,65,2|8,0:0|0:0,0:0:0:0:
221,294,55529,6,0,L|231:142,1,130,0|2,0:0|0:0,0:0:0:0:
274,92,56029,1,8,0:0:0:0:
274,92,56195,1,0,0:0:0:0:
218,27,56362,2,0,P|187:35|155:38,1,65,2|0,0:0|0:0,0:0:0:0:
71,30,56695,2,0,L|37:21,3,32.5,8|0|0|0,0:0|0:0|0:0|0:0,0:0:0:0:
22,60,57029,6,0,P|23:97|32:138,1,65,2|0,0:0|0:0,0:0:0:0:
103,163,57362,1,8,0:0:0:0:
103,163,57529,2,0,L|94:292,1,130,2|2,0:0|0:0,0:0:0:0:
60,370,58029,1,8,0:0:0:0:
170,331,58195,6,0,P|233:321|292:346,1,130,4|2,0:0|0:0,0:0:0:0:
373,370,58695,2,0,L|504:357,1,130,8|2,0:0|0:0,0:0:0:0:
466,280,59195,1,2,0:0:0:0:
466,280,59362,2,0,L|401:286,1,65,8|0,0:0|0:0,0:0:0:0:
332,236,59695,5,2,0:0:0:0:
377,164,59862,1,0,0:0:0:0:
377,164,60029,2,0,B|391:120|391:120|374:22,1,130,8|2,0:0|0:0,0:0:0:0:
172,73,60695,2,0,P|199:90|231:95,1,65,8|0,0:0|0:0,0:0:0:0:
230,10,61029,6,0,L|73:26,1,130,2|8,0:0|0:0,0:0:0:0:
37,79,61529,1,2,0:0:0:0:
37,79,61695,2,0,B|46:125|58:144|58:144|33:176|29:218,1,130,2|8,0:0|0:0,0:0:0:0:
67,275,62195,1,8,0:0:0:0:
150,259,62362,6,0,P|138:229|116:207,2,65,4|2|8,0:0|0:0|0:0,0:0:0:0:
207,323,62862,2,0,P|226:297|235:266,1,65,10|2,0:0|0:0,0:0:0:0:
282,196,63195,2,0,L|331:201,2,32.5,0|0|8,0:0|0:0|0:0,0:0:0:0:
325,284,63529,6,0,L|465:270,1,130,4|2,0:0|0:0,0:0:0:0:
499,199,64029,2,0,P|506:162|499:124,1,65,8|0,0:0|0:0,0:0:0:0:
422,164,64362,2,0,P|400:132|368:110,1,65,2|2,0:0|0:0,0:0:0:0:
299,89,64695,2,0,L|306:12,1,65,8|0,0:0|0:0,0:0:0:0:
221,40,65029,6,0,L|208:174,1,130,2|8,0:0|0:0,0:0:0:0:
127,140,65529,2,0,P|95:141|64:150,1,65,2|0,0:0|0:0,0:0:0:0:
105,224,65862,2,0,P|77:240|54:263,1,65,2|8,0:0|0:0,0:0:0:0:
127,307,66195,6,0,P|178:344|243:341,1,130,0|2,0:0|0:0,0:0:0:0:
322,314,66695,2,0,B|369:293|369:293|462:304,1,130,8|2,0:0|0:0,0:0:0:0:
480,224,67195,1,0,0:0:0:0:
480,224,67362,2,0,L|471:142,1,65,8|0,0:0|0:0,0:0:0:0:
420,92,67695,6,0,B|376:78|376:78|324:94|308:143,1,130,2|8,0:0|0:0,0:0:0:0:
286,210,68195,2,0,L|301:352,1,130,0|2,0:0|0:0,0:0:0:0:
220,367,68695,1,8,0:0:0:0:
150,318,68862,6,0,L|135:188,1,130,4|2,0:0|0:0,0:0:0:0:
59,150,69362,2,0,P|77:90|50:33,2,130,8|2|8,0:0|0:0|0:0,0:0:0:0:
1,212,70195,1,0,0:0:0:0:
53,278,70362,6,0,P|117:267|181:261,1,130,2|8,0:0|0:0,0:0:0:0:
238,323,70862,1,0,0:0:0:0:
238,323,71029,2,0,P|302:333|366:339,1,130,2|8,0:0|0:0,0:0:0:0:
447,312,71529,1,0,0:0:0:0:
382,258,71695,6,0,B|372:200|372:200|383:129,2,130,2|8|2,0:0|0:0|0:0,0:0:0:0:
461,165,72529,1,2,0:0:0:0:
461,165,72695,2,0,L|470:100,1,65,8|2,0:0|0:0,0:0:0:0:
424,29,73029,6,0,P|360:21|294:55,1,130,0|10,0:0|0:0,0:0:0:0:
257,119,73529,1,0,0:0:0:0:
257,119,73695,2,0,L|182:113,1,65,2|0,0:0|0:0,0:0:0:0:
115,77,74029,2,0,P|111:44|117:13,1,65,8|0,0:0|0:0,0:0:0:0:
52,134,74362,6,0,L|43:210,1,65,4|10,0:0|0:0,0:0:0:0:
128,187,74695,2,0,L|119:263,1,65,2|10,0:0|0:0,0:0:0:0:
165,323,75029,2,0,P|136:334|88:331,2,65,0|0|10,0:0|0:0|0:0,0:0:0:0:
224,262,75529,1,0,0:0:0:0:
295,306,75695,6,0,P|305:276|305:243,1,65,10|10,0:0|0:0,0:0:0:0:
273,163,76029,2,0,P|272:130|282:99,1,65,10|10,0:0|0:0,0:0:0:0:
364,75,76362,1,10,0:0:0:0:
364,75,76529,1,10,0:0:0:0:
428,128,76695,2,0,L|437:210,1,65,10|10,0:0|0:0,0:0:0:0:
446,296,77029,5,4,0:0:0:0:
435,342,79029,6,0,L|441:373,5,32.5,8|0|0|0|8|0,0:0|0:0|0:0|0:0|0:0|0:0,0:0:0:0:
462,309,79529,6,0,B|390:294|390:294|342:305|342:305|258:289,1,195,4|8,0:0|0:0,0:0:0:0:
196,250,80195,2,0,P|186:282|189:314,1,65,2|0,0:0|0:0,0:0:0:0:
272,213,80529,2,0,P|274:180|264:149,1,65,0|8,0:0|0:0,0:0:0:0:
205,90,80862,6,0,B|134:74|134:74|0:93,1,195,2|8,0:0|0:0,0:0:0:0:
35,9,81529,2,0,P|95:79|57:163,1,195,0|10,0:0|0:0,0:0:0:0:
14,235,82195,6,0,B|25:359|25:359|44:316|83:300,1,195,4|8,0:0|0:0,0:0:0:0:
148,340,82862,2,0,P|176:355|208:361,1,65,2|2,0:0|0:0,0:0:0:0:
286,329,83195,2,0,P|314:313|346:307,1,65,0|8,0:0|0:0,0:0:0:0:
420,348,83529,6,0,B|437:278|437:278|425:218|425:218|444:148,1,195,2|8,0:0|0:0,0:0:0:0:
489,88,84195,2,0,P|487:55|475:26,1,65,2|0,0:0|0:0,0:0:0:0:
404,74,84529,2,0,L|371:71,2,32.5,2|0|8,0:0|0:0|0:0,0:0:0:0:
316,7,84862,6,0,L|186:18,1,130,4|2,0:0|0:0,0:0:0:0:
111,57,85362,2,0,P|78:53|50:37,1,65,8|0,0:0|0:0,0:0:0:0:
4,108,85695,2,0,L|-2:187,1,65,2|0,0:0|0:0,0:0:0:0:
76,209,86029,2,0,L|80:144,1,65,8|0,0:0|0:0,0:0:0:0:
161,171,86362,6,0,L|149:329,1,130,2|8,0:0|0:0,0:0:0:0:
288,143,87029,2,0,L|278:13,1,130,2|8,0:0|0:0,0:0:0:0:
467,98,87695,6,0,P|476:68|474:35,2,65,12|2|0,0:0|0:0|0:0,0:0:0:0:
390,134,88195,2,0,P|387:166|397:197,2,65,10|2|0,0:0|0:0|0:0,0:0:0:0:
478,221,88695,2,0,L|470:295,1,65,10|0,0:0|0:0,0:0:0:0:
408,343,89029,5,2,0:0:0:0:
333,302,89195,1,8,0:0:0:0:
333,302,89362,2,0,P|300:292|246:296,1,65,2|2,0:0|0:0,0:0:0:0:
188,314,89695,2,0,L|180:345,3,32.5,10|0|2|0,0:0|0:0|0:0|0:0,0:0:0:0:
166,276,90029,2,0,L|155:190,1,65,2|0,0:0|0:0,0:0:0:0:
144,108,90362,5,4,0:0:0:0:
147,127,99529,6,0,B|169:92|169:92|217:70|269:77,1,130,4|2,0:0|0:0,0:0:0:0:
319,131,100029,2,0,P|350:136|382:129,1,65,8|8,0:0|0:0,0:0:0:0:
446,74,100362,2,0,L|437:29,2,32.5,0|8|2,0:0|0:0|0:0,0:0:0:0:
484,149,100695,2,0,L|477:237,1,65,8|0,0:0|0:0,0:0:0:0:
436,287,101029,6,0,P|386:266|304:275,1,130,4|8,0:0|0:0,0:0:0:0:
171,366,101695,2,0,L|100:357,2,65,2|0|8,0:0|0:0|0:0,0:0:0:0:
207,289,102195,6,0,L|65:271,1,130,2|2,0:0|0:0,0:0:0:0:
18,212,102695,1,8,0:0:0:0:
18,212,102862,1,0,0:0:0:0:
81,156,103029,2,0,P|78:123|66:91,1,65,2|0,0:0|0:0,0:0:0:0:
137,47,103362,2,0,P|115:25|87:8,1,65,8|2,0:0|0:0,0:0:0:0:
175,123,103695,6,0,P|238:131|294:100,1,130,2|8,0:0|0:0,0:0:0:0:
440,14,104362,2,0,L|520:22,1,65,2|2,0:0|0:0,0:0:0:0:
481,101,104695,1,8,0:0:0:0:
481,101,104862,6,0,B|462:145|462:145|478:241,1,130,4|2,0:0|0:0,0:0:0:0:
451,307,105362,2,0,P|407:309|381:295,1,65,8|0,0:0|0:0,0:0:0:0:
315,257,105695,2,0,L|317:223,4,32.5,0|0|0|0|8,0:0|0:0|0:0|0:0|0:0,0:0:0:0:
280,93,106362,6,0,P|228:96|183:72,1,104,4|2,0:0|0:0,0:0:0:0:
26,150,107029,2,0,P|77:153|123:130,1,104,2|2,0:0|0:0,0:0:0:0:
262,221,107695,6,0,P|211:224|166:201,1,104,2|2,0:0|0:0,0:0:0:0:
7,277,108362,2,0,P|33:282|59:280,1,52,2|8,0:0|0:0,0:0:0:0:
79,361,108695,2,0,P|103:352|124:337,1,52,2|8,0:0|0:0,0:0:0:0:
170,267,109029,6,0,L|161:145,1,104,2|2,0:0|0:0,0:0:0:0:
240,15,109695,2,0,L|233:119,1,104,2|2,0:0|0:0,0:0:0:0:
280,187,110195,1,0,0:0:0:0:
280,187,110279,1,0,0:0:0:0:
280,187,110362,6,0,P|337:174|381:139,1,104,2|2,0:0|0:0,0:0:0:0:
500,255,111029,2,0,L|467:249,3,26,2|0|2|2,0:0|0:0|0:0|0:0,0:0:0:0:
444,265,111362,2,0,L|412:276,3,26,8|2|2|2,0:0|0:0|0:0|0:0,0:0:0:0:
380,289,111695,5,4,0:0:0:0:
432,88,112362,5,4,0:0:0:0:
461,313,113029,5,6,0:0:0:0:
351,64,113695,6,0,L|285:74,1,65,2|2,0:0|0:0,0:0:0:0:
214,29,114029,2,0,L|148:39,1,65,2|2,0:0|0:0,0:0:0:0:
87,95,114362,6,0,P|56:87|31:67,2,65,10|2|10,0:0|0:0|0:0,0:0:0:0:
145,158,114862,1,2,0:0:0:0:
62,178,115029,2,0,L|55:259,1,65,10|2,0:0|0:0,0:0:0:0:
108,309,115362,2,0,L|112:357,2,32.5,2|2|10,0:0|0:0|0:0,0:0:0:0:
184,273,115695,6,0,P|219:263|306:293,1,130,0|2,0:0|0:0,0:0:0:0:
359,356,116195,2,0,B|389:364|389:364|444:356,1,65,2|0,0:0|0:0,0:0:0:0:
495,315,116529,2,0,L|489:241,1,65,2|0,0:0|0:0,0:0:0:0:
407,268,116862,6,0,L|395:129,1,130,4|2,0:0|0:0,0:0:0:0:
354,64,117362,2,0,P|419:95|490:84,2,130,8|2|8,0:0|0:0|0:0,0:0:0:0:
292,5,118195,1,0,0:0:0:0:
209,22,118362,6,0,L|221:110,1,65,2|0,0:0|0:0,0:0:0:0:
283,139,118695,1,8,0:0:0:0:
283,139,118862,2,0,P|294:169|298:201,1,65,0|0,0:0|0:0,0:0:0:0:
214,193,119195,2,0,P|193:218|167:237,1,65,2|8,0:0|0:0,0:0:0:0:
137,157,119529,6,0,B|90:141|90:141|52:145|8:166,1,130,2|2,0:0|0:0,0:0:0:0:
0,247,120029,2,0,L|19:379,1,130,8|2,0:0|0:0,0:0:0:0:
176,301,120695,2,0,L|167:237,1,65,8|0,0:0|0:0,0:0:0:0:
137,157,121029,6,0,B|90:173|90:173|52:169|8:148,1,130,2|8,0:0|0:0,0:0:0:0:
17,65,121529,2,0,P|49:79|79:81,1,65,2|2,0:0|0:0,0:0:0:0:
149,36,121862,2,0,P|181:32|210:18,1,65,0|8,0:0|0:0,0:0:0:0:
287,53,122195,6,0,L|429:39,1,130,4|2,0:0|0:0,0:0:0:0:
487,85,122695,2,0,P|496:115|496:148,1,65,8|0,0:0|0:0,0:0:0:0:
455,223,123029,2,0,P|445:253|445:286,1,65,2|2,0:0|0:0,0:0:0:0:
383,175,123362,2,0,P|358:197|343:226,1,65,8|0,0:0|0:0,0:0:0:0:
378,91,123695,6,0,L|248:103,1,130,0|8,0:0|0:0,0:0:0:0:
186,46,124195,1,0,0:0:0:0:
186,46,124362,2,0,P|153:41|124:24,1,65,2|2,0:0|0:0,0:0:0:0:
50,65,124695,2,0,L|63:139,1,65,8|0,0:0|0:0,0:0:0:0:
139,162,125029,6,0,B|127:186|110:200|110:200|91:241|108:296,1,130,2|8,0:0|0:0,0:0:0:0:
47,343,125529,1,2,0:0:0:0:
47,343,125695,2,0,P|74:359|106:365,1,65,2|2,0:0|0:0,0:0:0:0:
180,322,126029,2,0,P|207:305|239:299,1,65,8|0,0:0|0:0,0:0:0:0:
297,361,126362,6,0,L|281:212,1,130,4|8,0:0|0:0,0:0:0:0:
221,173,126862,1,2,0:0:0:0:
221,173,127029,2,0,P|216:140|223:109,2,65,2|8|8,0:0|0:0|0:0,0:0:0:0:
301,145,127529,6,0,P|367:133|430:162,1,130,4|2,0:0|0:0,0:0:0:0:
485,214,128029,2,0,L|478:278,1,65,8|0,0:0|0:0,0:0:0:0:
397,304,128362,2,0,L|403:239,1,65,2|2,0:0|0:0,0:0:0:0:
423,156,128695,2,0,L|416:91,1,65,8|0,0:0|0:0,0:0:0:0:
326,48,129029,6,0,L|340:178,1,130,2|8,0:0|0:0,0:0:0:0:
297,250,129529,2,0,B|254:236|254:236|207:232|156:268,1,130,2|2,0:0|0:0,0:0:0:0:
132,331,130029,1,8,0:0:0:0:
51,305,130195,6,0,P|51:241|19:176,1,130,0|2,0:0|0:0,0:0:0:0:
60,105,130695,2,0,L|129:109,1,65,8|0,0:0|0:0,0:0:0:0:
204,76,131029,2,0,P|234:64|259:45,1,65,2|2,0:0|0:0,0:0:0:0:
238,154,131362,2,0,P|270:158|302:154,1,65,8|0,0:0|0:0,0:0:0:0:
369,203,131695,6,0,P|426:172|491:181,1,130,2|8,0:0|0:0,0:0:0:0:
500,264,132195,2,0,P|443:294|378:286,1,130,0|2,0:0|0:0,0:0:0:0:
300,259,132695,1,8,0:0:0:0:
266,181,132862,6,0,L|280:38,1,130,4|2,0:0|0:0,0:0:0:0:
360,29,133362,2,0,B|399:49|399:49|446:50|497:12,2,130,8|2|8,0:0|0:0|0:0,0:0:0:0:
278,51,134195,1,0,0:0:0:0:
196,73,134362,6,0,P|133:71|71:25,1,130,2|8,0:0|0:0,0:0:0:0:
13,89,134862,1,0,0:0:0:0:
13,89,135029,2,0,B|32:140|32:140|19:231,1,130,2|8,0:0|0:0,0:0:0:0:
9,298,135529,1,0,0:0:0:0:
88,269,135695,6,0,B|143:253|143:253|229:268,2,130,6|8|2,0:0|0:0|0:0,0:0:0:0:
142,359,136529,1,2,0:0:0:0:
142,359,136695,2,0,L|208:351,1,65,8|0,0:0|0:0,0:0:0:0:
286,320,137029,6,0,P|306:260|280:201,1,130,2|8,0:0|0:0,0:0:0:0:
223,139,137529,1,2,0:0:0:0:
223,139,137695,2,0,P|215:107|220:75,1,65,2|2,0:0|0:0,0:0:0:0:
302,99,138029,2,0,P|319:71|344:52,1,65,8|0,0:0|0:0,0:0:0:0:
425,27,138362,6,0,L|499:35,1,65,4|10,0:0|0:0,0:0:0:0:
500,117,138695,2,0,L|435:110,1,65,2|10,0:0|0:0,0:0:0:0:
389,181,139029,2,0,L|324:187,2,65,2|2|10,0:0|0:0|0:0,0:0:0:0:
451,238,139529,1,2,0:0:0:0:
501,305,139695,6,0,P|471:318|439:319,1,65,8|10,0:0|0:0,0:0:0:0:
359,347,140029,2,0,P|335:324|305:313,1,65,10|2,0:0|0:0,0:0:0:0:
223,290,140362,2,0,L|217:354,1,65,10|10,0:0|0:0,0:0:0:0:
284,231,140695,2,0,L|278:166,1,65,10|10,0:0|0:0,0:0:0:0:
270,61,141029,5,4,0:0:0:0:
64,168,142362,6,0,B|117:159|117:159|159:172|159:172|216:161,1,156,0|2,3:0|0:0,0:0:0:0:
380,134,143195,2,0,L|374:200,1,52,0|2,0:0|0:0,0:0:0:0:
316,246,143529,2,0,L|320:292,2,26,2|0|4,0:0|0:0|0:0,0:0:0:0:
316,246,154362,6,0,B|416:229|416:229|400:253,1,130,4|2,0:0|0:0,0:0:0:0:
238,302,155029,2,0,B|138:319|138:319|153:294,1,130,2|2,0:0|0:0,0:0:0:0:
263,166,155695,6,0,P|264:102|227:49,1,130,0|2,0:0|0:0,0:0:0:0:
67,105,156362,2,0,P|65:168|102:221,1,130,2|2,0:0|0:0,0:0:0:0:
173,268,156862,1,0,1:0:0:0:
173,268,157029,6,0,L|245:255,1,65,2|0,0:0|0:0,0:0:0:0:
278,330,157362,2,0,L|214:341,1,65,2|0,0:0|0:0,0:0:0:0:
349,283,157695,2,0,P|381:285|411:297,1,65,2|0,0:0|0:0,0:0:0:0:
476,241,158029,2,0,P|490:270|496:302,1,65,2|0,0:0|0:0,0:0:0:0:
403,198,158362,6,0,L|415:68,2,130,2|2|2,0:0|0:0|0:0,0:0:0:0:
331,242,159195,1,0,0:0:0:0:
331,242,159362,2,0,P|299:244|269:256,1,65,2|0,0:0|0:0,0:0:0:0:
224,183,159695,6,0,P|170:193|95:152,1,130,4|2,0:0|0:0,0:0:0:0:
62,88,160195,1,2,0:0:0:0:
62,88,160362,2,0,L|53:23,1,65,2|2,0:0|0:0,0:0:0:0:
17,160,160695,2,0,L|8:224,1,65,2|2,0:0|0:0,0:0:0:0:
34,305,161029,5,8,0:0:0:0:
34,305,161195,1,10,0:0:0:0:
109,267,161362,2,0,P|117:298|113:330,1,65,8|10,0:0|0:0,0:0:0:0:
187,372,161695,2,0,P|213:353|244:344,1,65,8|2,0:0|0:0,0:0:0:0:
263,261,162029,2,0,P|292:274|315:296,1,65,8|2,0:0|0:0,0:0:0:0:
380,350,162362,6,0,B|484:334|484:334|446:307,1,130,6|10,0:0|0:0,0:0:0:0:
452,235,162862,2,0,P|442:171|471:114,1,130,2|0,0:0|0:0,0:0:0:0:
436,37,163362,2,0,L|349:46,1,65,10|0,0:0|0:0,0:0:0:0:
310,102,163695,5,2,0:0:0:0:
310,102,163862,1,0,0:0:0:0:
225,92,164029,2,0,L|147:84,1,65,8|2,0:0|0:0,0:0:0:0:
75,85,164362,2,0,L|81:116,5,32.5,2|0|2|0|8|0,0:0|0:0|0:0|0:0|0:0|0:0,0:0:0:0:
52,148,164862,6,0,P|114:162|112:231,1,130,6|0,0:0|0:0,0:0:0:0:
95,300,165362,2,0,P|83:330|83:362,1,65,8|2,0:0|0:0,0:0:0:0:
166,345,165695,2,0,L|238:336,2,65,2|2|8,0:0|0:0|0:0,0:0:0:0:
191,264,166195,6,0,L|335:246,1,130,0|2,0:0|0:0,0:0:0:0:
383,90,166862,2,0,L|511:106,1,130,2|2,0:0|0:0,0:0:0:0:
474,182,167362,1,8,0:0:0:0:
474,182,167529,6,0,B|453:217|453:217|449:264|481:318,1,130,0|0,0:0|0:0,0:0:0:0:
316,368,168195,2,0,B|337:333|337:333|341:286|309:232,1,130,2|2,0:0|0:0,0:0:0:0:
249,196,168695,1,8,0:0:0:0:
249,196,168862,6,0,P|189:174|123:181,1,130,2|2,0:0|0:0,0:0:0:0:
45,208,169362,2,0,L|35:132,1,65,8|0,0:0|0:0,0:0:0:0:
74,67,169695,2,0,L|80:35,5,32.5,0|0|0|8|8|0,0:0|0:0|0:0|0:0|0:0|0:0,0:0:0:0:
112,85,170195,6,0,L|128:213,1,130,4|0,0:0|0:0,0:0:0:0:
83,285,170695,1,8,0:0:0:0:
151,335,170862,2,0,L|144:375,2,32.5,0|0|0,0:0|0:0|0:0,0:0:0:0:
226,297,171195,2,0,L|220:264,2,32.5,0|0|8,0:0|0:0|0:0,0:0:0:0:
294,347,171529,1,0,0:0:0:0:
303,350,171612,1,0,0:0:0:0:
312,353,171695,6,0,L|398:341,1,65,0|0,0:0|0:0,0:0:0:0:
450,301,172029,1,8,0:0:0:0:
450,301,172195,2,0,B|472:258|472:258|455:163,1,130,0|0,0:0|0:0,0:0:0:0:
374,161,172695,2,0,L|379:114,3,32.5,8|0|0|0,0:0|0:0|0:0|0:0,0:0:0:0:
381,86,173029,6,0,P|413:85|444:76,2,65,4|2|8,0:0|0:0|0:0,0:0:0:0:
299,63,173529,2,0,L|289:-31,2,65,4|2|2,0:0|0:0|0:0,0:0:0:0:
281,145,174029,1,12,0:0:0:0:
264,227,174195,5,12,0:0:0:0:
256,192,174362,12,0,175529,0:0:0:0:
192,76,180862,6,0,B|155:98|155:98|108:106|70:82,1,130,4|2,0:0|0:0,0:0:0:0:
2,131,181362,2,0,P|-8:170|-3:203,1,65,8|0,0:0|0:0,0:0:0:0:
73,225,181695,2,0,P|83:264|78:297,1,65,2|2,0:0|0:0,0:0:0:0:
53,368,182029,2,0,L|143:360,1,65,8|0,0:0|0:0,0:0:0:0:
193,325,182362,6,0,L|330:338,1,130,2|8,0:0|0:0,0:0:0:0:
406,345,182862,1,0,0:0:0:0:
406,345,183029,2,0,B|432:318|432:318|449:270|433:220,1,130,2|8,0:0|0:0,0:0:0:0:
384,65,183695,6,0,P|429:62|467:47,2,65,12|0|8,0:0|0:0|0:0,0:0:0:0:
309,25,184195,1,10,0:0:0:0:
239,73,184362,2,0,L|248:148,1,65,2|10,0:0|0:0,0:0:0:0:
305,198,184695,2,0,L|296:273,1,65,8|0,0:0|0:0,0:0:0:0:
197,344,185029,6,0,L|213:215,1,130,2|8,0:0|0:0,0:0:0:0:
163,146,185529,2,0,L|158:107,2,32.5,0|0|8,0:0|0:0|0:0,0:0:0:0:
92,192,185862,2,0,P|43:184|19:163,1,65,10|0,0:0|0:0,0:0:0:0:
1,255,186195,6,0,P|61:276|125:268,1,130,4|2,0:0|0:0,0:0:0:0:
190,322,186695,2,0,P|250:301|314:309,2,130,8|2|8,0:0|0:0|0:0,0:0:0:0:
125,267,187529,1,0,0:0:0:0:
49,304,187695,6,0,P|45:271|51:240,1,65,2|2,0:0|0:0,0:0:0:0:
114,182,188029,1,8,0:0:0:0:
114,182,188195,2,0,B|130:129|130:129|119:33,1,130,8|0,0:0|0:0,0:0:0:0:
258,153,188862,6,0,B|242:206|242:206|253:302,1,130,4|2,0:0|0:0,0:0:0:0:
301,346,189362,2,0,P|330:332|362:327,1,65,8|0,0:0|0:0,0:0:0:0:
438,362,189695,1,2,0:0:0:0:
438,362,189862,1,0,0:0:0:0:
499,303,190029,2,0,L|491:228,1,65,8|0,0:0|0:0,0:0:0:0:
452,163,190362,6,0,P|388:171|330:141,1,130,2|8,0:0|0:0,0:0:0:0:
280,75,190862,2,0,L|287:-6,1,65,2|10,0:0|0:0,0:0:0:0:
364,40,191195,2,0,L|368:-8,2,32.5,2|0|8,0:0|0:0|0:0,0:0:0:0:
280,75,191529,6,0,B|226:84|226:84|136:72,1,130,4|2,0:0|0:0,0:0:0:0:
83,124,192029,2,0,P|67:62|100:7,2,130,8|2|8,0:0|0:0|0:0,0:0:0:0:
141,184,192862,1,0,0:0:0:0:
141,184,193029,6,0,P|156:246|154:311,1,130,2|8,0:0|0:0,0:0:0:0:
89,366,193529,1,0,0:0:0:0:
17,321,193695,2,0,P|1:258|3:193,1,130,2|8,0:0|0:0,0:0:0:0:
69,139,194195,1,0,0:0:0:0:
141,184,194362,6,0,B|195:193|195:193|286:178,2,130,2|8|2,0:0|0:0|0:0,0:0:0:0:
69,139,195195,1,2,0:0:0:0:
98,59,195362,2,0,L|181:71,1,65,8|0,0:0|0:0,0:0:0:0:
242,40,195695,6,0,P|275:32|309:14,1,65,2|0,0:0|0:0,0:0:0:0:
379,58,196029,2,0,L|371:131,1,65,8|2,0:0|0:0,0:0:0:0:
462,42,196362,2,0,L|455:107,1,65,2|0,0:0|0:0,0:0:0:0:
448,191,196695,2,0,L|452:236,3,32.5,8|0|0|0,0:0|0:0|0:0|0:0,0:0:0:0:
480,253,197029,6,0,P|420:232|355:233,1,130,4|8,0:0|0:0,0:0:0:0:
206,313,197695,2,0,L|215:381,2,65,2|2|10,0:0|0:0|0:0,0:0:0:0:
241,236,198195,1,2,0:0:0:0:
241,236,198362,6,0,P|263:164|246:104,1,130,2|8,0:0|0:0,0:0:0:0:
112,13,199029,2,0,L|43:22,2,65,2|2|8,0:0|0:0|0:0,0:0:0:0:
155,85,199529,1,2,0:0:0:0:
155,85,199695,6,0,L|17:103,1,130,2|8,0:0|0:0,0:0:0:0:
55,268,200362,2,0,P|61:299|58:331,1,65,0|2,0:0|0:0,0:0:0:0:
105,200,200695,2,0,P|126:223|140:253,1,65,8|0,0:0|0:0,0:0:0:0:
215,293,201029,6,0,P|277:307|335:281,1,130,2|8,0:0|0:0,0:0:0:0:
407,237,201529,1,2,0:0:0:0:
407,237,201695,2,0,L|482:247,1,65,6|2,0:0|0:0,0:0:0:0:
475,330,202029,2,0,L|410:321,1,65,8|0,0:0|0:0,0:0:0:0:
335,281,202362,6,0,B|320:237|320:237|337:142,1,130,6|8,0:0|0:0,0:0:0:0:
480,69,203029,2,0,P|449:79|417:77,1,65,2|2,0:0|0:0,0:0:0:0:
350,24,203362,2,0,P|319:13|287:15,1,65,8|2,0:0|0:0,0:0:0:0:
208,47,203695,6,0,L|223:190,1,130,2|8,0:0|0:0,0:0:0:0:
155,331,204362,2,0,P|161:300|160:267,1,65,2|2,0:0|0:0,0:0:0:0:
74,262,204695,2,0,P|68:293|69:326,1,65,8|0,0:0|0:0,0:0:0:0:
53,179,205029,6,0,P|25:196|4:220,2,65,6|0|10,0:0|0:0|0:0,0:0:0:0:
91,103,205529,2,0,P|59:96|26:97,2,65,2|2|2,0:0|0:0|0:0,0:0:0:0:
171,76,206029,2,0,P|153:48|129:27,2,65,10|2|2,0:0|0:0|0:0,0:0:0:0:
246,113,206529,6,0,P|252:81|251:48,2,65,2|10|2,0:0|0:0|0:0,0:0:0:0:
185,172,207029,2,0,P|178:203|179:236,1,65,2|0,0:0|0:0,0:0:0:0:
225,307,207362,2,0,L|263:298,3,32.5,8|0|0|0,0:0|0:0|0:0|0:0,0:0:0:0:
292,320,207695,6,0,P|324:323|354:336,1,65,4|2,0:0|0:0,0:0:0:0:
420,283,208029,2,0,P|433:312|438:344,1,65,2|10,0:0|0:0,0:0:0:0:
362,221,208362,2,0,P|366:188|379:159,1,65,0|2,0:0|0:0,0:0:0:0:
448,109,208695,2,0,L|512:115,1,65,10|10,0:0|0:0,0:0:0:0:
390,45,209029,5,10,0:0:0:0:
390,45,209195,1,10,0:0:0:0:
305,54,209362,2,0,L|240:60,1,65,10|2,0:0|0:0,0:0:0:0:
164,21,209695,2,0,P|156:52|159:84,1,65,10|10,0:0|0:0,0:0:0:0:
156,169,210029,2,0,P|133:191|103:204,1,65,10|10,0:0|0:0,0:0:0:0:
5,170,210362,5,4,0:0:0:0:
87,127,213195,6,0,L|44:120,3,32.5,2|2|8|8,0:0|0:0|0:0|0:0,0:0:0:0:
16,103,213529,6,0,B|60:173|46:227|46:227|18:258|21:288,1,195,4|8,0:0|0:0,0:0:0:0:
104,292,214195,2,0,P|133:279|165:275,1,65,2|0,0:0|0:0,0:0:0:0:
243,309,214529,2,0,L|235:389,1,65,2|8,0:0|0:0,0:0:0:0:
319,355,214862,6,0,B|334:213|334:213|360:277,1,195,2|8,0:0|0:0,0:0:0:0:
413,200,215529,2,0,B|392:152|392:152|356:125|296:120|268:158|258:182,1,195,0|8,0:0|0:0,0:0:0:0:
213,234,216195,6,0,P|121:253|57:185,1,195,4|8,0:0|0:0,0:0:0:0:
30,105,216862,2,0,L|38:36,1,65,2|2,0:0|0:0,0:0:0:0:
119,19,217195,2,0,L|111:83,1,65,2|10,0:0|0:0,0:0:0:0:
173,142,217529,6,0,B|204:159|237:151|237:151|276:105|355:106,1,195,2|8,0:0|0:0,0:0:0:0:
421,57,218195,2,0,P|456:62|495:89,1,65,2|10,0:0|0:0,0:0:0:0:
508,157,218529,2,0,L|503:198,2,32.5,2|0|10,0:0|0:0|0:0,0:0:0:0:
423,155,218862,6,0,L|404:310,1,130,4|2,0:0|0:0,0:0:0:0:
351,347,219362,2,0,P|330:323|320:293,1,65,8|0,0:0|0:0,0:0:0:0:
242,324,219695,2,0,P|235:292|242:260,1,65,2|0,0:0|0:0,0:0:0:0:
158,248,220029,2,0,P|168:217|189:193,1,65,8|0,0:0|0:0,0:0:0:0:
273,178,220362,6,0,P|336:186|393:157,1,130,2|8,0:0|0:0,0:0:0:0:
315,7,221029,2,0,P|251:-1|194:27,1,130,2|12,0:0|0:0,0:0:0:0:
119,178,221695,5,2,0:0:0:0:
119,178,221862,1,2,0:0:0:0:
46,134,222029,2,0,P|34:164|35:196,1,65,8|2,0:0|0:0,0:0:0:0:
65,275,222362,2,0,L|27:286,2,32.5,2|0|10,0:0|0:0|0:0,0:0:0:0:
147,295,222695,2,0,P|184:298|218:316,1,65,8|0,0:0|0:0,0:0:0:0:
280,356,223029,6,0,P|317:353|351:335,1,65,2|10,0:0|0:0,0:0:0:0:
376,264,223362,2,0,L|370:216,2,32.5,8|0|0,0:0|0:0|0:0,0:0:0:0:
293,243,223695,2,0,L|282:156,2,65,12|2|8,0:0|0:0|0:0,0:0:0:0:
210,222,224195,6,0,B|194:95|194:95|201:57|232:23,1,195,4|8,0:0|0:0,0:0:0:0:
304,11,224862,2,0,P|336:12|365:25,1,65,2|2,0:0|0:0,0:0:0:0:
415,94,225195,2,0,P|447:93|476:80,1,65,2|10,0:0|0:0,0:0:0:0:
366,163,225528,6,0,B|319:148|319:148|241:168|241:168|170:147,1,195,6|8,0:0|0:0,0:0:0:0:
127,82,226195,2,0,P|93:23|46:102,1,195,0|8,0:0|0:0,0:0:0:0:
75,177,226862,6,0,B|99:248|61:283|61:283|29:323|60:375,1,195,4|8,0:0|0:0,0:0:0:0:
135,371,227528,2,0,P|164:359|196:354,1,65,2|0,0:0|0:0,0:0:0:0:
253,291,227862,2,0,P|282:303|314:308,1,65,2|10,0:0|0:0,0:0:0:0:
382,358,228195,6,0,B|504:324|504:324|459:315|431:276,1,195,6|8,0:0|0:0,0:0:0:0:
400,218,228862,2,0,P|411:123|499:98,1,195,0|8,0:0|0:0,0:0:0:0:
473,178,229528,6,0,B|415:175|381:148|381:148|351:188|274:208,1,195,4|8,0:0|0:0,0:0:0:0:
234,147,230195,1,0,0:0:0:0:
234,147,230362,2,0,L|242:69,1,65,2|0,0:0|0:0,0:0:0:0:
160,54,230695,2,0,L|153:118,1,65,8|0,0:0|0:0,0:0:0:0:
122,197,231028,6,0,P|60:210|2:182,1,130,2|8,0:0|0:0,0:0:0:0:
53,344,231695,2,0,P|110:316|173:329,1,130,2|8,0:0|0:0,0:0:0:0:
250,364,232195,1,2,0:0:0:0:
299,295,232362,6,0,L|292:230,2,65,12|2|2,0:0|0:0|0:0,0:0:0:0:
346,362,232862,1,10,0:0:0:0:
408,305,233028,2,0,P|437:317|470:318,1,65,2|2,0:0|0:0,0:0:0:0:
455,234,233362,2,0,P|480:214|498:186,1,65,10|2,0:0|0:0,0:0:0:0:
427,93,233695,6,0,L|418:158,1,65,2|8,0:0|0:0,0:0:0:0:
346,203,234028,2,0,L|350:235,2,32.5,8|0|8,0:0|0:0|0:0,0:0:0:0:
292,136,234362,1,8,0:0:0:0:
209,121,234528,1,10,0:0:0:0:
132,158,234695,2,0,P|107:198|99:223,1,65,8|4,0:0|0:0,0:0:0:0:
256,192,235028,12,2,237528,0:0:0:0:
