osu file format v14

[General]
AudioFilename: love sosa cat.mp3
AudioLeadIn: 0
PreviewTime: 63798
Countdown: 0
SampleSet: Soft
StackLeniency: 0.3
Mode: 0
LetterboxInBreaks: 0
WidescreenStoryboard: 1

[Editor]
Bookmarks: 105584
DistanceSpacing: 0.9
BeatDivisor: 4
GridSize: 32
TimelineZoom: 2.4

[Metadata]
Title:Love's Oracle
TitleUnicode:Love's Oracle
Artist:Sasaki Sayaka
ArtistUnicode:佐咲紗花
Creator:door weapon
Version:Normal
Source:保健室のセンセーとシャボン玉中毒の助手
Tags:xiced japanese pop jpop opening eroge vn visual novel video game short version Hokenshitsu no Sensei to Shabondama Chuudoku no Joshu citrus loves
BeatmapID:2694886
BeatmapSetID:1279822

[Difficulty]
HPDrainRate:3
CircleSize:3.2
OverallDifficulty:4
ApproachRate:5
SliderMultiplier:1.2
SliderTickRate:1

[Events]
//Background and Video events
0,0,"bg.png",0,0
//Break Periods
2,53134,57648
//Storyboard Layer 0 (Background)
//Storyboard Layer 1 (Fail)
//Storyboard Layer 2 (Pass)
//Storyboard Layer 3 (Foreground)
//Storyboard Layer 4 (Overlay)
//Storyboard Sound Samples

[TimingPoints]
277,357.142857142857,4,2,2,40,1,0
277,-111.111111111111,4,2,2,40,0,0
366,-111.111111111111,4,2,1,40,0,0
5991,-100,4,2,1,50,0,0
8848,-100,4,2,1,65,0,0
13134,-100,4,2,1,50,0,0
22955,-100,4,2,1,60,0,0
35991,-100,4,2,1,55,0,0
41705,-100,4,2,1,60,0,0
43134,-100,4,2,1,65,0,0
53134,-100,4,2,1,45,0,0
58848,-100,4,2,1,65,0,0
62955,-100,4,2,1,70,0,0
64562,-90.9090909090909,4,2,1,75,0,1
89026,-100,4,2,1,35,0,0
91169,-90.9090909090909,4,2,1,60,0,0
91705,-100,4,2,1,65,0,0
105276,-100,4,2,1,35,0,0

[Colours]
Combo1 : 249,145,233
Combo2 : 163,163,163
Combo3 : 170,13,238

[HitObjects]
312,102,277,6,0,P|362:29|432:44,2,161.999995056153,6|2|2,0:0|0:0|0:0,0:0:0:0:
104,307,2419,1,2,0:1:0:0:
292,258,3134,2,0,B|339:237|380:268|380:268|387:318|435:331,2,161.999995056153,2|2|2,0:0|0:0|0:0,0:0:0:0:
47,99,5276,1,2,3:1:0:0:
247,17,5991,6,0,P|338:3|402:67,1,180,6|2,1:2|0:0,0:0:0:0:
365,161,6884,2,0,L|374:230,1,60,8|4,3:0|3:0,0:0:0:0:
381,273,7241,2,0,P|322:256|263:243,1,120,6|8,1:2|3:0,0:0:0:0:
166,199,7955,2,0,P|107:216|48:229,1,120,6|0,1:2|1:2,0:0:0:0:
1,203,8491,1,10,0:0:0:0:
60,112,8848,6,0,P|64:57|10:17,2,120,6|8|2,1:2|0:0|1:2,0:0:0:0:
165,86,9919,1,10,0:0:0:0:
165,86,10098,2,0,P|216:106|283:121,1,120,6|8,1:2|3:0,0:0:0:0:
328,97,10634,1,4,3:0:0:0:
416,158,10991,2,0,L|405:221,1,60,8|8,3:0|3:0,0:0:0:0:
377,263,11348,2,0,L|388:326,1,60,8|4,3:0|3:0,0:0:0:0:
418,366,11705,1,6,1:2:0:0:
488,78,13134,6,0,P|445:38|373:52,1,120,6|2,1:2|1:2,0:0:0:0:
349,80,13669,1,2,0:0:0:0:
249,37,14026,1,2,0:0:0:0:
152,86,14384,2,0,P|167:148|174:208,1,120,2|2,0:0|0:0,0:0:0:0:
150,252,14919,1,2,1:2:0:0:
217,336,15276,1,0,1:2:0:0:
310,280,15634,1,10,0:0:0:0:
407,325,15991,6,0,P|430:263|411:209,1,120,2|2,1:2|1:2,0:0:0:0:
389,170,16526,1,2,0:0:0:0:
460,88,16884,1,2,0:0:0:0:
378,16,17241,2,0,P|318:24|260:38,1,120,2|2,0:0|0:0,0:0:0:0:
230,82,17776,1,2,1:2:0:0:
128,44,18134,1,0,1:2:0:0:
57,125,18491,2,0,L|72:195,1,60,10|2,0:0|0:0,0:0:0:0:
61,237,18848,6,0,P|74:210|155:195,1,120,2|2,1:2|1:2,0:0:0:0:
200,224,19384,2,0,P|210:164|222:106,1,120,2|0,0:0|0:0,0:0:0:0:
325,67,20098,1,2,0:0:0:0:
325,67,20276,2,0,L|316:1,2,60,2|0|2,1:2|0:0|1:2,0:0:0:0:
363,105,20812,2,0,P|350:161|339:222,1,120,2|0,0:0|0:0,0:0:0:0:
302,326,21526,1,2,0:0:0:0:
302,326,21705,5,6,1:2:0:0:
202,283,22062,2,0,L|211:220,1,60,10|10,0:0|0:0,0:0:0:0:
225,171,22419,2,0,L|218:108,1,60,10|8,0:0|0:0,0:0:0:0:
196,67,22776,1,8,0:0:0:0:
196,67,22955,2,0,P|240:79|292:30,1,120,6|4,1:2|3:0,0:0:0:0:
385,85,23669,2,0,P|416:40|497:50,1,120,6|8,1:2|0:0,0:0:0:0:
512,78,24205,1,2,1:2:0:0:
457,171,24562,6,0,P|466:233|473:298,1,120,6|10,1:2|0:0,0:0:0:0:
444,336,25098,1,2,0:0:0:0:
338,314,25455,1,2,1:2:0:0:
237,354,25812,2,0,P|185:369|134:326,1,120,2|2,1:2|1:2,0:0:0:0:
97,294,26348,1,10,0:0:0:0:
151,200,26705,2,0,L|174:77,1,120,2|10,1:2|0:0,0:0:0:0:
147,40,27241,1,2,0:0:0:0:
147,40,27419,6,0,L|84:27,2,60,2|2|10,1:2|0:0|0:0,0:0:0:0:
191,9,27955,1,2,0:0:0:0:
290,51,28312,1,2,1:2:0:0:
392,16,28669,2,0,P|449:19|499:63,1,120,2|2,1:2|1:2,0:0:0:0:
503,111,29205,1,10,0:0:0:0:
424,185,29562,1,2,1:2:0:0:
481,271,29919,2,0,L|469:353,1,60,10|2,0:0|0:0,0:0:0:0:
429,363,30276,6,0,P|377:321|321:327,1,120,6|8,1:2|0:0,0:0:0:0:
286,360,30812,2,0,P|229:375|177:349,1,120,2|0,1:2|1:2,0:0:0:0:
112,269,31526,1,2,0:0:0:0:
112,269,31705,2,0,P|107:233|100:201,1,60,6|8,1:2|3:0,0:0:0:0:
129,165,32062,1,4,3:0:0:0:
129,165,32241,2,0,B|236:161|201:234|304:214,1,180,6|10,1:2|0:0,0:0:0:0:
402,230,33134,6,0,P|391:288|381:349,2,120,6|8|2,1:2|0:0|1:2,0:0:0:0:
466,144,34205,1,10,0:0:0:0:
466,144,34384,2,0,P|425:144|374:77,1,120,6|0,1:2|1:2,0:0:0:0:
351,40,34919,1,10,0:0:0:0:
255,90,35276,2,0,P|210:52|145:53,1,120,2|10,1:2|0:0,0:0:0:0:
71,123,35991,6,0,P|55:181|45:240,1,120,6|2,1:2|1:2,0:0:0:0:
79,281,36526,2,0,P|113:253|191:259,1,120,10|0,0:0|0:0,0:0:0:0:
219,299,37062,1,2,1:2:0:0:
306,235,37419,1,2,1:2:0:0:
306,235,37598,2,0,L|426:262,1,120,10|2,0:0|0:0,0:0:0:0:
468,231,38134,2,0,L|487:166,1,60,2|8,1:2|0:0,0:0:0:0:
470,121,38491,1,0,1:2:0:0:
363,135,38848,6,0,P|304:139|262:98,1,120,2|2,1:2|1:2,0:0:0:0:
222,62,39384,2,0,P|163:49|100:39,1,120,8|0,0:0|0:0,0:0:0:0:
59,69,39919,1,2,1:2:0:0:
84,178,40276,1,2,1:2:0:0:
84,178,40455,2,0,B|136:208|136:208|103:336,1,180,10|2,0:0|1:2,0:0:0:0:
77,370,41169,1,10,0:0:0:0:
77,370,41348,1,2,1:2:0:0:
184,377,41705,6,0,P|230:342|286:358,1,120,6|2,1:2|1:2,0:0:0:0:
336,378,42241,2,0,L|458:362,1,120,10|0,0:0|0:0,0:0:0:0:
497,328,42776,1,2,1:2:0:0:
429,250,43134,1,2,1:2:0:0:
429,250,43312,2,0,P|411:159|474:105,1,180,10|2,0:0|1:2,0:0:0:0:
512,72,44026,1,8,0:0:0:0:
512,72,44205,1,2,1:2:0:0:
418,17,44562,6,0,L|289:-3,1,120,2|2,1:2|1:2,0:0:0:0:
253,22,45098,1,10,0:0:0:0:
253,22,45276,1,2,0:0:0:0:
165,83,45634,1,8,0:0:0:0:
165,83,45812,2,0,P|142:145|157:209,1,120,14|8,0:0|3:0,0:0:0:0:
186,237,46348,1,8,3:0:0:0:
122,322,46705,1,10,0:0:0:0:
122,322,46884,1,10,0:0:0:0:
283,326,47419,6,0,P|342:339|406:356,1,120,6|8,1:2|0:0,0:0:0:0:
443,323,47955,2,0,P|480:306|476:231,1,120,2|0,0:0|1:2,0:0:0:0:
440,197,48491,1,10,0:0:0:0:
337,232,48848,2,0,L|322:297,2,60,2|0|10,1:2|1:2|0:0,0:0:0:0:
229,237,49562,2,0,L|100:217,1,120,2|8,1:2|0:0,0:0:0:0:
46,131,50276,6,0,P|36:70|84:28,1,120,2|8,1:2|0:0,0:0:0:0:
127,32,50812,2,0,P|181:25|251:24,1,120,2|0,0:0|1:2,0:0:0:0:
296,53,51348,1,10,0:0:0:0:
267,157,51705,2,0,P|259:186|255:215,2,60,2|0|10,1:2|1:2|0:0,0:0:0:0:
369,192,52419,1,2,1:2:0:0:
465,144,52776,1,14,0:0:0:0:
295,68,58848,6,0,P|254:32|179:48,1,120,6|2,1:2|1:2,0:0:0:0:
104,100,59562,2,0,L|111:169,1,60,10|8,0:0|0:0,0:0:0:0:
137,206,59919,2,0,L|131:274,1,60,8|8,0:0|0:0,0:0:0:0:
106,313,60276,1,10,0:0:0:0:
204,358,60634,1,8,0:0:0:0:
276,278,60991,2,0,P|300:262|334:260,1,60,10|8,0:0|0:0,0:0:0:0:
376,288,61348,2,0,P|400:304|430:306,1,60,8|8,0:0|0:0,0:0:0:0:
476,278,61705,6,0,P|481:193|496:90,1,180,10|10,0:0|0:0,0:0:0:0:
348,163,62776,1,10,0:0:0:0:
348,163,62955,2,0,P|274:156|249:108,1,120,6|10,1:2|0:0,0:0:0:0:
234,70,63491,1,10,0:0:0:0:
74,215,64205,1,12,3:0:0:0:
127,320,64562,6,0,P|174:277|251:288,1,132.00000402832,6|10,1:2|0:0,0:0:0:0:
279,325,65098,1,2,0:0:0:0:
390,283,65455,1,2,1:2:0:0:
303,201,65812,2,0,B|284:81|370:133|326:-10,1,198.000006042481,6|10,1:2|0:1,0:0:0:0:
219,37,66705,2,0,L|137:16,2,66.0000020141602,2|2|10,1:0|1:2|0:0,0:0:0:0:
166,143,67419,6,0,B|104:150|104:150|98:155|98:155|36:162,1,132.00000402832,6|10,1:2|0:0,0:0:0:0:
8,215,67955,2,0,B|-22:255|-22:255|5:331,1,132.00000402832,6|2,1:2|1:2,0:0:0:0:
55,364,68491,2,0,P|103:293|206:307,1,198.000006042481,10|0,0:1|1:2,0:0:0:0:
247,346,69205,1,10,0:0:0:0:
304,242,69562,2,0,L|380:260,1,66.0000020141602,2|2,1:2|1:2,0:0:0:0:
406,302,69919,2,0,L|472:293,1,66.0000020141602,10|2,0:0|3:2,0:0:0:0:
500,241,70276,6,0,P|504:165|451:114,1,132.00000402832,6|10,1:2|0:0,0:0:0:0:
352,115,70991,2,0,L|367:38,1,66.0000020141602,2|0,1:2|1:2,0:0:0:0:
324,6,71348,1,10,0:0:0:0:
220,60,71705,1,2,1:2:0:0:
112,9,72062,1,10,0:0:0:0:
23,88,72419,2,0,L|10:152,2,66.0000020141602,2|0|10,1:2|1:2|0:0,0:0:0:0:
113,165,73134,5,2,1:2:0:0:
102,283,73491,2,0,P|38:290|0:342,2,132.00000402832,10|2|10,0:1|1:0|0:1,0:0:0:0:
205,341,74562,1,6,1:2:0:0:
205,341,74741,2,0,P|237:336|267:317,1,66.0000020141602,2|10,0:0|0:0,0:0:0:0:
294,267,75098,2,0,L|316:123,1,132.00000402832,6|8,1:2|0:0,0:0:0:0:
290,81,75634,1,8,0:0:0:0:
190,145,75991,6,0,P|119:136|98:63,1,132.00000402832,6|10,1:2|0:0,0:0:0:0:
91,27,76526,1,2,0:0:0:0:
209,17,76884,1,2,1:2:0:0:
304,88,77241,2,0,P|371:107|436:123,1,132.00000402832,2|0,1:2|1:2,0:0:0:0:
482,151,77776,2,0,P|498:183|492:214,1,66.0000020141602,8|8,0:0|0:0,0:0:0:0:
449,252,78134,1,0,1:2:0:0:
366,337,78491,2,0,P|321:317|296:312,1,66.0000020141602,10|2,0:0|0:0,0:0:0:0:
253,282,78848,6,0,P|184:300|126:319,1,132.00000402832,14|2,0:0|1:2,0:0:0:0:
77,284,79384,2,0,P|61:216|97:157,1,132.00000402832,14|0,0:0|1:2,0:0:0:0:
147,153,79919,2,0,B|256:169|211:74|349:100,1,198.000006042481,14|2,0:0|1:2,0:0:0:0:
379,127,80634,1,10,0:0:0:0:
358,243,80991,2,0,L|370:319,2,66.0000020141602,2|2|10,1:2|1:2|0:0,0:0:0:0:
468,199,81705,6,0,L|480:134,1,66.0000020141602,6|2,1:2|0:0,0:0:0:0:
454,86,82062,1,10,0:0:0:0:
454,86,82241,2,0,P|412:117|337:92,1,132.00000402832,2|2,0:0|1:2,0:0:0:0:
233,147,82955,2,0,P|191:93|65:78,1,198.000006042481,2|10,1:2|0:0,0:0:0:0:
2,175,83848,1,2,1:2:0:0:
62,277,84205,1,10,0:0:0:0:
157,206,84562,6,0,P|151:145|139:71,1,132.00000402832,6|10,1:2|0:0,0:0:0:0:
257,62,85276,2,0,P|264:29|276:0,2,66.0000020141602,6|0|10,1:2|1:2|0:0,0:0:0:0:
350,135,85991,2,0,P|397:132|435:51,2,132.00000402832,6|10|6,1:2|0:0|1:2,0:0:0:0:
257,62,87062,1,8,0:0:0:0:
152,118,87419,6,0,P|113:99|74:94,2,66.0000020141602,14|0|2,0:0|1:2|1:2,0:0:0:0:
173,173,87955,2,0,P|153:233|137:302,1,132.00000402832,14|8,0:0|3:0,0:0:0:0:
116,357,88491,1,4,3:0:0:0:
116,357,88669,1,14,0:0:0:0:
445,183,91169,2,0,L|456:249,1,66.0000020141602,0|12,1:2|3:0,0:0:0:0:
399,340,91705,6,0,P|360:301|290:318,1,120,6|10,1:2|0:0,0:0:0:0:
251,332,92241,2,0,P|193:314|134:303,1,120,2|2,0:0|1:2,0:0:0:0:
100,261,92776,2,0,P|88:203|140:156,1,120,10|0,0:0|0:0,0:0:0:0:
226,197,93491,1,8,0:0:0:0:
322,147,93848,2,0,L|334:82,2,60,2|0|8,1:2|1:2|0:0,0:0:0:0:
399,229,94562,5,2,1:2:0:0:
399,229,94741,2,0,L|408:296,1,60,2|10,0:0|0:0,0:0:0:0:
429,337,95098,1,2,0:0:0:0:
323,358,95455,2,0,P|291:341|259:341,1,60,2|10,1:2|0:0,0:0:0:0:
215,355,95812,2,0,P|155:355|107:321,1,120,2|2,1:2|1:2,0:0:0:0:
79,274,96348,1,10,0:0:0:0:
123,175,96705,1,2,1:1:0:0:
56,89,97062,1,10,0:0:0:0:
142,22,97419,6,0,P|198:41|257:53,1,120,6|10,1:2|0:0,0:0:0:0:
345,116,98134,1,0,1:2:0:0:
345,116,98312,2,0,L|329:192,1,60,2|10,1:2|0:0,0:0:0:0:
343,227,98669,2,0,P|294:184|230:189,1,120,6|0,1:2|1:2,0:0:0:0:
183,275,99384,2,0,P|127:279|53:297,1,120,6|0,1:2|1:2,0:0:0:0:
22,326,99919,1,10,0:0:0:0:
25,218,100276,6,0,P|32:161|42:85,2,120,6|8|0,1:2|0:0|1:2,0:0:0:0:
122,171,101348,2,0,P|137:139|139:101,1,60,10|10,0:0|0:0,0:0:0:0:
136,60,101705,2,0,P|173:109|239:109,1,120,6|10,1:2|0:0,0:0:0:0:
272,82,102241,1,6,1:2:0:0:
377,123,102598,1,2,1:2:0:0:
377,123,102776,2,0,L|364:203,1,60,10|10,0:0|0:0,0:0:0:0:
268,221,103312,5,14,0:0:0:0:
268,221,103491,2,0,L|279:342,1,120,2|14,1:2|0:0,0:0:0:0:
315,379,104026,1,10,0:0:0:0:
408,324,104384,1,14,0:0:0:0:
400,220,104741,1,10,0:0:0:0:
400,220,104919,1,14,0:0:0:0:
