osu file format v14

[General]
AudioFilename: love sosa cat.mp3
AudioLeadIn: 0
PreviewTime: 63798
Countdown: 0
SampleSet: Soft
StackLeniency: 0.3
Mode: 0
LetterboxInBreaks: 0
WidescreenStoryboard: 0

[Editor]
Bookmarks: 105584
DistanceSpacing: 1
BeatDivisor: 4
GridSize: 32
TimelineZoom: 2.4

[Metadata]
Title:Love's Oracle
TitleUnicode:Love's Oracle
Artist:Sasaki Sayaka
ArtistUnicode:佐咲紗花
Creator:door weapon
Version:Affection
Source:保健室のセンセーとシャボン玉中毒の助手
Tags:xiced japanese pop jpop opening eroge vn visual novel video game short version Hokenshitsu no Sensei to Shabondama Chuudoku no Joshu citrus loves
BeatmapID:2658596
BeatmapSetID:1279822

[Difficulty]
HPDrainRate:6
CircleSize:4.2
OverallDifficulty:8.9
ApproachRate:9.2
SliderMultiplier:1.8
SliderTickRate:1

[Events]
//Background and Video events
0,0,"bg.png",0,0
//Break Periods
2,89226,90599
//Storyboard Layer 0 (Background)
//Storyboard Layer 1 (Fail)
//Storyboard Layer 2 (Pass)
//Storyboard Layer 3 (Foreground)
//Storyboard Layer 4 (Overlay)
//Storyboard Sound Samples

[TimingPoints]
277,357.142857142857,4,2,2,40,1,0
277,-166.666666666667,4,2,2,40,0,0
455,-166.666666666667,4,2,1,40,0,0
5991,-166.666666666667,4,2,1,50,0,0
7241,-111.111111111111,4,2,1,50,0,0
8491,-250.000000000001,4,2,1,50,0,0
8848,-100,4,2,1,65,0,0
11705,-125,4,2,1,65,0,0
13134,-125,4,2,1,50,0,0
22955,-83.3333333333333,4,2,1,60,0,0
24205,-166.666666666667,4,2,1,60,0,0
24562,-100,4,2,1,60,0,0
27062,-83.3333333333333,4,2,1,60,0,0
27330,-83.3333333333333,4,2,1,5,0,0
27419,-100,4,2,1,60,0,0
32241,-83.3333333333333,4,2,1,60,0,0
33134,-100,4,2,1,60,0,0
35276,-125,4,2,1,60,0,0
35544,-125,4,2,1,5,0,0
35634,-71.4285714285714,4,2,1,60,0,0
35901,-71.4285714285714,4,2,1,5,0,0
35991,-125,4,2,1,55,0,0
41705,-100,4,2,1,60,0,0
43044,-100,4,2,1,5,0,0
43134,-125,4,2,1,65,0,0
45812,-66.6666666666667,4,2,1,65,0,0
47419,-100,4,2,1,65,0,0
51348,-83.3333333333333,4,2,1,65,0,0
51616,-83.3333333333333,4,2,1,5,0,0
51705,-100,4,2,1,65,0,0
52776,-71.4285714285714,4,2,1,65,0,0
53134,-200,4,2,1,45,0,0
58848,-100,4,2,1,65,0,0
62955,-66.6666666666667,4,2,1,70,0,0
63223,-66.6666666666667,4,2,1,5,0,0
63312,-66.6666666666667,4,2,1,70,0,0
64205,-333.333333333333,4,2,1,70,0,0
64473,-333.333333333333,4,2,1,5,0,0
64562,-83.3333333333333,4,2,1,75,0,1
68223,-83.3333333333333,4,2,1,5,0,1
68312,-83.3333333333333,4,2,1,75,0,1
68491,-62.5,4,2,1,75,0,1
70276,-83.3333333333333,4,2,1,75,0,1
70544,-83.3333333333333,4,2,1,5,0,1
70634,-83.3333333333333,4,2,1,75,0,1
71616,-83.3333333333333,4,2,1,5,0,1
71705,-83.3333333333333,4,2,1,75,0,1
75098,-62.5,4,2,1,75,0,1
75366,-62.5,4,2,1,5,0,1
75455,-62.5,4,2,1,75,0,1
75991,-83.3333333333333,4,2,1,75,0,1
79116,-83.3333333333333,4,2,1,5,0,1
79205,-83.3333333333333,4,2,1,75,0,1
79384,-71.4285714285714,4,2,1,75,0,1
79651,-71.4285714285714,4,2,1,5,0,1
79741,-71.4285714285714,4,2,1,75,0,1
79919,-62.5,4,2,1,75,0,1
80634,-83.3333333333333,4,2,1,75,0,1
81705,-83.3333333333333,4,2,1,75,0,1
88669,-55.5555555555556,4,2,1,75,0,1
89026,-55.5555555555556,4,2,1,35,0,0
91169,-100,4,2,1,60,0,0
91348,-250,4,2,1,60,0,0
91616,-250,4,2,1,5,0,0
91705,-100,4,2,1,65,0,0
94473,-100,4,2,1,5,0,0
94562,-100,4,2,1,65,0,0
99384,-83.3333333333333,4,2,1,65,0,0
100276,-100,4,2,1,65,0,0
101973,-100,4,2,1,5,0,0
102062,-100,4,2,1,65,0,0
102509,-100,4,2,1,5,0,0
102598,-100,4,2,1,65,0,0
105276,-100,4,2,1,35,0,0

[Colours]
Combo1 : 249,145,233
Combo2 : 163,163,163
Combo3 : 170,13,238

[HitObjects]
21,343,277,5,6,0:0:0:0:
64,281,455,1,0,0:0:0:0:
139,287,634,1,0,0:0:0:0:
283,363,812,2,0,P|276:309|266:257,1,107.999996704102,2|0,0:0|0:0,0:0:0:0:
391,325,1348,1,2,0:0:0:0:
465,114,2419,6,0,P|443:43|310:45,1,215.999993408203,2|2,0:1|0:0,0:0:0:0:
262,87,3312,1,0,0:0:0:0:
197,47,3491,1,2,0:0:0:0:
36,155,3669,2,0,P|75:117|128:114,1,107.999996704102,2|0,0:0|0:0,0:0:0:0:
36,155,4205,1,2,0:0:0:0:
148,335,4741,5,0,3:2:0:0:
148,335,4919,1,0,3:2:0:0:
148,335,5098,2,0,L|152:369,2,26.9999991760254,2|0|2,3:2|3:2|3:1,0:0:0:0:
244,264,5634,5,2,0:0:0:0:
269,220,5753,1,2,0:0:0:0:
318,208,5872,1,2,0:0:0:0:
327,219,5991,5,6,1:2:0:0:
383,268,6169,1,2,0:0:0:0:
456,251,6348,1,2,0:0:0:0:
499,189,6526,1,2,0:0:0:0:
499,189,6884,5,8,3:0:0:0:
360,125,7062,1,4,3:0:0:0:
266,221,7241,2,0,P|186:203|180:127,1,161.999995056153,6|8,1:2|3:0,0:0:0:0:
188,121,7687,1,8,3:0:0:0:
201,118,7776,1,8,3:0:0:0:
388,355,7955,6,0,B|394:321|369:297|369:297|333:342|280:342,1,161.999995056153,6|0,1:2|1:2,0:0:0:0:
131,270,8491,2,0,P|106:272|81:280,1,36,10|0,0:0|0:0,0:0:0:0:
328,125,8848,6,0,B|431:109|396:203|501:200,1,180,6|8,1:2|0:0,0:0:0:0:
254,319,9384,1,0,3:2:0:0:
254,319,9473,1,0,3:2:0:0:
254,319,9562,1,2,1:2:0:0:
327,232,9741,1,0,1:2:0:0:
468,308,9919,1,10,0:0:0:0:
332,71,10098,6,0,B|277:50|277:50|229:62|201:98|230:148,1,180,6|8,1:2|3:0,0:0:0:0:
319,263,10634,1,4,3:0:0:0:
438,220,10812,1,4,3:0:0:0:
230,352,10991,5,8,3:0:0:0:
142,224,11169,1,8,3:0:0:0:
289,190,11348,5,8,3:0:0:0:
412,8,11526,1,4,3:0:0:0:
394,178,11705,6,0,P|281:61|4:69,1,432,6|2,1:2|0:0,0:0:0:0:
25,58,13134,6,0,P|59:56|84:27,1,72,6|0,1:2|0:0,0:0:0:0:
181,144,13491,1,2,1:2:0:0:
181,144,13669,2,0,P|155:118|113:117,1,72,2|0,0:0|1:2,0:0:0:0:
36,193,14026,2,0,P|22:229|15:264,1,72,2|0,0:0|1:2,0:0:0:0:
218,313,14384,6,0,P|151:301|148:231,1,144,2|2,0:0|0:0,0:0:0:0:
318,235,14919,2,0,L|387:254,1,72,2|0,1:2|0:0,0:0:0:0:
318,235,15276,1,0,1:2:0:0:
489,361,15634,1,10,0:0:0:0:
426,103,15991,6,0,P|435:68|447:34,1,72,2|0,1:2|0:0,0:0:0:0:
290,119,16348,1,2,1:2:0:0:
290,119,16526,2,0,P|255:117|233:89,1,72,2|0,0:0|1:2,0:0:0:0:
342,34,16884,2,0,P|319:5|285:4,1,72,2|0,0:0|1:2,0:0:0:0:
9,72,17241,6,0,P|34:18|118:8,1,144,2|2,0:0|0:0,0:0:0:0:
111,5,17776,2,0,L|180:23,1,72,2|0,1:2|0:0,0:0:0:0:
232,89,18134,1,0,1:2:0:0:
85,277,18491,1,10,0:0:0:0:
85,277,18669,1,2,0:0:0:0:
168,266,18848,6,0,P|135:203|63:198,1,144,2|2,1:2|1:2,0:0:0:0:
240,338,19384,1,2,0:0:0:0:
240,338,19562,2,0,P|299:299|370:293,1,144,0|0,1:2|1:2,0:0:0:0:
407,364,20098,1,2,0:0:0:0:
407,364,20276,6,0,P|435:348|447:309,1,72,2|0,1:2|0:0,0:0:0:0:
374,182,20634,1,2,1:2:0:0:
240,338,20812,2,0,P|299:299|370:293,1,144,2|0,0:0|0:0,0:0:0:0:
407,364,21348,1,10,0:0:0:0:
287,149,21705,6,0,P|295:110|303:76,1,72,6|0,1:2|0:0,0:0:0:0:
501,183,22062,1,10,0:0:0:0:
430,110,22241,1,10,0:0:0:0:
318,229,22419,5,10,0:0:0:0:
163,243,22598,1,8,0:0:0:0:
241,357,22776,1,8,0:0:0:0:
302,78,22955,6,0,B|270:25|220:0|164:13|164:13|199:21|212:55,1,215.999993408203,6|4,1:2|3:0,0:0:0:0:
121,152,23491,1,8,0:0:0:0:
424,102,23669,6,0,B|417:43|487:21|487:21|528:88|486:131,1,215.999993408203,6|8,1:2|0:0,0:0:0:0:
447,193,24116,1,8,0:0:0:0:
447,193,24205,2,0,L|456:251,1,53.9999983520508,2|0,1:2|0:0,0:0:0:0:
230,109,24562,6,0,P|225:65|247:27,1,90,6|2,1:2|0:0,0:0:0:0:
345,194,24919,1,10,0:0:0:0:
220,290,25098,2,0,P|168:273|125:262,1,90,2|0,0:0|1:2,0:0:0:0:
313,102,25455,1,2,1:2:0:0:
226,203,25634,1,8,0:0:0:0:
347,352,25812,6,0,P|394:280|478:293,1,180,2|2,1:2|1:2,0:0:0:0:
322,202,26348,1,10,0:0:0:0:
322,202,26437,1,0,1:2:0:0:
376,120,26616,1,8,0:0:0:0:
376,120,26705,1,2,1:2:0:0:
443,185,26884,1,0,1:2:0:0:
283,63,27062,2,0,B|217:49|217:49|196:23|196:23|134:9,1,161.999995056153,10|0,0:0|0:0,0:0:0:0:
54,50,27419,6,0,L|68:147,1,90,2|2,1:2|0:0,0:0:0:0:
204,267,27776,1,10,0:0:0:0:
23,280,27955,2,0,P|48:243|90:231,1,90,2|0,0:0|1:2,0:0:0:0:
195,358,28312,2,0,P|151:346|127:309,1,90,2|8,1:2|0:0,3:0:0:0:
299,210,28669,6,0,B|401:214|367:289|472:288,1,180,2|2,1:2|1:2,0:0:0:0:
490,96,29205,1,10,0:0:0:0:
490,96,29294,1,0,1:2:0:0:
398,99,29473,1,8,0:0:0:0:
398,99,29562,1,2,1:2:0:0:
348,17,29741,1,0,1:2:0:0:
297,183,29919,5,10,0:0:0:0:
203,130,30098,1,2,0:0:0:0:
119,273,30276,6,0,P|44:276|49:186,1,180,6|8,1:2|0:0,0:0:0:0:
252,276,30812,2,0,B|319:293|319:293|342:322|342:322|416:340,1,180,2|0,1:2|1:2,0:0:0:0:
197,363,31348,1,10,0:0:0:0:
252,276,31526,1,2,0:0:0:0:
167,106,31705,5,6,1:2:0:0:
248,141,31884,1,8,3:0:0:0:
284,56,32062,1,4,3:0:0:0:
74,270,32241,6,0,B|104:221|74:170|74:170|39:123|75:67,1,215.999993408203,6|0,1:2|1:2,0:0:0:0:
318,175,32776,1,10,0:0:0:0:
187,214,32955,1,10,0:0:0:0:
291,36,33134,5,6,1:2:0:0:
291,36,33491,1,8,0:0:0:0:
418,94,33669,2,0,L|409:138,2,45,2|0|2,3:2|3:2|1:2,0:0:0:0:
281,118,34026,1,0,1:2:0:0:
191,46,34205,1,10,0:0:0:0:
6,244,34384,6,0,P|41:164|136:175,1,180,6|0,1:2|1:2,0:0:0:0:
259,213,34919,1,10,0:0:0:0:
159,330,35098,1,8,0:0:0:0:
177,332,35187,1,8,0:0:0:0:
194,334,35276,6,0,P|194:277|160:233,1,108,2|0,1:2|0:0,0:0:0:0:
123,164,35634,2,0,P|164:253|236:226,1,188.999994232178,10|0,0:0|0:0,0:0:0:0:
307,187,35991,5,6,1:2:0:0:
252,118,36169,1,2,0:0:0:0:
427,110,36348,1,2,1:2:0:0:
374,45,36526,2,0,P|306:19|236:4,1,144,10|0,0:0|0:0,0:0:0:0:
168,51,37062,1,2,1:2:0:0:
170,271,37419,5,2,1:2:0:0:
103,179,37598,1,10,0:0:0:0:
12,245,37776,1,2,0:0:0:0:
78,337,37955,1,2,0:0:0:0:
91,263,38134,5,2,1:2:0:0:
49,103,38313,1,8,0:0:0:0:
207,145,38491,1,0,1:2:0:0:
484,315,38848,5,2,1:2:0:0:
400,250,39026,1,2,0:0:0:0:
211,343,39205,1,2,1:2:0:0:
281,296,39384,2,0,B|360:307|328:359|426:361,1,144,8|0,0:0|0:0,0:0:0:0:
484,315,39919,1,2,1:2:0:0:
337,115,40276,5,2,1:2:0:0:
354,245,40455,1,10,0:0:0:0:
235,301,40634,1,2,0:0:0:0:
145,206,40812,1,2,0:0:0:0:
207,91,40991,5,2,1:2:0:0:
256,192,41169,1,10,0:0:0:0:
145,206,41348,1,2,1:2:0:0:
3,347,41526,5,0,3:0:0:0:
14,340,41616,1,0,3:0:0:0:
27,339,41705,2,0,B|84:336|135:288|135:288|142:320|113:353,1,180,6|2,1:2|1:2,0:0:0:0:
40,166,42241,2,0,P|45:97|140:113,1,180,10|0,0:0|0:0,0:0:0:0:
306,262,42776,2,0,P|228:247|236:193,1,135,2|0,1:2|0:0,0:0:0:0:
291,140,43134,5,2,1:2:0:0:
413,336,43312,2,0,L|491:354,1,72,10|0,0:0|0:0,0:0:0:0:
419,198,43669,1,2,0:0:0:0:
419,198,43759,1,2,0:0:0:0:
419,198,43848,1,2,1:2:0:0:
493,239,44026,1,8,0:0:0:0:
381,70,44205,2,0,P|417:44|447:53,1,72,2|0,1:2|0:0,0:0:0:0:
483,132,44562,5,2,1:2:0:0:
292,21,44741,1,2,0:0:0:0:
233,90,44919,1,2,1:2:0:0:
163,29,45098,1,10,0:0:0:0:
83,109,45276,1,2,0:0:0:0:
148,189,45455,2,0,L|152:225,2,36,0|0|8,3:2|3:2|0:0,0:0:0:0:
442,316,45812,6,0,B|419:247|337:236|280:270|280:270|277:318|326:333,1,270.000010299683,14|8,0:0|3:0,0:0:0:0:
317,329,46259,1,8,3:0:0:0:
317,329,46348,5,8,3:0:0:0:
492,176,46526,1,4,3:0:0:0:
215,111,46705,1,10,0:0:0:0:
410,22,46884,1,10,0:0:0:0:
299,165,47241,5,2,0:0:0:0:
282,169,47330,1,2,0:0:0:0:
270,178,47419,2,0,P|333:116|434:117,1,180,6|8,1:2|0:0,0:0:0:0:
456,193,47955,1,2,0:0:0:0:
308,30,48134,2,0,P|277:-2|219:10,1,90,0|0,1:2|1:2,0:0:0:0:
36,110,48491,2,0,P|78:96|127:89,1,90,10|0,0:0|3:2,0:0:0:0:
134,97,48759,5,0,3:2:0:0:
143,107,48848,1,2,1:2:0:0:
236,204,49026,1,0,1:2:0:0:
161,317,49205,2,0,B|90:302|90:302|69:271|69:271|-1:255,1,180,10|2,0:0|1:2,0:0:0:0:
141,190,49741,1,0,1:2:0:0:
287,349,49919,2,0,L|376:337,1,90,8|0,0:0|0:0,0:0:0:0:
261,163,50276,6,0,P|201:181|164:78,1,180,2|8,1:2|0:0,0:0:0:0:
253,51,50812,1,2,0:0:0:0:
368,179,50991,1,0,1:2:0:0:
463,139,51169,1,0,1:2:0:0:
205,288,51348,2,0,B|308:323|308:323|250:335,1,161.999995056153,10|0,0:0|0:0,0:0:0:0:
160,378,51705,5,2,1:2:0:0:
306,323,51884,1,0,1:2:0:0:
269,200,52062,1,10,0:0:0:0:
171,179,52241,1,0,3:2:0:0:
171,179,52330,1,0,3:2:0:0:
171,179,52419,1,2,1:2:0:0:
141,82,52598,1,0,1:2:0:0:
289,16,52776,6,0,B|439:-18|363:99|533:96,1,251.999992309571,14|2,0:0|0:1,0:0:0:0:
512,95,53491,1,2,0:0:0:0:
430,49,53669,2,0,P|365:49|332:105,1,135,2|0,0:0|0:0,0:0:0:0:
168,6,55276,5,2,0:0:0:0:
180,83,55455,1,0,0:0:0:0:
246,34,55634,1,0,0:0:0:0:
137,154,55812,5,2,0:0:0:0:
137,154,55901,1,2,0:0:0:0:
137,154,55991,2,0,P|60:129|80:97,1,135,2|0,0:0|0:0,0:0:0:0:
143,54,57062,1,2,0:0:0:0:
143,54,58134,5,2,0:1:0:0:
143,54,58848,5,6,1:2:0:0:
379,8,59205,1,2,1:2:0:0:
143,54,59562,5,10,0:0:0:0:
251,33,59741,1,8,0:0:0:0:
431,186,59919,1,8,0:0:0:0:
336,130,60098,1,8,0:0:0:0:
142,344,60276,5,10,0:0:0:0:
251,203,60455,1,8,0:0:0:0:
59,181,60634,1,8,0:0:0:0:
155,252,60812,1,8,0:0:0:0:
288,370,60991,5,10,0:0:0:0:
415,230,61169,1,8,0:0:0:0:
182,38,61348,1,8,0:0:0:0:
272,203,61526,1,8,0:0:0:0:
460,52,61705,5,10,0:0:0:0:
272,203,61884,1,8,3:0:0:0:
298,171,61973,1,8,3:0:0:0:
341,169,62062,1,4,3:0:0:0:
497,351,62241,5,10,0:0:0:0:
287,317,62419,1,8,3:0:0:0:
253,296,62509,1,8,3:0:0:0:
218,294,62598,1,4,3:0:0:0:
30,334,62776,5,10,0:0:0:0:
157,111,62955,2,0,B|145:55|92:45|47:51|47:51|27:111|73:123,1,202.500007724762,6|0,1:2|0:0,0:0:0:0:
51,111,63312,5,10,0:0:0:0:
345,17,63491,1,10,0:0:0:0:
475,359,64205,6,0,L|466:320,1,40.4999987640381,12|0,3:0|0:0,0:0:0:0:
409,245,64562,6,0,B|351:285|274:234|274:234|316:247|321:281,1,215.999993408203,6|10,1:2|0:0,0:0:0:0:
50,362,65098,2,0,B|42:337|59:311|59:311|31:329|37:380,1,107.999996704102,2|0,0:0|1:2,0:0:0:0:
208,303,65455,1,2,1:2:0:0:
44,197,65634,1,8,0:0:0:0:
263,115,65812,6,0,P|178:135|165:18,1,215.999993408203,6|0,1:2|1:2,0:0:0:0:
401,24,66348,2,0,B|446:35|446:35|453:44|453:44|503:56,1,107.999996704102,10|0,0:1|0:0,0:0:0:0:
352,192,66705,1,2,1:0:0:0:
488,357,66884,5,2,1:2:0:0:
400,289,67062,1,10,0:0:0:0:
294,310,67241,1,2,0:0:0:0:
422,86,67419,6,0,B|416:79|420:60|420:60|459:78|462:128,1,107.999996704102,6|2,1:2|0:0,0:0:0:0:
402,178,67687,1,2,0:0:0:0:
348,173,67776,1,10,0:0:0:0:
306,137,67866,1,2,0:0:0:0:
317,84,67955,6,0,B|214:71|245:136|165:120,1,161.999995056153,6|0,1:2|0:0,0:0:0:0:
93,55,68312,1,2,1:2:0:0:
2,296,68491,6,0,B|-49:250|-31:174|26:133|26:133|81:172|62:214,1,288,10|0,0:1|0:0,0:0:0:0:
154,321,69026,1,0,1:2:0:0:
259,216,69205,1,10,0:0:0:0:
199,96,69384,1,2,3:2:0:0:
200,80,69473,1,0,3:2:0:0:
203,67,69562,1,2,1:2:0:0:
355,93,69741,1,2,1:2:0:0:
476,8,69919,1,10,0:0:0:0:
359,222,70098,5,2,3:2:0:0:
371,223,70187,1,0,3:2:0:0:
382,225,70276,2,0,B|397:267|446:289|488:277|488:277|459:270|447:242,1,161.999995056153,6|0,1:2|0:0,0:0:0:0:
459,171,70634,2,0,B|457:143|469:120|469:120|442:140|439:166,1,107.999996704102,10|0,0:0|0:0,0:0:0:0:
392,353,70991,5,2,1:2:0:0:
260,219,71169,1,0,1:2:0:0:
163,356,71348,2,0,B|101:336|101:336|66:348|66:348|-15:320,1,161.999995056153,10|0,0:0|0:0,0:0:0:0:
11,227,71705,6,0,B|46:186|46:186|55:239,1,107.999996704102,2|0,1:2|0:0,0:0:0:0:
288,53,72062,2,0,B|253:94|253:94|244:41,1,107.999996704102,10|0,0:0|3:2,0:0:0:0:
239,31,72330,1,0,3:2:0:0:
233,23,72419,1,2,1:2:0:0:
103,107,72598,1,0,1:2:0:0:
225,212,72776,1,10,0:0:0:0:
143,351,72955,5,0,3:2:0:0:
143,351,73044,1,0,3:2:0:0:
143,351,73134,2,0,B|213:340|213:340|229:320|229:320|308:307,1,161.999995056153,2|0,1:2|0:0,0:0:0:0:
373,360,73491,2,0,P|426:359|447:308,1,107.999996704102,10|0,0:1|0:0,0:0:0:0:
287,119,73848,2,0,B|213:106|213:106|243:131,1,107.999996704102,2|0,1:0|1:0,0:0:0:0:
323,235,74205,1,10,0:1:0:0:
60,40,74384,5,2,0:0:0:0:
77,23,74473,1,2,0:0:0:0:
99,23,74562,1,6,1:2:0:0:
238,127,74741,1,2,0:0:0:0:
99,183,74919,1,10,0:0:0:0:
345,22,75098,6,0,B|416:9|453:56|453:56|460:118|519:121,1,216,6|0,1:2|0:0,0:0:0:0:
456,267,75455,5,8,0:0:0:0:
462,252,75544,1,8,0:0:0:0:
456,229,75634,1,8,0:0:0:0:
426,203,75723,1,8,0:0:0:0:
377,196,75812,1,8,0:0:0:0:
339,235,75901,1,8,0:0:0:0:
374,306,75991,6,0,P|409:314|454:253,1,107.999996704102,6|0,1:2|0:0,0:0:0:0:
279,158,76348,1,10,0:0:0:0:
110,362,76526,2,0,B|59:351|59:351|52:340|52:340|7:327,1,107.999996704102,2|0,0:0|1:2,0:0:0:0:
256,272,76884,1,2,1:2:0:0:
130,169,77062,1,8,0:0:0:0:
202,338,77241,6,0,P|223:268|373:247,1,215.999993408203,6|0,1:2|1:2,0:0:0:0:
451,305,77776,1,8,0:0:0:0:
449,64,77955,2,0,B|434:81|435:118|435:118|444:93|474:70,1,107.999996704102,8|0,0:0|1:2,0:0:0:0:
273,9,78312,5,2,1:2:0:0:
345,148,78491,1,10,0:0:0:0:
507,153,78669,1,2,0:0:0:0:
498,360,78848,6,0,P|455:294|378:287,1,161.999995056153,14|0,0:0|0:0,0:0:0:0:
329,354,79205,1,2,1:2:0:0:
512,101,79384,6,0,B|477:28|389:38|389:38|418:40|422:54,1,188.999994232178,14|0,0:0|0:0,0:0:0:0:
356,126,79741,1,2,1:2:0:0:
101,16,79919,6,0,P|131:156|157:298,1,288,14|0,0:0|0:0,0:0:0:0:
302,117,80455,1,2,1:2:0:0:
302,117,80544,1,2,0:0:0:0:
302,117,80634,2,0,L|369:128,1,53.9999983520508,10|2,0:0|0:0,0:0:0:0:
236,224,80812,2,0,L|290:217,1,53.9999983520508,2|2,0:0|0:0,0:0:0:0:
457,129,80991,5,2,1:2:0:0:
500,232,81169,1,2,1:2:0:0:
278,341,81348,5,10,0:0:0:0:
393,216,81526,1,2,0:0:0:0:
477,358,81705,5,6,1:2:0:0:
242,236,81884,2,0,B|264:229|275:194|275:194|269:226|278:246,1,107.999996704102,2|10,0:0|0:0,0:0:0:0:
480,30,82241,2,0,B|347:15|407:116|292:109,1,215.999993408203,2|2,0:0|1:2,0:0:0:0:
196,6,82776,1,8,0:0:0:0:
27,217,82955,6,0,P|37:118|138:121,1,215.999993408203,2|0,1:2|1:2,0:0:0:0:
287,189,83491,2,0,P|340:180|396:175,1,107.999996704102,10|0,0:0|0:0,0:0:0:0:
241,377,83848,2,0,P|240:317|287:289,1,107.999996704102,2|0,1:2|1:2,0:0:0:0:
475,361,84205,1,10,0:0:0:0:
393,175,84384,1,2,0:0:0:0:
475,361,84562,6,0,P|382:308|276:291,2,215.999993408203,6|10|6,1:2|0:0|1:2,0:0:0:0:
428,232,85455,1,0,1:2:0:0:
487,62,85634,1,10,0:0:0:0:
333,120,85812,5,0,3:2:0:0:
333,120,85901,1,0,3:2:0:0:
333,120,85991,2,0,P|284:130|270:73,1,107.999996704102,6|0,1:2|0:0,0:0:0:0:
331,39,86348,2,0,P|409:30|472:144,1,215.999993408203,10|6,0:0|1:2,0:0:0:0:
200,348,86884,5,8,0:0:0:0:
222,317,86973,1,8,0:0:0:0:
247,316,87062,1,8,0:0:0:0:
260,328,87151,1,8,0:0:0:0:
266,337,87241,2,0,P|297:328|320:303,1,53.9999983520508,4|0,3:0|0:0,0:0:0:0:
218,152,87419,5,14,0:0:0:0:
110,131,87598,1,0,1:2:0:0:
3,116,87776,1,2,1:2:0:0:
431,33,87955,5,14,0:0:0:0:
339,93,88133,1,0,1:2:0:0:
262,10,88312,1,8,3:0:0:0:
445,155,88491,5,4,3:0:0:0:
218,229,88669,2,0,B|367:230|299:392|452:398|472:302,1,323.999990112305,14|0,0:0|0:0,0:0:0:0:
203,320,91169,6,0,L|214:255,1,45,0|0,1:2|1:2,0:0:0:0:
121,182,91348,2,0,L|111:126,1,54,12|0,3:0|0:0,0:0:0:0:
148,50,91705,6,0,B|179:7|238:23|238:23|256:67|316:66,1,180,6|10,1:2|0:0,0:0:0:0:
474,191,92241,2,0,P|445:153|386:159,1,90,2|0,0:0|1:2,0:0:0:0:
295,214,92598,1,2,1:2:0:0:
217,130,92776,1,10,0:0:0:0:
383,310,92955,2,0,P|468:267|466:176,1,180,0|0,1:2|1:2,0:0:0:0:
402,29,93491,1,8,0:0:0:0:
402,29,93848,5,2,1:2:0:0:
297,87,94026,1,0,1:2:0:0:
199,15,94205,2,0,P|124:15|109:73,1,135,8|0,0:0|0:0,0:0:0:0:
169,120,94562,5,2,1:2:0:0:
76,237,94741,1,2,0:0:0:0:
219,303,94919,1,10,0:0:0:0:
157,346,95098,2,0,P|208:273|297:277,1,180,2|2,0:0|1:2,0:0:0:0:
367,343,95634,1,10,0:0:0:0:
218,134,95812,6,0,P|258:59|359:66,1,180,2|2,1:2|1:2,0:0:0:0:
449,240,96348,2,0,P|393:225|386:175,1,90,10|0,0:0|0:0,0:0:0:0:
490,127,96705,1,2,1:1:0:0:
490,127,96884,1,0,1:2:0:0:
277,43,97062,5,10,0:0:0:0:
234,48,97181,1,2,0:0:0:0:
210,28,97300,1,2,0:0:0:0:
214,17,97419,5,6,1:2:0:0:
313,115,97598,1,2,0:0:0:0:
197,192,97776,1,10,0:0:0:0:
88,100,97955,2,0,P|43:90|-3:81,1,90,2|0,0:0|1:2,0:0:0:0:
212,110,98312,1,2,1:2:0:0:
86,202,98491,1,10,0:0:0:0:
307,357,98669,6,0,P|269:275|176:291,1,180,6|0,1:2|1:2,0:0:0:0:
98,324,99205,1,10,0:0:0:0:
332,193,99384,6,0,B|478:170|478:170|438:184|424:221,1,215.999993408203,6|0,1:2|1:2,0:0:0:0:
509,347,99919,1,10,0:0:0:0:
482,335,100009,1,8,3:0:0:0:
458,337,100098,1,8,3:0:0:0:
179,253,100276,6,0,B|148:191|210:131|210:131|261:166,2,180,6|8|0,1:2|0:0|1:2,0:0:0:0:
260,335,101169,1,0,1:2:0:0:
389,210,101348,1,10,0:0:0:0:
260,335,101526,1,10,0:0:0:0:
133,336,101705,6,0,B|124:300|96:286|48:277|48:277|65:290|67:318,1,135,6|0,1:2|0:0,0:0:0:0:
33,375,102062,1,10,0:0:0:0:
170,214,102241,6,0,P|202:157|272:170,1,135,6|0,1:2|0:0,0:0:0:0:
313,231,102598,1,2,1:2:0:0:
118,74,102776,5,10,0:0:0:0:
325,11,102955,1,10,0:0:0:0:
325,11,103312,5,14,0:0:0:0:
476,184,103491,2,0,B|436:206|436:206|418:165,1,90,2|0,1:2|1:2,0:0:0:0:
233,335,103848,5,14,0:0:0:0:
413,305,104026,2,0,L|401:348,2,45,8|8|0,0:0|0:0|1:2,0:0:0:0:
230,215,104384,1,14,0:0:0:0:
425,15,104741,5,10,0:0:0:0:
236,108,104919,2,0,B|150:59|149:165|54:132,1,180,14|0,0:0|0:0,0:0:0:0:
