osu file format v14

[General]
AudioFilename: bubble.mp3
AudioLeadIn: 0
PreviewTime: 138
Countdown: 0
SampleSet: Soft
StackLeniency: 0.7
Mode: 0
LetterboxInBreaks: 0
WidescreenStoryboard: 1

[Editor]
Bookmarks: 10411,11661,52732,58804,61661,86661,88625
DistanceSpacing: 0.2
BeatDivisor: 4
GridSize: 8
TimelineZoom: 1

[Metadata]
Title:Love's Oracle
TitleUnicode:Love's Oracle
Artist:Sasaki Sayaka
ArtistUnicode:佐咲紗花
Creator:Another Flower
Version:Rio's Normal
Source:保健室のセンセーとシャボン玉中毒の助手
Tags:Hokenshitsu no Sensei to Shabondama Chuudoku no Joshu Hokejo loves citrus Arte Refact japanese pop jpop opening eroge galgame visual novel fia pinkheart fushimi rio
BeatmapID:3022214
BeatmapSetID:1471031

[Difficulty]
HPDrainRate:3
CircleSize:3
OverallDifficulty:4
ApproachRate:5
SliderMultiplier:1.2
SliderTickRate:1

[Events]
//Background and Video events
0,0,"pic05.jpg",0,0
//Break Periods
//Storyboard Layer 0 (Background)
//Storyboard Layer 1 (Fail)
//Storyboard Layer 2 (Pass)
//Storyboard Layer 3 (Foreground)
//Storyboard Layer 4 (Overlay)
//Storyboard Sound Samples

[TimingPoints]
218,357.142857142857,4,2,0,50,1,0
8789,-100,4,2,0,70,0,0
12717,-100,4,2,0,50,0,0
24503,-100,4,2,0,70,0,0
35932,-100,4,2,0,50,0,0
47360,-100,4,2,0,70,0,0
53075,-100,4,2,0,50,0,0
58789,-100,4,2,0,80,0,0
64503,-100,4,2,0,80,0,1
86646,-100,4,2,0,80,0,0
87360,-100,4,2,0,80,0,1
88610,-100,4,2,0,70,0,0

[Colours]
Combo1 : 255,128,128
Combo2 : 255,128,255
Combo3 : 128,236,255

[HitObjects]
29,95,218,6,0,B|96:95|96:95|141:119|141:119,1,120,4|0,0:0|0:0,0:0:0:0:
190,153,753,1,0,0:0:0:0:
309,153,1110,1,0,0:0:0:0:
356,190,1289,2,0,P|437:185|418:38,1,240,2|0,0:0|0:0,0:0:0:0:
323,52,2360,1,0,0:0:0:0:
323,292,3075,6,0,B|255:292|255:292|210:316|210:316,1,120,2|0,0:0|0:0,0:0:0:0:
162,350,3610,1,0,0:0:0:0:
42,350,3967,1,0,0:0:0:0:
5,303,4146,2,0,P|10:222|157:241,1,240,2|0,0:0|0:0,0:0:0:0:
221,123,5217,2,0,P|226:64|203:10,1,120,2|0,0:0|0:0,0:0:0:0:
323,10,5932,6,0,L|451:10,1,120,4|0,0:1|0:0,0:0:0:0:
502,10,6467,1,0,0:0:0:0:
479,128,6825,1,2,0:0:0:0:
419,128,7003,1,0,0:0:0:0:
385,177,7182,2,0,P|334:206|276:194,1,120,4|0,0:0|3:0,0:0:0:0:
234,152,7717,1,0,3:0:0:0:
202,99,7896,2,0,P|145:88|94:117,1,120,4|0,1:0|0:0,0:0:0:0:
74,174,8432,1,0,1:0:0:0:
108,289,8789,6,0,P|57:318|0:306,2,120,4|0|2,0:0|1:0|0:0,0:0:0:0:
161,315,9682,2,0,L|241:315,1,60,0|0,0:0|1:0,0:0:0:0:
281,315,10039,1,4,0:0:0:0:
344,214,10396,6,0,L|370:280,2,60,0|0|0,1:0|1:0|1:0,0:0:0:0:
285,200,10932,2,0,L|214:189,2,60,4|0|0,1:0|1:0|1:1,0:0:0:0:
291,140,11467,1,0,3:0:0:0:
298,80,11646,1,4,0:0:0:0:
437,313,12717,5,0,0:0:0:0:
344,285,13075,6,0,L|315:228,2,60,4|0|0,0:0|0:0|3:0,0:0:0:0:
319,325,13610,2,0,L|172:325,1,120,0|0,0:0|0:0,0:0:0:0:
162,210,14325,2,0,L|42:210,1,120,2|0,0:0|0:0,0:0:0:0:
0,168,14860,2,0,P|-5:109|18:55,2,120,0|2|0,3:0|0:0|3:0,0:0:0:0:
28,297,15932,6,0,L|-1:354,2,60,0|0|0,0:0|0:0|3:0,0:0:0:0:
77,263,16467,2,0,L|224:263,1,120,0|0,0:0|0:0,0:0:0:0:
300,201,17182,2,0,L|447:201,1,120,2|0,0:0|0:0,0:0:0:0:
472,229,17717,2,0,P|477:288|454:342,1,120,0|2,3:0|0:0,0:0:0:0:
336,368,18432,2,0,P|298:345|285:330,1,60,0|0,3:0|0:0,0:0:0:0:
258,281,18789,6,0,P|203:304|144:299,1,120,2|0,0:0|3:0,0:0:0:0:
95,263,19325,2,0,L|95:86,1,120,0|0,0:0|0:0,0:0:0:0:
94,82,19860,1,0,3:0:0:0:
213,81,20217,6,0,P|234:42|238:22,2,60,2|0|0,0:0|0:0|3:0,0:0:0:0:
227,139,20753,2,0,L|330:199,1,120,0|0,0:0|0:0,0:0:0:0:
353,255,21289,1,0,3:0:0:0:
451,185,21646,6,0,P|446:155|435:127,1,60,4|0,0:0|0:0,3:3:0:0:
399,82,22003,2,0,P|373:63|347:52,1,60,0|0,1:0|1:0,0:0:0:0:
287,59,22360,2,0,L|287:0,2,60,0|0|0,1:0|1:0|3:0,0:0:0:0:
287,119,22896,6,0,L|110:119,1,120,4|0,1:0|1:0,0:0:0:0:
137,170,23432,1,0,1:0:0:0:
107,221,23610,2,0,P|102:280|125:334,1,120,4|0,0:0|1:0,0:0:0:0:
179,360,24146,1,0,3:0:0:0:
277,291,24503,5,4,0:0:0:0:
333,269,24682,2,0,P|369:265|402:274,1,60,0|0,0:0|1:0,0:0:0:0:
445,296,25039,2,0,P|478:247|485:189,1,120,0|0,0:0|0:0,0:0:0:0:
457,135,25575,1,0,1:0:0:0:
402,110,25753,2,0,L|248:110,1,120,2|0,0:0|0:0,0:0:0:0:
221,110,26289,2,0,P|187:61|180:3,2,120,0|2|0,1:0|3:2|1:0,0:0:0:0:
221,229,27360,5,2,0:0:0:0:
165,251,27539,2,0,P|129:255|96:246,1,60,0|0,0:0|1:0,0:0:0:0:
50,226,27896,2,0,P|17:177|10:119,1,120,0|0,0:0|0:0,0:0:0:0:
38,65,28432,1,0,1:0:0:0:
94,84,28610,2,0,P|153:77|201:43,1,120,2|0,0:0|0:0,0:0:0:0:
259,58,29146,2,0,L|259:178,1,120,0|2,1:0|3:2,0:0:0:0:
259,297,29860,2,0,P|236:277|208:266,1,60,0|0,1:0|0:0,0:0:0:0:
153,291,30217,6,0,P|93:284|45:250,1,120,4|0,0:0|1:0,0:0:0:0:
17,196,30753,1,0,0:0:0:0:
75,91,31110,2,0,L|75:29,2,60,0|0|0,0:0|1:0|0:0,0:0:0:0:
101,145,31646,1,0,1:0:0:0:
156,121,31825,2,0,P|192:117|225:126,1,60,0|0,1:0|3:0,0:0:0:0:
267,151,32182,2,0,P|300:102|307:43,1,120,4|0,1:0|0:0,0:0:0:0:
364,26,32717,6,0,L|452:3,2,60,0|0|4,1:0|3:0|0:0,0:0:0:0:
420,132,33432,2,0,P|424:168|415:201,1,60,0|0,1:0|0:0,0:0:0:0:
373,229,33789,2,0,P|313:222|265:188,1,120,2|0,0:0|1:0,0:0:0:0:
240,133,34325,2,0,P|214:79|167:43,1,120,4|0,0:1|0:0,0:0:0:0:
107,41,34860,1,0,1:0:0:0:
53,69,35039,1,0,3:0:0:0:
41,127,35217,2,0,L|41:251,1,120,2|0,3:2|1:0,0:0:0:0:
138,323,35932,6,0,P|245:253|295:251,2,180,4|0|0,0:0|1:0|3:0,0:0:0:0:
105,200,37360,2,0,B|31:92|89:17|157:38|157:79,1,240,2|0,0:0|0:0,0:0:0:0:
320,181,38789,6,0,P|407:166|475:108,2,180,2|0|0,0:0|1:0|3:0,0:0:0:0:
241,89,40217,2,0,P|167:67|121:148,1,180,2|0,0:0|0:0,0:0:0:0:
130,203,40932,2,0,L|60:203,2,60,0|0|0,1:0|1:0|3:0,0:0:0:0:
182,309,41646,6,0,P|227:271|247:216,1,120,4|0,0:0|0:0,0:0:0:0:
308,216,42182,2,0,L|492:216,1,180,2|2,0:0|0:0,0:0:0:0:
512,99,43075,6,0,P|466:60|446:5,1,120,0|0,3:0|0:0,0:0:0:0:
386,5,43610,1,2,0:0:0:0:
325,5,43789,2,0,L|265:5,2,60,0|0|2,3:0|0:0|0:0,0:0:0:0:
316,124,44503,6,0,P|361:121|396:103,2,60,0|0|0,3:0|3:0|0:0,0:0:0:0:
239,216,45217,2,0,P|284:219|319:237,2,60,0|0|0,3:0|3:0|0:0,0:0:0:0:
185,239,45753,6,0,P|146:193|91:173,1,120,4|0,0:0|3:0,0:0:0:0:
33,156,46289,1,0,1:0:0:0:
11,100,46467,1,0,1:0:0:0:
36,45,46646,2,0,L|102:20,1,60,0|0,1:0|1:0,0:0:0:0:
237,129,47360,6,0,P|216:184|171:222,2,120,4|0|0,0:0|1:0|0:0,0:0:0:0:
234,68,48253,1,0,0:0:0:0:
294,68,48432,2,0,L|422:68,1,120,0|0,1:0|3:0,0:0:0:0:
497,154,49146,1,0,1:0:0:0:
414,243,49503,2,0,L|388:180,2,60,0|0|0,3:0|0:0|1:0,0:0:0:0:
295,260,50217,6,0,P|256:214|201:194,1,120,4|0,0:0|1:0,0:0:0:0:
150,225,50753,1,2,0:0:0:0:
89,227,50932,2,0,P|43:188|23:133,1,120,0|0,0:0|1:0,0:0:0:0:
142,118,51646,2,0,L|156:51,2,60,0|0|0,3:0|3:0|1:0,0:0:0:0:
241,184,52360,6,0,P|296:163|334:118,1,120,2|0,0:0|1:0,0:0:0:0:
307,0,53075,1,2,0:0:0:0:
458,346,55217,5,0,3:0:0:0:
415,233,55575,1,0,0:0:0:0:
339,327,55932,1,2,0:0:0:0:
256,192,58075,5,2,0:0:0:0:
256,192,58789,12,4,61646,1:0:0:0:
181,269,63789,6,0,P|122:264|73:230,1,120,2|0,0:0|3:1,0:0:0:0:
115,117,64503,6,0,P|174:122|222:156,1,120,4|0,0:0|1:0,0:0:0:0:
281,170,65039,2,0,P|334:144|368:96,1,120,0|0,0:0|0:0,0:0:0:0:
366,36,65575,1,0,1:0:0:0:
452,119,65932,2,0,L|452:247,2,120,2|0|2,0:0|1:0|0:0,0:0:0:0:
336,151,67003,1,0,1:0:0:0:
244,73,67360,6,0,P|195:39|136:33,1,120,4|0,0:0|1:0,0:0:0:0:
82,60,67896,2,0,P|48:108|42:167,1,120,2|0,0:0|0:0,0:0:0:0:
65,223,68432,1,0,1:0:0:0:
179,260,68789,2,0,L|249:260,2,60,0|0|0,0:0|0:0|1:0,0:0:0:0:
92,342,69503,2,0,L|22:342,2,60,2|0|0,0:0|0:0|1:0,0:0:0:0:
150,354,70039,1,0,0:0:0:0:
202,384,70217,6,0,P|260:373|306:335,1,120,4|0,0:0|1:0,0:0:0:0:
388,247,70932,2,0,P|329:236|283:198,1,120,2|0,0:0|1:0,0:0:0:0:
305,80,71646,2,0,P|360:59|419:69,2,120,2|0|2,0:0|1:0|0:0,0:0:0:0:
201,19,72717,2,0,L|191:95,1,60,0|0,1:0|3:0,0:0:0:0:
185,138,73075,5,4,0:0:0:0:
67,116,73432,1,2,1:2:0:0:
45,234,73789,1,2,0:0:0:0:
163,256,74146,1,0,1:0:0:0:
275,296,74503,2,0,L|275:358,2,60,4|0|0,0:0|0:0|1:0,0:0:0:0:
333,307,75039,2,0,P|412:274|420:189,1,180,4|0,0:1|3:0,0:0:0:0:
434,69,75932,6,0,P|374:74|326:108,1,120,4|0,0:0|1:0,0:0:0:0:
268,122,76468,2,0,P|214:96|180:48,1,120,2|2,0:0|0:0,0:0:0:0:
76,109,77182,1,2,0:0:0:0:
77,169,77361,2,0,L|77:297,2,120,0|0|0,0:0|1:0|3:0,0:0:0:0:
196,169,78432,2,0,P|228:176|262:200,1,60,0|0,1:0|0:0,0:0:0:0:
278,243,78789,6,0,L|406:243,1,120,4|0,0:0|1:0,0:0:0:0:
451,270,79325,2,0,L|451:142,1,120,4|0,0:0|0:0,0:0:0:0:
478,97,79860,2,0,L|350:97,1,120,4|0,1:0|0:0,0:0:0:0:
251,41,80575,1,0,1:0:0:0:
198,148,80932,2,0,L|134:148,2,60,2|0|0,0:0|0:0|1:0,0:0:0:0:
300,210,81646,5,4,0:0:0:0:
310,269,81825,2,0,P|303:301|279:335,1,60,0|0,0:0|1:0,0:0:0:0:
237,355,82182,2,0,P|183:330|123:335,1,120,0|0,0:0|0:0,0:0:0:0:
30,268,82896,2,0,P|9:212|19:153,1,120,2|0,0:0|0:0,0:0:0:0:
60,109,83432,1,0,1:0:0:0:
137,200,83789,2,0,L|277:200,1,120,2|0,0:0|1:0,0:0:0:0:
317,200,84325,1,0,0:0:0:0:
376,200,84503,6,0,P|410:151|416:91,1,120,4|0,0:0|1:0,0:0:0:0:
319,21,85217,2,0,P|264:45|229:94,1,120,2|0,0:0|1:0,0:0:0:0:
181,203,85932,2,0,P|156:148|107:113,1,120,2|0,0:0|1:0,0:0:0:0:
0,163,86646,2,0,P|-5:222|19:276,1,120,0|0,3:0|3:0,0:0:0:0:
67,310,87182,1,0,0:0:0:0:
126,310,87360,6,0,L|266:310,1,120,4|0,1:0|1:0,0:0:0:0:
299,337,87896,1,4,0:0:0:0:
408,288,88253,1,0,1:0:0:0:
359,179,88610,1,0,1:0:0:0:
428,52,91646,6,0,B|428:119|428:119|404:164|404:164,1,120,4|0,0:0|1:0,0:0:0:0:
370,213,92181,1,0,0:0:0:0:
312,107,92538,1,0,0:0:0:0:
265,70,92717,2,0,P|184:75|203:222,1,240,0|0,1:0|1:0,0:0:0:0:
255,298,93789,2,0,P|288:250|295:191,1,120,2|0,0:0|1:0,0:0:0:0:
415,191,94503,6,0,B|415:259|415:259|439:304|439:304,1,120,2|0,0:0|1:0,0:0:0:0:
473,352,95039,1,0,0:0:0:0:
353,352,95396,2,0,L|283:352,2,60,2|2|0,0:0|1:2|0:0,0:0:0:0:
304,242,96110,2,0,L|244:242,1,60,0|0,0:0|1:0,0:0:0:0:
148,315,96645,2,0,P|124:260|129:201,1,120,2|0,0:0|1:0,0:0:0:0:
205,107,97360,6,0,L|333:107,1,120,4|0,0:0|1:0,0:0:0:0:
384,107,97895,1,0,0:0:0:0:
487,45,98253,1,2,0:0:0:0:
487,105,98431,1,0,1:0:0:0:
504,162,98610,2,0,P|474:212|418:231,1,120,2|0,0:0|0:0,0:0:0:0:
361,212,99145,1,0,1:0:0:0:
329,159,99324,2,0,P|272:148|221:177,1,120,2|0,0:0|0:0,0:0:0:0:
202,234,99860,1,0,1:0:0:0:
170,349,100217,6,0,P|89:344|108:197,1,240,4|0,0:0|0:0,0:0:0:0:
157,116,101289,2,0,L|157:56,1,60,2|0,1:2|0:0,0:0:0:0:
209,27,101646,2,0,P|268:33|316:67,1,120,4|0,0:0|1:0,0:0:0:0:
339,123,102182,1,2,0:0:0:0:
449,76,102539,2,0,L|505:53,2,60,2|0|0,0:0|1:0|0:0,0:0:0:0:
449,195,103253,5,4,1:0:0:0:
449,255,103432,1,0,1:0:0:0:
340,307,103789,2,0,L|340:210,1,60,0|0,1:0|1:0,0:0:0:0:
240,179,104325,5,4,0:0:0:0:
186,286,104682,1,0,1:0:0:0:
126,286,104861,1,0,1:0:0:0:
