osu file format v14

[General]
AudioFilename: bubble.mp3
AudioLeadIn: 0
PreviewTime: 138
Countdown: 0
SampleSet: Soft
StackLeniency: 0.4
Mode: 0
LetterboxInBreaks: 0
WidescreenStoryboard: 1

[Editor]
Bookmarks: 23625,58804,63447,86661,88625
DistanceSpacing: 0.2
BeatDivisor: 4
GridSize: 16
TimelineZoom: 1.4

[Metadata]
Title:Love's Oracle
TitleUnicode:Love's Oracle
Artist:Sasaki Sayaka
ArtistUnicode:佐咲紗花
Creator:Another Flower
Version:Insane
Source:保健室のセンセーとシャボン玉中毒の助手
Tags:Hokenshitsu no Sensei to Shabondama Chuudoku no Joshu Hokejo loves citrus Arte Refact japanese pop jpop opening eroge galgame visual novel fia pinkheart fushimi rio
BeatmapID:3020531
BeatmapSetID:1471031

[Difficulty]
HPDrainRate:6
CircleSize:4.2
OverallDifficulty:8
ApproachRate:9
SliderMultiplier:1.6
SliderTickRate:1

[Events]
//Background and Video events
0,0,"pic05.jpg",0,0
//Break Periods
//Storyboard Layer 0 (Background)
//Storyboard Layer 1 (Fail)
//Storyboard Layer 2 (Pass)
//Storyboard Layer 3 (Foreground)
//Storyboard Layer 4 (Overlay)
//Storyboard Sound Samples

[TimingPoints]
218,357.142857142857,4,2,0,50,1,0
1289,-166.666666666667,4,2,0,50,0,0
4146,-166.666666666667,4,2,0,50,0,0
5128,-100,4,2,0,70,0,0
12360,-100,4,2,0,30,0,0
12717,-125,4,2,0,50,0,0
23610,-100,4,2,0,70,0,0
24503,-100,4,2,0,70,0,0
27003,-111.111111111111,4,2,0,70,0,0
27360,-100,4,2,0,70,0,0
35932,-100,4,2,0,50,0,0
47360,-100,4,2,0,70,0,0
53075,-166.666666666667,4,2,0,50,0,0
58075,-125,4,2,0,50,0,0
58432,-100,4,2,0,60,0,0
58789,-83.3333333333333,4,2,0,80,0,1
62717,-50,4,2,0,80,0,1
62896,-100,4,2,0,80,0,1
63253,-83.3333333333333,4,2,0,80,0,1
63432,-83.3333333333333,4,2,0,80,0,0
64503,-83.3333333333333,4,2,0,80,0,1
67896,-100,4,2,0,80,0,1
68432,-83.3333333333333,4,2,0,80,0,1
70217,-100,4,2,0,80,0,1
70575,-83.3333333333333,4,2,0,80,0,1
72360,-100,4,2,0,80,0,1
73789,-83.3333333333333,4,2,0,80,0,1
74146,-100,4,2,0,80,0,1
75039,-71.4285714285714,4,2,0,80,0,1
75396,-83.3333333333333,4,2,0,80,0,1
78789,-100,4,2,0,80,0,0
79325,-83.3333333333333,4,2,0,80,0,0
81646,-83.3333333333333,4,2,0,80,0,1
85217,-100,4,2,0,80,0,1
85932,-125,4,2,0,80,0,1
86646,-83.3333333333333,4,2,0,80,0,1
88610,-83.3333333333333,4,2,0,70,0,0
90039,-142.857142857143,4,2,0,70,0,0
91646,-100,4,2,0,70,0,0
97896,-83.3333333333333,4,2,0,70,0,0
98253,-100,4,2,0,70,0,0
101289,-83.3333333333333,4,2,0,70,0,0
102896,-333.333333333333,4,2,0,70,0,0
103253,-333.333333333333,4,2,0,70,0,1
103521,-333.333333333333,4,2,0,70,0,0
103789,-333.333333333333,4,2,0,70,0,1
104057,-333.333333333333,4,2,0,70,0,0
104682,-333.333333333333,4,2,0,70,0,1
104950,-333.333333333333,4,2,0,70,0,0

[Colours]
Combo1 : 255,128,128
Combo2 : 255,128,255
Combo3 : 128,236,255

[HitObjects]
232,169,218,5,4,0:0:0:0:
197,237,396,1,0,0:0:0:0:
270,309,575,1,0,0:0:0:0:
305,241,753,1,0,0:0:0:0:
205,153,1110,5,0,0:0:0:0:
185,78,1289,2,0,P|109:34|-2:43,1,191.999994140625,2|0,0:0|0:0,0:0:0:0:
6,225,2360,2,0,P|20:150|83:128,1,143.999995605469
134,315,3075,5,2,0:0:0:0:
189,228,3253,1,0,0:0:0:0:
283,208,3432,1,0,0:0:0:0:
357,238,3610,1,0,0:0:0:0:
445,38,3967,5,0,0:0:0:0:
406,105,4146,2,0,P|321:127|216:90,1,191.999994140625,2|0,0:0|0:0,0:0:0:0:
95,214,5128,6,0,L|85:185,1,20
81,177,5217,2,0,P|50:214|-11:220,1,80,2|0,0:0|0:0,0:0:0:0:
122,286,5575,5,2,0:0:0:0:
160,267,5694,5,2,0:0:0:0:
200,279,5813,5,0,0:0:0:0:
229,310,5932,6,0,P|365:331|490:185,1,320,4|0,0:1|0:0,0:0:0:0:
372,100,6825,5,2,0:0:0:0:
303,48,7003,1,0,0:0:0:0:
319,168,7182,2,0,P|282:183|242:181,1,80,4|0,0:0|0:0,0:0:0:0:
126,106,7539,5,0,3:0:0:0:
126,106,7628,1,0,3:0:0:0:
126,106,7717,1,0,3:0:0:0:
34,201,7896,2,0,P|67:257|168:290,1,160,4|0,1:0|0:0,0:0:0:0:
280,224,8432,6,0,P|288:239|295:260,1,40,0|0,1:0|0:0,0:0:0:0:
203,175,8610,2,0,P|203:158|208:136,1,40,0|0,3:0|3:0,3:0:0:0:
286,49,8789,5,4,0:0:0:0:
444,135,8967,1,0,0:0:0:0:
280,224,9147,1,0,1:0:0:0:
376,48,9325,1,0,0:0:0:0:
411,196,9503,5,2,0:0:0:0:
284,127,9681,1,0,0:0:0:0:
480,48,9860,1,0,1:0:0:0:
402,275,10039,2,0,P|378:306|341:324,1,80,4|0,0:0|0:0,0:0:0:0:
176,141,10397,5,0,1:0:0:0:
320,237,10575,1,0,1:0:0:0:
79,190,10754,1,0,1:0:0:0:
279,94,10932,5,4,1:0:0:0:
137,316,11110,1,0,1:0:0:0:
201,132,11288,1,0,1:1:0:0:
273,283,11467,5,0,3:0:0:0:
6,163,11646,1,4,0:0:0:0:
256,192,11735,12,0,12360,0:0:0:0:
480,69,12717,6,0,P|427:63|378:24,1,96
379,21,13075,5,4,0:0:0:0:
338,97,13253,1,0,0:0:0:0:
345,180,13432,2,0,P|357:209|378:232,1,64,0|0,3:0|0:0,0:0:0:0:
330,301,13789,2,0,P|317:330|296:353,1,64,2|0,0:0|0:0,0:0:0:0:
160,368,14146,1,0,3:0:0:0:
168,208,14325,6,0,P|194:224|214:250,1,64,2|0,0:0|0:0,0:0:0:0:
72,288,14682,1,0,0:0:0:0:
64,136,14860,2,0,P|37:153|18:178,1,64,0|0,3:0|0:0,0:0:0:0:
48,312,15217,5,2,0:0:0:0:
251,238,15575,2,0,L|331:238,1,64,0|0,3:0|0:0,0:0:0:0:
441,107,15933,5,0,0:0:0:0:
371,21,16111,1,0,0:0:0:0:
320,120,16289,2,0,P|279:119|235:94,1,64,0|0,3:0|0:0,0:0:0:0:
152,24,16646,2,0,P|123:38|102:62,1,64,2|0,0:0|0:0,0:0:0:0:
56,192,17004,1,0,3:0:0:0:
216,216,17182,6,0,P|203:186|182:163,1,64,2|0,0:0|0:0,0:0:0:0:
96,288,17540,1,0,0:0:0:0:
241,346,17717,2,0,P|270:333|293:312,1,64,0|0,3:0|0:0,0:0:0:0:
216,248,18075,5,2,0:0:0:0:
309,57,18432,1,0,3:0:0:0:
386,33,18610,1,0,0:0:0:0:
458,68,18789,2,0,P|480:90|495:118,1,64,2|0,0:0|0:0,0:0:0:0:
423,212,19146,5,0,3:0:0:0:
331,164,19325,1,0,0:0:0:0:
336,336,19503,2,0,P|365:323|389:303,1,64,2|0,0:0|0:0,0:0:0:0:
266,231,19860,5,0,3:0:0:0:
218,323,20039,1,0,0:0:0:0:
104,232,20217,2,0,P|86:258|80:290,1,64,2|0,0:0|0:0,0:0:0:0:
141,142,20575,2,0,P|123:115|117:83,1,64,0|0,3:0|0:0,0:0:0:0:
216,205,20932,5,0,0:0:0:0:
303,159,21110,1,0,0:0:0:0:
360,294,21289,2,0,P|335:274|317:248,1,64,0|0,3:0|0:0,0:0:0:0:
216,320,21646,5,4,0:0:0:0:
96,272,21825,1,0,0:0:0:0:
248,200,22003,5,0,1:0:0:0:
112,136,22182,1,0,1:0:0:0:
248,88,22360,5,0,1:0:0:0:
88,216,22539,1,0,1:0:0:0:
40,32,22717,1,0,3:0:0:0:
112,136,22896,6,0,P|140:150|171:153,1,64,4|0,1:0|0:0,0:0:0:0:
254,58,23253,1,0,1:0:0:0:
254,58,23432,1,0,1:0:0:0:
364,217,23610,6,0,P|327:198|287:194,1,80,4|0,0:0|0:0,0:0:0:0:
197,244,23967,1,0,1:0:0:0:
159,255,24056,1,0,3:0:0:0:
120,245,24145,1,0,3:0:0:0:
92,217,24235,1,0,0:0:0:0:
82,179,24324,1,0,0:0:0:0:
92,141,24413,1,0,0:0:0:0:
120,113,24503,6,0,P|137:86|141:32,2,80,4|0|0,0:0|0:0|1:0,0:0:0:0:
201,178,25039,1,0,0:0:0:0:
263,95,25217,1,0,0:0:0:0:
305,190,25396,2,0,P|332:173|386:169,1,80,0|0,0:0|1:0,0:0:0:0:
460,256,25753,2,0,P|457:295|437:330,1,80,2|0,0:0|0:0,0:0:0:0:
281,274,26110,1,0,0:0:0:0:
243,362,26289,2,0,P|208:381|168:384,1,80,0|0,1:0|0:0,0:0:0:0:
149,378,26557,1,0,3:0:0:0:
131,368,26646,6,0,P|111:333|108:293,1,80,2|0,3:2|0:0,0:0:0:0:
123,204,27003,2,0,L|135:123,1,71.9999978027344,0|0,1:0|0:0,0:0:0:0:
271,276,27360,6,0,P|290:241|293:201,1,80,2|0,0:0|0:0,0:0:0:0:
327,47,27717,1,0,1:0:0:0:
346,132,27896,1,0,0:0:0:0:
418,197,28075,2,0,P|452:177|492:174,1,80
390,294,28432,1,0,1:0:0:0:
313,201,28610,2,0,P|237:191|185:253,1,160,2|0,0:0|0:0,0:0:0:0:
106,50,29146,1,0,1:0:0:0:
194,90,29325,5,0,3:0:0:0:
194,90,29414,1,0,3:0:0:0:
194,90,29503,2,0,P|183:128|137:148,1,80,2|0,3:2|0:0,0:0:0:0:
20,199,29860,2,0,P|30:160|56:130,1,80,0|0,1:0|0:0,0:0:0:0:
179,318,30217,6,0,P|159:283|156:243,1,80,4|0,0:0|0:0,0:0:0:0:
280,334,30575,1,0,1:0:0:0:
365,278,30753,2,0,P|384:243|387:203,1,80
282,96,31110,1,0,0:0:0:0:
226,186,31289,1,0,1:0:0:0:
136,130,31467,1,0,0:0:0:0:
131,265,31646,5,0,1:0:0:0:
251,202,31825,1,0,1:0:0:0:
228,68,32003,1,0,3:0:0:0:
155,35,32182,2,0,P|79:45|44:118,1,160,4|0,1:0|0:0,0:0:0:0:
84,282,32717,5,0,1:0:0:0:
142,215,32896,2,0,L|224:237,2,80,0|4|0,3:0|0:0|0:0,0:0:0:0:
162,320,33432,5,0,1:0:0:0:
121,125,33611,2,0,L|29:151,2,80,0|0|0,0:0|3:0|3:0,0:0:0:0:
239,27,34146,1,0,1:0:0:0:
281,227,34325,2,0,L|300:310,1,80,4|0,0:1|0:0,0:0:0:0:
173,66,34682,5,0,0:0:0:0:
355,153,34860,1,0,1:0:0:0:
140,218,35039,1,0,3:0:0:0:
140,218,35128,1,0,3:0:0:0:
140,218,35217,2,0,L|63:241,1,80,2|0,3:2|0:0,0:0:0:0:
173,66,35575,2,0,P|214:51|254:51,1,80,0|0,1:0|0:0,0:0:0:0:
373,115,35932,6,0,L|373:195,1,80,4|0,0:0|0:0,0:0:0:0:
358,216,36289,1,0,0:0:0:0:
440,270,36467,1,0,1:0:0:0:
324,330,36825,5,0,0:0:0:0:
411,285,37003,1,0,3:0:0:0:
229,256,37360,6,0,L|229:176,1,80,2|0,0:0|0:0,0:0:0:0:
244,155,37717,1,0,0:0:0:0:
162,101,37895,1,0,1:0:0:0:
56,32,38253,5,0,0:0:0:0:
138,86,38431,1,0,3:0:0:0:
321,150,38789,6,0,L|321:230,1,80,2|0,0:0|0:0,0:0:0:0:
389,53,39146,1,0,0:0:0:0:
453,245,39324,1,0,1:0:0:0:
353,209,39682,5,0,0:0:0:0:
475,253,39860,1,0,3:0:0:0:
363,338,40217,5,2,0:0:0:0:
338,297,40395,1,0,0:0:0:0:
271,252,40574,1,0,3:0:0:0:
176,268,40753,1,0,0:0:0:0:
119,364,40932,5,0,1:0:0:0:
36,281,41110,1,0,1:0:0:0:
117,199,41289,1,0,3:0:0:0:
199,281,41467,1,0,0:0:0:0:
218,129,41646,6,0,P|257:109|298:107,1,80,4|0,0:0|0:0,0:0:0:0:
335,191,42003,1,0,0:0:0:0:
377,39,42182,2,0,P|397:78|399:119,1,80,2|0,0:0|0:0,0:0:0:0:
338,217,42539,1,0,0:0:0:0:
219,216,42717,2,0,P|248:248|260:287,1,80,2|0,0:0|0:0,0:0:0:0:
122,177,43075,6,0,P|145:140|180:117,1,80,0|0,3:0|0:0,0:0:0:0:
101,258,43431,1,0,0:0:0:0:
40,152,43610,1,2,0:0:0:0:
215,212,43788,5,0,3:0:0:0:
215,212,43967,1,0,0:0:0:0:
259,103,44146,5,2,0:0:0:0:
259,103,44325,1,0,0:0:0:0:
320,256,44503,5,0,3:0:0:0:
408,168,44682,1,0,0:0:0:0:
256,136,44860,5,0,3:0:0:0:
384,64,45039,1,0,0:0:0:0:
244,0,45217,5,0,3:0:0:0:
404,32,45396,1,0,3:0:0:0:
200,203,45575,1,0,0:0:0:0:
307,80,45753,6,0,P|341:103|363:136,1,80,4|0,0:0|0:0,0:0:0:0:
225,115,46110,1,0,3:0:0:0:
225,115,46200,1,0,3:0:0:0:
225,115,46289,1,0,1:0:0:0:
194,300,46467,1,0,1:0:0:0:
135,193,46646,5,0,1:0:0:0:
22,334,46825,1,0,1:0:0:0:
187,256,47182,5,2,0:0:0:0:
155,272,47271,1,2,0:0:0:0:
119,272,47360,2,0,P|54:214|79:138,1,160,4|0,0:0|1:0,0:0:0:0:
137,83,47896,2,0,L|60:54,2,80
203,144,48432,2,0,P|223:105|225:64,1,80,0|0,1:0|0:0,0:0:0:0:
295,188,48789,5,0,3:0:0:0:
390,148,48967,1,0,3:0:0:0:
375,251,49146,2,0,P|369:290|382:327,1,80,0|0,1:0|0:0,0:0:0:0:
280,278,49503,1,0,3:0:0:0:
216,339,49682,1,0,0:0:0:0:
131,314,49860,2,0,P|111:275|109:234,1,80,0|0,1:0|0:0,0:0:0:0:
54,146,50217,6,0,L|148:129,1,80,4|0,0:0|0:0,0:0:0:0:
206,211,50575,1,0,1:0:0:0:
251,66,50753,2,0,P|312:87|368:74,1,120,2|0,0:0|0:0,0:0:0:0:
387,58,51110,1,0,0:0:0:0:
432,203,51289,2,0,P|429:246|411:283,1,80,0|0,1:0|0:0,0:0:0:0:
252,320,51646,5,0,3:0:0:0:
340,219,51825,1,0,3:0:0:0:
208,194,52003,1,0,1:0:0:0:
227,105,52182,1,0,0:0:0:0:
227,105,52271,1,0,0:0:0:0:
227,105,52360,2,0,P|194:105|140:139,1,80,2|0,0:0|0:0,0:0:0:0:
189,222,52717,2,0,P|170:256|168:296,1,80,0|0,1:0|0:0,0:0:0:0:
270,371,53075,6,0,P|278:325|259:281,1,95.9999970703126,2|0,0:0|0:0,0:0:0:0:
364,246,53610,2,0,L|406:224,1,47.9999985351563
212,174,53967,2,0,L|254:152,1,47.9999985351563
160,283,54325,1,0,0:0:0:0:
160,283,55217,5,0,3:0:0:0:
51,362,55396,1,0,0:0:0:0:
83,213,55574,2,0,P|81:189|68:156,1,47.9999985351563
160,283,55932,6,0,P|211:302|265:284,1,95.9999970703126,2|0,0:0|0:0,0:0:0:0:
350,327,56467,2,0,L|407:298,1,47.9999985351563
421,179,56824,2,0,L|378:200,1,47.9999985351563
216,220,57182,1,0,0:0:0:0:
200,120,58075,6,0,P|167:97|127:97,1,64,2|0,0:0|0:0,0:0:0:0:
115,178,58432,6,0,P|85:203|74:240,1,80,0|0,3:0|0:0,0:0:0:0:
120,320,58789,5,4,0:0:0:0:
336,368,58967,1,0,0:0:0:0:
184,240,59146,5,0,3:0:0:0:
320,344,59325,1,0,3:0:0:0:
272,176,59503,5,0,3:0:0:0:
312,320,59682,1,0,3:0:0:0:
400,176,59860,5,0,3:0:0:0:
376,288,60039,1,0,3:0:0:0:
486,129,60217,5,0,1:0:0:0:
405,273,60396,1,0,3:0:0:0:
436,99,60575,5,0,1:0:0:0:
301,228,60753,1,0,3:0:0:0:
403,65,60932,5,0,1:0:0:0:
206,153,61110,1,0,3:0:0:0:
393,20,61289,5,0,1:0:0:0:
157,34,61467,1,0,3:0:0:0:
373,165,61646,5,4,1:0:0:0:
206,247,61825,1,0,3:0:0:0:
206,247,61914,1,0,3:0:0:0:
206,247,62003,1,0,3:0:0:0:
162,161,62182,5,4,1:0:0:0:
379,267,62361,1,0,3:0:0:0:
379,267,62450,1,0,3:0:0:0:
379,267,62539,1,0,3:0:0:0:
262,99,62717,6,0,B|250:61|250:61|262:23,1,80,0|0,1:0|0:0,0:0:0:0:
379,152,62896,2,0,B|397:209|397:209|379:266,1,120.000004577637,4|0,0:0|0:0,0:0:0:0:
167,246,63253,5,0,1:0:0:0:
298,211,63432,1,0,1:0:0:0:
112,179,63789,5,2,0:0:0:0:
95,186,63879,1,0,0:0:0:0:
82,198,63968,1,0,0:0:0:0:
75,215,64057,1,0,0:0:0:0:
74,233,64146,2,0,P|99:300|177:335,1,143.999995605469,0|0,3:1|0:0,0:0:0:0:
173,333,64503,6,0,P|207:314|270:313,1,95.9999970703126,4|0,0:0|0:0,0:0:0:0:
350,372,64860,1,0,1:0:0:0:
504,200,65039,1,0,0:0:0:0:
360,248,65217,1,0,0:0:0:0:
398,77,65396,2,0,P|416:111|418:174,1,95.9999970703126,0|0,0:0|1:0,0:0:0:0:
259,127,65753,1,0,0:0:0:0:
233,259,65932,6,0,P|286:256|337:237,1,95.9999970703126,2|0,0:0|0:0,0:0:0:0:
163,112,66289,2,0,P|195:145|242:155,1,95.9999970703126,0|0,1:0|0:0,0:0:0:0:
331,12,66646,1,2,0:0:0:0:
471,130,66825,5,0,0:0:0:0:
406,187,67003,1,0,1:0:0:0:
428,271,67182,1,0,0:0:0:0:
320,128,67360,6,0,P|282:104|201:100,1,95.9999970703126,4|0,0:0|0:0,0:0:0:0:
97,153,67717,1,0,1:0:0:0:
260,263,67896,6,0,P|223:246|184:242,1,80,2|0,0:0|0:0,0:0:0:0:
184,242,68253,1,0,0:0:0:0:
272,362,68432,6,0,P|355:294|348:215,1,191.999994140625,0|0,1:0|0:0,0:0:0:0:
442,250,68967,1,0,0:0:0:0:
399,121,69146,2,0,P|352:111|306:119,1,95.9999970703126,0|0,1:0|0:0,0:0:0:0:
126,21,69503,5,2,0:0:0:0:
157,141,69682,1,0,0:0:0:0:
246,53,69860,1,0,1:0:0:0:
246,53,70039,1,0,0:0:0:0:
267,307,70217,6,0,P|317:289|358:215,1,120,4|0,0:0|0:0,0:0:0:0:
435,209,70575,2,0,P|430:156|392:111,1,95.9999970703126,0|0,1:0|0:0,0:0:0:0:
261,80,70932,1,2,0:0:0:0:
258,167,71110,1,0,0:0:0:0:
191,222,71289,2,0,P|139:216|99:180,1,95.9999970703126,0|0,1:0|0:0,0:0:0:0:
368,253,71646,5,2,0:0:0:0:
258,167,71825,1,0,0:0:0:0:
416,80,72003,2,0,P|427:131|406:184,1,95.9999970703126,0|0,1:0|0:0,0:0:0:0:
253,341,72360,6,0,P|279:253|338:246,1,160,2|0,0:0|1:2,0:0:0:0:
128,183,72896,1,0,3:0:0:0:
139,212,72985,1,0,3:0:0:0:
164,232,73074,5,4,0:0:0:0:
323,107,73253,1,0,0:0:0:0:
204,160,73432,1,2,1:2:0:0:
332,256,73610,1,0,0:0:0:0:
409,133,73789,2,0,P|409:85|387:44,1,95.9999970703126,2|0,0:0|0:0,0:0:0:0:
317,167,74146,2,0,P|285:142|247:132,1,80,0|2,1:0|0:0,0:0:0:0:
227,137,74414,1,2,0:0:0:0:
210,148,74503,5,4,0:0:0:0:
411,265,74682,1,0,0:0:0:0:
219,309,74860,1,0,1:0:0:0:
344,80,75039,2,0,P|420:55|398:168,1,223.999993164063,4|0,0:1|1:0,0:0:0:0:
423,171,75485,1,0,3:0:0:0:
427,179,75575,1,0,3:0:0:0:
432,186,75664,1,0,3:0:0:0:
436,194,75753,1,0,3:0:0:0:
441,201,75842,1,0,3:0:0:0:
446,208,75932,6,0,P|397:198|334:221,1,95.9999970703126,4|0,0:0|0:0,0:0:0:0:
225,290,76289,1,0,1:0:0:0:
148,152,76467,2,0,P|149:112|179:57,1,95.9999970703126,2|0,0:0|0:0,0:0:0:0:
252,138,76825,1,2,0:0:0:0:
384,90,77003,1,0,1:0:0:0:
359,228,77182,1,2,0:0:0:0:
298,60,77360,5,0,0:0:0:0:
298,60,77538,1,0,0:0:0:0:
162,137,77717,2,0,P|163:97|193:42,1,95.9999970703126,0|0,1:0|0:0,0:0:0:0:
227,208,78075,5,0,3:0:0:0:
282,81,78254,1,0,0:0:0:0:
188,48,78432,5,0,1:0:0:0:
257,223,78610,1,0,0:0:0:0:
379,134,78789,6,0,L|409:225,1,80,4|0,0:0|0:0,0:0:0:0:
431,288,79146,1,0,1:0:0:0:
291,83,79325,6,0,L|261:174,1,95.9999970703126,4|0,0:0|0:0,0:0:0:0:
213,304,79682,1,0,0:0:0:0:
27,203,79860,6,0,P|116:207|143:122,1,191.999994140625,4|0,1:0|0:0,0:0:0:0:
216,50,80396,1,2,0:0:0:0:
242,90,80485,1,0,0:0:0:0:
261,54,80575,1,0,1:0:0:0:
280,84,80664,1,0,0:0:0:0:
301,60,80753,2,0,L|353:55,1,47.9999985351563
399,226,80932,5,2,0:0:0:0:
437,110,81110,1,0,0:0:0:0:
365,246,81289,5,0,1:0:0:0:
309,137,81467,1,0,3:0:0:0:
244,236,81646,5,4,0:0:0:0:
244,236,81825,1,0,0:0:0:0:
300,49,82003,2,0,P|351:58|386:89,1,95.9999970703126,0|0,1:0|0:0,0:0:0:0:
209,98,82360,2,0,P|162:76|136:37,1,95.9999970703126
338,269,82717,1,0,1:0:0:0:
177,194,82896,1,2,0:2:0:0:
177,194,82985,1,2,0:0:0:0:
177,194,83075,6,0,P|156:239|186:332,1,143.999995605469
163,346,83432,2,0,P|123:319|76:316,1,95.9999970703126,0|0,1:0|0:0,0:0:0:0:
255,259,83789,2,0,L|351:259,1,95.9999970703126,2|0,0:0|0:0,0:0:0:0:
201,180,84146,1,0,1:0:0:0:
304,100,84325,1,0,0:0:0:0:
322,228,84503,6,0,L|322:325,1,95.9999970703126,4|0,0:0|0:0,0:0:0:0:
127,211,84860,1,0,1:0:0:0:
271,98,85039,1,0,0:0:0:0:
338,208,85217,6,0,L|338:296,1,80,2|0,0:0|0:0,0:0:0:0:
201,180,85575,1,0,1:0:0:0:
304,100,85754,1,0,0:0:0:0:
354,188,85932,6,0,L|354:276,1,64,2|0,0:0|0:0,0:0:0:0:
289,77,86289,1,0,1:0:0:0:
207,171,86468,1,0,3:0:0:0:
207,171,86557,1,0,3:0:0:0:
207,171,86646,2,0,L|207:124,1,47.9999985351563,0|0,3:0|0:0,0:0:0:0:
376,176,86825,5,0,1:0:0:0:
366,229,86914,1,0,3:0:0:0:
327,267,87003,1,0,3:0:0:0:
273,276,87092,1,0,3:0:0:0:
225,252,87182,1,0,3:0:0:0:
88,144,87360,5,4,1:0:0:0:
376,64,87539,1,0,0:0:0:0:
202,207,87717,1,0,1:0:0:0:
208,10,87896,5,4,0:0:0:0:
356,233,88075,1,0,1:0:0:0:
120,331,88253,1,0,1:0:0:0:
120,331,88342,1,0,3:0:0:0:
120,331,88432,2,0,L|152:258,1,47.9999985351563,0|0,3:0|0:0,0:0:0:0:
198,123,88610,5,0,1:0:0:0:
400,240,91110,5,0,0:0:0:0:
281,125,91289,1,0,1:0:0:0:
274,122,91378,1,0,3:0:0:0:
267,119,91467,1,0,3:0:0:0:
260,116,91557,1,0,3:0:0:0:
253,113,91646,6,0,P|213:116|178:135,1,80,4|0,0:0|0:0,0:0:0:0:
246,308,92003,1,0,1:0:0:0:
294,213,92182,2,0,P|333:216|368:235,1,80
184,230,92539,1,0,0:0:0:0:
333,105,92717,2,0,P|298:86|258:82,1,80,0|0,1:0|0:0,0:0:0:0:
139,131,93075,5,2,0:0:0:0:
139,131,93253,1,0,0:0:0:0:
184,230,93432,2,0,P|180:269|161:304,1,80,0|0,1:0|0:0,0:0:0:0:
271,354,93789,5,2,0:0:0:0:
271,354,93967,1,0,0:0:0:0:
340,270,94146,2,0,P|346:230|337:192,1,80,0|0,1:0|0:0,0:0:0:0:
274,91,94503,5,2,0:0:0:0:
221,190,94682,1,0,0:0:0:0:
121,137,94860,1,0,1:0:0:0:
74,238,95039,2,0,P|97:270|130:291,1,80
229,197,95396,5,2,0:0:0:0:
315,265,95575,1,2,1:2:0:0:
325,145,95753,2,0,P|301:112|268:91,1,80
323,273,96110,1,0,0:0:0:0:
323,273,96289,1,0,1:0:0:0:
422,143,96467,1,0,3:0:0:0:
422,143,96556,1,0,3:0:0:0:
422,143,96646,2,0,P|458:126|497:125,1,80,2|0,0:0|0:0,0:0:0:0:
339,136,97003,5,2,1:2:0:0:
348,183,97122,5,2,0:0:0:0:
382,215,97241,5,0,0:0:0:0:
427,230,97360,6,0,P|443:266|444:305,1,80,4|0,0:0|0:0,0:0:0:0:
387,374,97717,1,0,1:0:0:0:
279,338,97896,2,0,P|309:295|360:294,1,95.9999970703126
179,262,98253,5,2,0:0:0:0:
200,373,98432,1,0,1:0:0:0:
106,227,98610,2,0,P|70:210|31:209,1,80,2|0,0:0|0:0,0:0:0:0:
205,280,98967,5,0,0:0:0:0:
295,149,99146,1,0,1:0:0:0:
357,296,99325,2,0,P|333:328|300:349,1,80,2|0,0:0|0:0,0:0:0:0:
203,172,99682,5,0,0:0:0:0:
379,212,99860,1,0,1:0:0:0:
379,212,99950,1,0,3:0:0:0:
379,212,100039,1,0,3:0:0:0:
170,87,100217,5,4,0:0:0:0:
379,212,100396,1,0,0:0:0:0:
238,265,100575,1,0,1:0:0:0:
238,265,100754,1,0,0:0:0:0:
317,97,100932,2,0,P|315:136|299:172,1,80
243,63,101289,5,2,1:2:0:0:
305,256,101468,1,0,0:0:0:0:
409,138,101646,2,0,P|409:92|384:31,1,95.9999970703126,4|0,0:0|0:0,0:0:0:0:
272,164,102003,1,0,1:0:0:0:
390,246,102182,2,0,P|435:243|494:212,1,95.9999970703126,2|0,0:0|0:0,0:0:0:0:
317,305,102539,1,2,0:0:0:0:
317,305,102717,1,0,1:0:0:0:
198,193,102896,1,0,0:0:0:0:
198,193,103253,5,4,1:0:0:0:
392,155,103432,1,0,1:0:0:0:
198,193,103789,5,0,1:0:0:0:
454,281,103968,1,0,1:0:0:0:
326,237,104325,5,4,0:0:0:0:
277,377,104682,5,0,1:0:0:0:
374,96,104861,1,0,1:0:0:0:
