osu file format v14

[General]
AudioFilename: bubble.mp3
AudioLeadIn: 0
PreviewTime: 138
Countdown: 0
SampleSet: Soft
StackLeniency: 0.7
Mode: 0
LetterboxInBreaks: 0
WidescreenStoryboard: 0

[Editor]
Bookmarks: 10411,11661,52732,58804,61661,86661,88625
DistanceSpacing: 0.2
BeatDivisor: 4
GridSize: 8
TimelineZoom: 1

[Metadata]
Title:Love's Oracle
TitleUnicode:Love's Oracle
Artist:Sasaki Sayaka
ArtistUnicode:佐咲紗花
Creator:Another Flower
Version:Fia's Hard
Source:保健室のセンセーとシャボン玉中毒の助手
Tags:Hokenshitsu no Sensei to Shabondama Chuudoku no Joshu Hokejo loves citrus Arte Refact japanese pop jpop opening eroge galgame visual novel fia pinkheart fushimi rio
BeatmapID:3020022
BeatmapSetID:1471031

[Difficulty]
HPDrainRate:5
CircleSize:3.8
OverallDifficulty:6
ApproachRate:8
SliderMultiplier:1.6
SliderTickRate:1

[Events]
//Background and Video events
0,0,"pic05.jpg",0,0
//Break Periods
//Storyboard Layer 0 (Background)
//Storyboard Layer 1 (Fail)
//Storyboard Layer 2 (Pass)
//Storyboard Layer 3 (Foreground)
//Storyboard Layer 4 (Overlay)
//Storyboard Sound Samples

[TimingPoints]
218,357.142857142857,4,2,0,50,1,0
218,-133.333333333333,4,2,0,50,0,0
8789,-100,4,2,0,70,0,0
11646,-200,4,2,0,70,0,0
13075,-133.333333333333,4,2,0,50,0,0
22003,-100,4,2,0,70,0,0
35932,-100,4,2,0,50,0,0
36825,-133.333333333333,4,2,0,50,0,0
37360,-100,4,2,0,50,0,0
38253,-133.333333333333,4,2,0,50,0,0
38789,-100,4,2,0,50,0,0
39682,-133.333333333333,4,2,0,50,0,0
40217,-100,4,2,0,50,0,0
53075,-200,4,2,0,50,0,0
58075,-200,4,2,0,70,0,0
58789,-133.333333333333,4,2,0,80,0,0
59146,-100,4,2,0,80,0,0
63789,-133.333333333333,4,2,0,80,0,0
64503,-100,4,2,0,80,0,1
86646,-100,4,2,0,80,0,0
87360,-100,4,2,0,80,0,1
88610,-100,4,2,0,70,0,0
91646,-100,4,2,0,70,0,0

[Colours]
Combo1 : 255,128,128
Combo2 : 255,128,255
Combo3 : 128,236,255

[HitObjects]
152,170,218,6,0,L|99:198,1,60.0000022888184,4|0,0:0|0:0,0:0:0:0:
33,240,575,1,0,0:0:0:0:
13,130,753,1,0,0:0:0:0:
105,278,1110,1,0,0:0:0:0:
105,278,1289,2,0,P|166:321|328:333,1,240.000009155274,2|0,0:0|0:0,0:0:0:0:
332,123,2360,6,0,P|275:135|249:187,1,120.000004577637,0|0,0:0|0:0,0:0:0:0:
459,98,3075,6,0,P|429:98|401:89,1,60.0000022888184,2|0,0:0|0:0,0:0:0:0:
335,48,3432,1,0,0:0:0:0:
442,21,3610,1,0,0:0:0:0:
360,173,3967,1,0,0:0:0:0:
360,173,4146,2,0,P|298:216|136:228,1,240.000009155274,2|0,0:0|0:0,0:0:0:0:
40,103,5217,6,0,P|8:131|-3:154,1,60.0000022888184,2|0,0:0|0:0,0:0:0:0:
120,90,5575,2,0,P|111:63|102:50,2,40.000001525879,0|0|0,0:0|0:0|0:0,0:0:0:0:
121,113,5932,6,0,P|174:130|247:34,1,180.000006866455,4|0,0:1|0:0,0:0:0:0:
329,205,6825,1,2,0:0:0:0:
329,205,7003,1,0,0:0:0:0:
381,125,7182,6,0,L|321:115,1,60.0000022888184,4|0,0:0|0:0,0:0:0:0:
435,61,7539,1,0,3:0:0:0:
435,61,7628,1,0,3:0:0:0:
435,61,7717,1,0,3:0:0:0:
413,218,7896,2,0,P|449:274|518:291,1,120.000004577637,4|0,1:0|0:0,0:0:0:0:
457,152,8432,2,0,P|416:138|391:140,1,60.0000022888184,0|0,1:0|0:0,0:0:0:0:
336,243,8789,6,0,P|296:244|259:229,1,80,4|0,0:0|0:0,0:0:0:0:
196,110,9146,2,0,P|197:149|182:186,1,80,0|0,1:0|0:0,0:0:0:0:
25,136,9503,1,2,0:0:0:0:
25,136,9682,1,0,0:0:0:0:
72,64,9860,1,0,1:0:0:0:
71,211,10039,6,0,P|142:182|156:107,1,160,4|0,0:0|1:0,0:0:0:0:
241,128,10575,1,0,1:0:0:0:
156,107,10753,1,0,1:0:0:0:
234,46,10932,5,4,1:0:0:0:
261,133,11110,1,0,1:0:0:0:
317,53,11289,5,0,1:1:0:0:
341,131,11467,1,0,3:0:0:0:
400,60,11646,6,0,B|442:49|442:49|472:107|446:163,1,160,4|0,0:0|0:0,0:0:0:0:
371,199,12717,1,0,0:0:0:0:
296,234,13075,5,4,0:0:0:0:
296,234,13253,2,0,P|269:230|219:207,1,60.0000022888184,0|0,0:0|3:0,0:0:0:0:
144,277,13610,2,0,P|148:250|171:200,1,60.0000022888184,0|2,0:0|0:0,0:0:0:0:
101,125,13967,2,0,P|128:129|178:152,1,60.0000022888184,0|0,0:0|3:0,0:0:0:0:
220,52,14325,6,0,P|251:119|292:141,1,120.000004577637,2|0,0:0|0:0,0:0:0:0:
375,108,14860,2,0,P|385:79|387:49,1,60.0000022888184,0|0,3:0|0:0,0:0:0:0:
387,50,15217,1,2,0:0:0:0:
357,197,15575,1,0,3:0:0:0:
504,228,15932,5,0,0:0:0:0:
504,228,16110,2,0,P|477:232|427:255,1,60.0000022888184,0|0,0:0|3:0,0:0:0:0:
390,309,16467,2,0,P|379:334|374:389,1,60.0000022888184,0|2,0:0|0:0,0:0:0:0:
363,229,16825,2,0,P|337:218|282:213,1,60.0000022888184,0|0,0:0|3:0,0:0:0:0:
212,280,17182,6,0,P|153:276|107:238,1,120.000004577637,2|0,0:0|0:0,0:0:0:0:
32,178,17717,2,0,P|28:205|5:255,1,60.0000022888184,0|0,3:0|0:0,0:0:0:0:
16,235,18075,1,2,0:0:0:0:
5,91,18432,1,0,3:0:0:0:
5,91,18610,1,0,0:0:0:0:
86,107,18789,6,0,P|141:86|174:37,1,120.000004577637,2|0,0:0|3:0,0:0:0:0:
174,36,19325,1,0,0:0:0:0:
198,153,19503,2,0,P|254:142|317:143,1,120.000004577637,2|0,0:0|3:0,0:0:0:0:
394,165,20039,1,0,0:0:0:0:
453,102,20217,6,0,P|468:121|506:143,1,60.0000022888184,0|0,0:0|0:0,0:0:0:0:
431,236,20575,2,0,P|455:238|497:227,1,60.0000022888184,0|0,3:0|0:0,0:0:0:0:
394,164,20932,2,0,P|346:199|327:255,1,120.000004577637,2|0,0:0|3:0,0:0:0:0:
327,255,21467,1,0,0:0:0:0:
272,324,21646,6,0,L|205:311,1,60.0000022888184,4|0,0:0|0:0,0:0:0:0:
182,212,22003,2,0,L|101:196,1,80,0|0,1:0|1:0,0:0:0:0:
31,311,22360,1,0,1:0:0:0:
31,311,22539,1,0,1:0:0:0:
31,311,22717,1,0,3:0:0:0:
15,192,22896,6,0,P|46:127|132:111,1,160,4|0,1:0|1:0,0:0:0:0:
126,110,23432,1,0,1:0:0:0:
224,185,23610,2,0,P|281:181|307:167,1,80,4|0,0:0|0:0,0:0:0:0:
421,42,23967,1,0,1:0:0:0:
421,42,24057,1,0,3:0:0:0:
421,42,24146,2,0,L|444:93,2,40,0|0|0,3:0|0:0|0:0,0:0:0:0:
352,90,24503,6,0,P|295:86|269:72,1,80,4|0,0:0|0:0,0:0:0:0:
182,98,24860,2,0,P|186:41|200:15,1,80,0|0,1:0|0:0,0:0:0:0:
244,161,25217,1,0,0:0:0:0:
182,223,25396,1,0,0:0:0:0:
185,226,25575,1,0,1:0:0:0:
123,164,25753,6,0,P|46:178|11:246,1,160,2|0,0:0|0:0,0:0:0:0:
59,324,26289,2,0,L|141:309,1,80,0|0,1:0|0:0,0:0:0:0:
148,315,26557,1,0,3:0:0:0:
158,319,26646,2,0,L|242:304,1,80,2|0,3:2|0:0,0:0:0:0:
310,224,27003,2,0,P|367:228|418:272,1,120,0|0,1:0|0:0,0:0:0:0:
417,277,27360,6,0,P|448:229|474:214,1,80,2|0,0:0|0:0,0:0:0:0:
394,367,27717,2,0,P|346:335|331:309,1,80,0|0,1:0|0:0,0:0:0:0:
317,194,28075,1,0,0:0:0:0:
253,240,28253,1,0,0:0:0:0:
244,161,28432,1,0,1:0:0:0:
317,194,28610,6,0,P|268:254|154:270,1,160,2|0,0:0|0:0,0:0:0:0:
36,238,29146,1,0,1:0:0:0:
87,364,29325,1,0,3:0:0:0:
87,364,29414,1,0,3:0:0:0:
87,364,29503,2,0,L|109:279,1,80,2|0,3:2|0:0,0:0:0:0:
131,196,29860,2,0,L|153:111,1,80,0|0,1:0|0:0,0:0:0:0:
134,24,30217,6,0,P|169:92|245:105,1,160,4|0,0:0|1:0,0:0:0:0:
324,66,30753,1,0,0:0:0:0:
322,154,30932,2,0,P|414:140|487:144,1,160,0|0,0:0|1:0,0:0:0:0:
480,143,31467,1,0,0:0:0:0:
430,294,31646,5,0,1:0:0:0:
363,249,31825,1,0,1:0:0:0:
408,182,32003,1,0,3:0:0:0:
475,227,32182,2,0,L|459:310,1,80,4|0,1:0|0:0,0:0:0:0:
363,249,32539,1,0,0:0:0:0:
363,249,32717,2,0,L|347:332,1,80,0|0,1:0|3:0,0:0:0:0:
259,372,33075,6,0,P|223:303|153:291,1,120,4|0,0:0|0:0,0:0:0:0:
168,297,33432,2,0,P|111:293|85:279,1,80,0|0,1:0|0:0,0:0:0:0:
149,203,33789,1,0,3:0:0:0:
149,203,33967,1,0,3:0:0:0:
124,110,34146,1,0,1:0:0:0:
57,178,34325,6,0,P|56:217|70:254,1,80,4|0,0:1|0:0,0:0:0:0:
216,140,34682,1,0,0:0:0:0:
230,245,34860,1,0,1:0:0:0:
216,140,35039,5,0,3:0:0:0:
219,143,35128,1,0,3:0:0:0:
222,146,35217,2,0,P|298:149|347:90,1,160,2|0,3:2|1:0,0:0:0:0:
506,257,35932,6,0,L|427:239,1,80,4|0,0:0|0:0,0:0:0:0:
427,239,36289,1,0,0:0:0:0:
357,292,36467,1,0,1:0:0:0:
275,143,36825,2,0,L|353:125,1,60.0000022888184,0|0,0:0|3:0,0:0:0:0:
251,316,37360,6,0,L|233:237,1,80,2|0,0:0|0:0,0:0:0:0:
233,237,37717,1,0,0:0:0:0:
145,213,37895,1,0,1:0:0:0:
56,133,38253,5,0,0:0:0:0:
28,239,38431,1,0,3:0:0:0:
138,107,38789,6,0,L|156:28,1,80,2|0,0:0|0:0,0:0:0:0:
156,28,39146,1,0,0:0:0:0:
243,0,39324,1,0,1:0:0:0:
251,205,39682,2,0,L|173:187,1,60.0000022888184,0|0,0:0|3:0,0:0:0:0:
350,150,40217,6,0,L|428:132,1,80,2|0,0:0|0:0,0:0:0:0:
428,132,40575,1,0,3:0:0:0:
402,226,40753,1,0,0:0:0:0:
496,206,40932,1,0,1:0:0:0:
444,305,41110,5,0,1:0:0:0:
406,230,41288,1,0,3:0:0:0:
492,233,41467,1,0,0:0:0:0:
447,308,41646,6,0,P|397:337|296:340,1,160,4|0,0:0|0:0,0:0:0:0:
370,363,42182,2,0,P|312:364|222:317,1,160,2|0,0:0|0:0,0:0:0:0:
199,342,42717,2,0,P|175:309|160:272,1,80,2|0,0:0|0:0,0:0:0:0:
138,132,43075,6,0,P|107:197|21:213,1,160,0|0,3:0|0:0,0:0:0:0:
26,214,43610,1,2,0:0:0:0:
75,340,43789,1,0,3:0:0:0:
131,284,43967,1,0,0:0:0:0:
131,284,44146,2,0,L|213:294,1,80,2|0,0:0|0:0,0:0:0:0:
270,234,44503,5,0,3:0:0:0:
270,234,44682,1,0,0:0:0:0:
347,198,44860,5,0,3:0:0:0:
347,198,45039,1,0,0:0:0:0:
430,183,45217,5,0,3:0:0:0:
430,183,45396,2,0,P|455:234|455:263,1,80,0|0,3:0|0:0,0:0:0:0:
494,106,45753,5,4,0:0:0:0:
494,106,46110,2,0,L|504:62,2,40,0|0|0,3:0|3:0|1:0,0:0:0:0:
422,152,46467,1,0,1:0:0:0:
382,57,46646,1,0,1:0:0:0:
320,140,46825,1,0,1:0:0:0:
109,160,47360,6,0,P|33:143|0:73,1,160,4|0,0:0|1:0,0:0:0:0:
135,12,47896,2,0,P|158:44|168:82,1,80,0|0,0:0|0:0,0:0:0:0:
241,142,48253,1,0,0:0:0:0:
241,142,48432,2,0,P|234:181|214:215,1,80,0|0,1:0|0:0,0:0:0:0:
166,345,48789,6,0,P|105:294|27:287,2,160,0|0|0,3:0|1:0|3:0,0:0:0:0:
237,294,49682,1,0,0:0:0:0:
237,294,49860,2,0,P|275:284|307:260,1,80,0|0,1:0|0:0,0:0:0:0:
477,218,50217,6,0,P|399:221|349:162,1,160,4|0,0:0|1:0,0:0:0:0:
460,67,50753,2,0,P|454:106|434:141,1,80,2|0,0:0|0:0,0:0:0:0:
304,93,51110,1,0,0:0:0:0:
304,93,51289,2,0,P|310:53|330:19,1,80,0|0,1:0|0:0,0:0:0:0:
217,115,51646,5,0,3:0:0:0:
139,73,51825,1,0,3:0:0:0:
101,155,52003,2,0,P|90:193|94:232,1,80,0|2,1:0|0:0,0:0:0:0:
94,233,52271,1,2,0:0:0:0:
94,233,52360,2,0,L|1:220,1,80,2|0,0:0|0:0,0:0:0:0:
165,277,52717,2,0,L|258:264,1,80,0|0,1:0|0:0,0:0:0:0:
96,369,53075,5,2,0:0:0:0:
331,251,55217,6,0,L|410:262,2,80,0|0|2,3:0|0:0|0:0,0:0:0:0:
38,102,58075,6,0,L|158:85,1,120,2|0,0:0|0:0,0:0:0:0:
222,140,58789,6,0,P|240:98|238:64,1,60.0000022888184,4|0,0:0|0:0,0:0:0:0:
323,74,59146,6,0,P|306:31|280:8,1,80,0|0,3:0|3:0,0:0:0:0:
318,165,59503,5,0,3:0:0:0:
318,165,59682,1,0,3:0:0:0:
401,130,59860,5,0,3:0:0:0:
401,130,60039,1,0,3:0:0:0:
454,271,60217,6,0,L|471:187,1,80,0|0,1:0|3:0,0:0:0:0:
324,282,60575,2,0,L|341:198,1,80,0|0,1:0|3:0,0:0:0:0:
421,346,60932,6,0,L|438:262,1,80,0|0,1:0|3:0,0:0:0:0:
290,357,61290,2,0,L|307:273,1,80,0|0,1:0|0:0,0:0:0:0:
201,320,61646,5,4,1:0:0:0:
156,182,61825,2,0,L|139:133,2,40,0|0|0,3:0|3:0|3:0,0:0:0:0:
108,314,62182,5,4,1:0:0:0:
65,184,62361,2,0,L|51:146,2,40,0|0|0,3:0|3:0|3:0,0:0:0:0:
15,308,62717,5,0,1:0:0:0:
14,308,62896,2,0,B|93:284|97:341|177:317,1,160,4|0,0:0|1:0,0:0:0:0:
256,192,63432,1,0,1:0:0:0:
278,218,63789,6,0,L|397:204,1,120,2|0,0:0|3:1,0:0:0:0:
394,2,64503,6,0,P|329:33|313:119,1,160,4|0,0:0|1:0,0:0:0:0:
311,113,65039,1,0,0:0:0:0:
455,141,65217,2,0,P|430:110|396:91,1,80,0|0,0:0|0:0,0:0:0:0:
305,202,65575,2,0,P|330:233|364:252,1,80,0|0,1:0|0:0,0:0:0:0:
472,228,65932,6,0,L|424:393,2,160,2|0|2,0:0|1:0|0:0,0:0:0:0:
472,228,66825,1,0,0:0:0:0:
365,187,67003,2,0,P|325:193|292:213,1,80,0|0,1:0|0:0,0:0:0:0:
195,269,67360,6,0,P|118:254|83:186,1,160,4|0,0:0|1:0,0:0:0:0:
90,45,67896,2,0,P|118:72|134:108,1,80,2|0,0:0|0:0,0:0:0:0:
223,84,68253,1,0,0:0:0:0:
223,84,68432,2,0,P|223:123|209:160,1,80,0|0,1:0|0:0,0:0:0:0:
297,208,68789,5,0,0:0:0:0:
357,145,68967,1,0,0:0:0:0:
433,188,69146,2,0,P|453:222|459:261,1,80,0|0,1:0|0:0,0:0:0:0:
380,317,69503,2,0,L|299:332,2,80,2|0|0,0:0|0:0|1:0,0:0:0:0:
468,353,70039,1,0,0:0:0:0:
365,294,70217,6,0,L|203:324,1,160,4|0,0:0|1:0,0:0:0:0:
121,339,70753,1,0,0:0:0:0:
143,174,70932,2,0,P|153:212|149:251,1,80,2|0,0:0|0:0,0:0:0:0:
88,314,71289,2,0,L|7:329,1,80,0|0,1:0|0:0,0:0:0:0:
179,247,71646,6,0,L|257:232,1,80,2|0,0:0|0:0,0:0:0:0:
343,268,72003,1,0,1:0:0:0:
343,268,72182,1,0,0:0:0:0:
399,190,72360,2,0,P|363:121|287:107,1,160,2|0,0:0|1:0,0:0:0:0:
215,153,72896,5,0,3:0:0:0:
215,153,72985,1,0,3:0:0:0:
215,153,73075,2,0,P|176:143|144:119,1,80,4|0,0:0|0:0,0:0:0:0:
59,166,73432,2,0,P|48:127|52:88,1,80,2|0,1:2|0:0,0:0:0:0:
125,221,73789,2,0,L|105:309,1,80,2|0,0:0|0:0,0:0:0:0:
202,275,74146,2,0,L|182:363,1,80,0|2,1:0|0:0,0:0:0:0:
184,353,74414,1,2,0:0:0:0:
184,353,74503,5,4,0:0:0:0:
279,306,74682,1,0,0:0:0:0:
292,384,74860,1,0,1:0:0:0:
382,332,75039,2,0,P|422:331|459:346,1,80,4|0,0:1|0:0,0:0:0:0:
498,220,75396,1,0,1:0:0:0:
498,220,75485,1,0,3:0:0:0:
498,220,75575,2,0,L|517:267,2,40,0|0|0,3:0|0:0|0:0,0:0:0:0:
416,144,75932,6,0,P|380:212|304:227,1,160,4|0,0:0|1:0,0:0:0:0:
266,101,76467,2,0,P|298:77|335:67,1,80,2|0,0:0|0:0,0:0:0:0:
227,187,76825,1,0,0:0:0:0:
227,187,77003,1,0,1:0:0:0:
171,116,77182,6,0,P|117:148|20:161,1,160,2|2,0:0|0:0,0:0:0:0:
109,241,77717,1,0,1:0:0:0:
109,241,77896,1,0,3:0:0:0:
12,251,78075,2,0,P|11:290|25:327,1,80,0|0,3:0|0:0,0:0:0:0:
119,350,78432,1,0,1:0:0:0:
187,295,78610,1,0,0:0:0:0:
266,349,78789,6,0,P|341:334|377:265,1,160,4|0,0:0|1:0,0:0:0:0:
272,122,79325,6,0,P|246:195|288:260,1,160,4|0,0:0|0:0,0:0:0:0:
394,237,79860,6,0,L|491:237,1,80,4|0,1:0|0:0,0:0:0:0:
493,259,80396,5,2,0:0:0:0:
512,149,80575,2,0,L|432:149,1,80,0|0,1:0|0:0,0:0:0:0:
420,149,80842,1,0,0:0:0:0:
407,149,80932,1,2,0:0:0:0:
337,82,81110,1,0,0:0:0:0:
337,82,81289,2,0,P|320:118|292:145,1,80,0|0,1:0|3:0,0:0:0:0:
201,114,81646,6,0,L|186:29,2,80,4|0|0,0:0|0:0|1:0,0:0:0:0:
137,180,82182,2,0,P|98:168|59:172,1,80,0|0,0:0|0:0,0:0:0:0:
36,290,82539,1,0,0:0:0:0:
117,323,82717,1,0,1:0:0:0:
190,274,82896,6,0,P|256:258|351:262,1,160,2|0,0:0|0:0,0:0:0:0:
415,327,83432,1,0,1:0:0:0:
415,327,83610,1,0,0:0:0:0:
503,206,83789,2,0,P|506:245|494:283,1,80,2|0,0:0|0:0,0:0:0:0:
433,146,84146,2,0,P|465:122|504:114,1,80,0|0,1:0|0:0,0:0:0:0:
382,224,84503,6,0,P|305:209|269:141,1,160,4|0,0:0|1:0,0:0:0:0:
124,227,85217,6,0,L|204:235,2,80,2|0|0,0:0|0:0|1:0,0:0:0:0:
124,227,85753,1,0,0:0:0:0:
52,279,85932,6,0,P|38:241|39:202,1,80,2|0,0:0|0:0,0:0:0:0:
135,318,86289,2,0,P|109:348|74:367,1,80,0|0,1:0|3:0,0:0:0:0:
212,243,86646,5,0,3:0:0:0:
236,350,86825,1,0,1:0:0:0:
236,350,86914,1,0,3:0:0:0:
236,350,87003,2,0,L|287:360,2,40,0|0|0,3:0|0:0|0:0,0:0:0:0:
308,274,87360,6,0,L|410:254,1,80,4|0,1:0|0:0,0:0:0:0:
472,283,87717,1,0,1:0:0:0:
493,171,87896,6,0,L|391:151,1,80,4|0,0:0|1:0,0:0:0:0:
329,180,88253,1,0,1:0:0:0:
389,70,88432,5,0,3:0:0:0:
304,95,88610,1,0,1:0:0:0:
53,197,91110,1,0,0:0:0:0:
53,197,91289,2,0,L|138:208,1,80,0|0,1:0|3:0,0:0:0:0:
223,176,91646,5,4,0:0:0:0:
223,176,91825,2,0,P|237:138|236:99,2,80,0|0|0,0:0|1:0|0:0,0:0:0:0:
288,239,92360,1,0,0:0:0:0:
365,196,92539,1,0,0:0:0:0:
367,283,92717,6,0,P|398:348|484:364,1,160,0|2,1:0|0:0,0:0:0:0:
501,216,93253,1,0,0:0:0:0:
501,216,93432,2,0,P|463:202|424:203,1,80,0|0,1:0|0:0,0:0:0:0:
351,148,93789,1,2,0:0:0:0:
290,211,93967,1,0,0:0:0:0:
202,220,94146,2,0,P|167:200|141:170,1,80,0|0,1:0|0:0,0:0:0:0:
255,294,94503,5,2,0:0:0:0:
255,294,94682,2,0,P|255:333|242:371,2,80,0|0|0,0:0|1:0|0:0,0:0:0:0:
163,314,95217,1,0,0:0:0:0:
202,220,95396,5,2,0:0:0:0:
105,226,95575,1,2,1:2:0:0:
202,220,95753,2,0,P|215:182|214:142,1,80,0|0,0:0|0:0,0:0:0:0:
81,149,96110,5,0,0:0:0:0:
81,149,96288,2,0,P|67:111|68:71,1,80,0|0,1:0|0:0,0:0:0:0:
118,231,96646,2,0,P|69:238|40:231,1,80,2|0,0:0|0:0,0:0:0:0:
187,171,97004,2,0,P|204:199|209:217,2,53.3333333333333,0|0|0,1:0|3:0|0:0,0:0:0:0:
168,152,97360,5,4,0:0:0:0:
168,152,97539,2,0,P|167:112|180:74,2,80,0|0|0,0:0|1:0|0:0,0:0:0:0:
261,127,98075,1,0,0:0:0:0:
292,44,98253,1,2,0:0:0:0:
347,112,98432,1,0,1:0:0:0:
347,112,98610,2,0,P|382:129|422:132,1,80,2|0,0:0|0:0,0:0:0:0:
496,89,98967,5,0,0:0:0:0:
437,222,99146,1,0,1:0:0:0:
437,222,99325,2,0,P|472:204|512:201,1,80,2|0,0:0|0:0,0:0:0:0:
453,308,99682,1,0,0:0:0:0:
370,280,99860,1,0,1:0:0:0:
370,280,99950,1,0,3:0:0:0:
370,280,100039,1,0,3:0:0:0:
313,358,100217,6,0,P|221:344|148:348,2,160,4|0|0,0:0|1:0|0:0,0:0:0:0:
313,358,101110,1,0,0:0:0:0:
362,241,101289,1,2,1:2:0:0:
270,265,101467,1,0,0:0:0:0:
206,160,101646,6,0,P|203:199|185:235,1,80,4|0,0:0|0:0,0:0:0:0:
4,261,102003,1,0,1:0:0:0:
4,261,102182,2,0,P|37:191|113:175,1,160,2|2,0:0|0:0,0:0:0:0:
116,343,102717,1,0,1:0:0:0:
90,259,102896,1,0,0:0:0:0:
256,136,103254,5,4,1:0:0:0:
256,136,103432,1,0,1:0:0:0:
422,259,103789,5,0,1:0:0:0:
396,343,103968,1,0,1:0:0:0:
448,175,104325,5,4,0:0:0:0:
337,278,104682,5,0,1:0:0:0:
480,323,104861,1,0,1:0:0:0:
