osu file format v14

[General]
AudioFilename: hokenshitsu.ogg
AudioLeadIn: 0
PreviewTime: 64013
Countdown: 0
SampleSet: Normal
StackLeniency: 0.7
Mode: 1
LetterboxInBreaks: 0
WidescreenStoryboard: 1

[Editor]
Bookmarks: 13388,24816,36245,47673,76245
DistanceSpacing: 1
BeatDivisor: 4
GridSize: 32
TimelineZoom: 1.4

[Metadata]
Title:Love's Oracle
TitleUnicode:Love's Oracle
Artist:Sasaki Sayaka
ArtistUnicode:佐咲紗花
Creator:[R]
Version:Zhuosh's Muzukashii
Source:保健室のセンセーとシャボン玉中毒の助手
Tags:ron Zhuosh Hokenshitsu no Sensei to Shabondama Chuudoku no Joshu citrus loves eroge visual novel video game opening japanese pop jpop
BeatmapID:2822109
BeatmapSetID:1363594

[Difficulty]
HPDrainRate:6
CircleSize:5
OverallDifficulty:4
ApproachRate:5
SliderMultiplier:1.4
SliderTickRate:1

[Events]
//Background and Video events
0,0,"shiro.png",0,40
Video,0,"vid.mp4"
//Break Periods
//Storyboard Layer 0 (Background)
//Storyboard Layer 1 (Fail)
//Storyboard Layer 2 (Pass)
//Storyboard Layer 3 (Foreground)
//Storyboard Layer 4 (Overlay)
//Storyboard Sound Samples

[TimingPoints]
531,357.142857142857,4,1,0,70,1,0
24727,-100,4,1,0,80,0,0
53298,-100,4,1,0,70,0,0
59013,-100,4,1,0,80,0,0
64816,-100,4,1,0,90,0,1
88923,-100,4,1,0,90,0,0
89013,-100,4,1,0,70,0,0
91870,-100,4,1,0,80,0,0

[HitObjects]
288,192,531,5,8,0:0:0:0:
224,192,888,1,0,0:0:0:0:
288,192,1066,1,8,0:0:0:0:
224,192,1423,1,0,0:0:0:0:
288,192,1602,1,8,0:0:0:0:
224,192,2673,1,0,0:0:0:0:
288,192,3388,1,8,0:0:0:0:
224,192,3745,1,0,0:0:0:0:
288,192,3923,1,8,0:0:0:0:
224,192,4280,1,0,0:0:0:0:
288,192,4459,1,8,0:0:0:0:
288,192,5530,1,8,0:0:0:0:
224,192,5888,1,0,0:0:0:0:
288,128,6245,1,12,0:0:0:0:
288,192,6423,1,8,0:0:0:0:
224,192,6602,1,0,0:0:0:0:
224,192,6780,1,0,0:0:0:0:
288,192,7138,1,8,0:0:0:0:
288,192,7316,1,8,0:0:0:0:
224,192,7495,1,0,0:0:0:0:
224,192,7852,1,0,0:0:0:0:
224,192,7941,1,0,0:0:0:0:
224,192,8030,1,0,0:0:0:0:
288,192,8209,1,8,0:0:0:0:
224,192,8566,1,0,0:0:0:0:
288,192,8745,1,8,0:0:0:0:
288,192,8923,1,8,0:0:0:0:
224,128,9102,1,4,0:0:0:0:
288,192,9459,1,8,0:0:0:0:
224,192,9816,1,0,0:0:0:0:
224,192,9995,1,0,0:0:0:0:
288,192,10173,1,8,0:0:0:0:
224,192,10352,1,0,0:0:0:0:
224,192,10709,1,0,0:0:0:0:
224,192,10888,1,0,0:0:0:0:
224,192,11066,1,0,0:0:0:0:
224,192,11245,1,0,0:0:0:0:
224,192,11423,1,0,0:0:0:0:
288,192,11602,1,8,0:0:0:0:
224,128,11959,1,4,0:0:0:0:
288,192,13030,1,8,0:0:0:0:
224,128,13388,1,4,0:0:0:0:
224,192,13745,1,0,0:0:0:0:
288,192,13923,1,8,0:0:0:0:
288,192,14280,1,8,0:0:0:0:
224,192,14638,1,0,0:0:0:0:
288,192,14995,1,8,0:0:0:0:
224,192,15173,1,0,0:0:0:0:
224,192,15530,1,0,0:0:0:0:
288,192,15888,1,8,0:0:0:0:
224,192,16245,1,0,0:0:0:0:
224,192,16602,1,0,0:0:0:0:
288,192,16780,1,8,0:0:0:0:
224,192,17138,1,0,0:0:0:0:
288,192,17495,1,8,0:0:0:0:
288,192,17852,1,8,0:0:0:0:
288,192,18030,1,8,0:0:0:0:
224,192,18388,1,0,0:0:0:0:
288,192,18745,1,8,0:0:0:0:
224,192,18923,1,0,0:0:0:0:
224,192,19102,1,0,0:0:0:0:
288,192,19459,1,8,0:0:0:0:
224,192,19638,1,0,0:0:0:0:
224,192,20173,1,0,0:0:0:0:
224,192,20352,1,0,0:0:0:0:
288,192,20530,1,8,0:0:0:0:
224,192,20709,1,0,0:0:0:0:
288,192,20888,1,8,0:0:0:0:
224,192,21066,1,0,0:0:0:0:
288,192,21602,1,8,0:0:0:0:
224,192,21780,1,0,0:0:0:0:
288,128,21959,1,12,0:0:0:0:
288,192,22316,1,8,0:0:0:0:
288,192,22495,1,8,0:0:0:0:
288,192,22673,1,8,0:0:0:0:
288,192,22852,1,8,0:0:0:0:
224,192,23209,1,4,0:0:0:0:
288,192,23566,1,8,0:0:0:0:
288,192,23745,1,8,0:0:0:0:
224,192,23923,1,4,0:0:0:0:
288,192,24280,1,8,0:0:0:0:
288,192,24370,1,8,0:0:0:0:
288,192,24459,1,8,0:0:0:0:
224,192,24638,1,0,0:0:0:0:
288,128,24816,1,12,0:0:0:0:
288,192,25173,1,8,0:0:0:0:
224,192,25709,1,0,0:0:0:0:
288,192,25888,1,8,0:0:0:0:
224,192,26066,1,0,0:0:0:0:
288,192,26423,1,8,0:0:0:0:
288,192,26602,1,8,0:0:0:0:
224,192,26959,1,8,0:0:0:0:
224,192,27138,1,0,0:0:0:0:
288,192,27316,1,8,0:0:0:0:
224,192,27673,1,0,0:0:0:0:
288,192,28030,1,8,0:0:0:0:
224,192,28566,1,0,0:0:0:0:
288,192,28745,1,0,0:0:0:0:
224,192,28923,1,8,0:0:0:0:
288,192,29280,1,8,0:0:0:0:
224,192,29459,1,0,0:0:0:0:
288,192,29816,1,8,0:0:0:0:
224,192,29995,1,8,0:0:0:0:
224,192,30173,1,0,0:0:0:0:
288,128,30530,1,8,0:0:0:0:
288,192,30888,1,8,0:0:0:0:
224,192,31066,1,0,0:0:0:0:
224,192,31423,1,0,0:0:0:0:
288,192,31602,1,8,0:0:0:0:
224,192,31780,1,0,0:0:0:0:
224,192,31870,1,0,0:0:0:0:
224,192,31959,1,0,0:0:0:0:
288,192,32138,1,8,0:0:0:0:
288,192,32316,1,8,0:0:0:0:
224,192,32495,1,0,0:0:0:0:
288,192,33030,1,8,0:0:0:0:
224,192,33209,1,0,0:0:0:0:
288,192,33388,1,8,0:0:0:0:
288,192,33745,1,8,0:0:0:0:
224,192,34102,1,0,0:0:0:0:
224,192,34280,1,0,0:0:0:0:
288,192,34459,1,8,0:0:0:0:
224,192,34638,1,0,0:0:0:0:
288,192,34995,1,8,0:0:0:0:
288,192,35174,1,8,0:0:0:0:
224,192,35352,1,0,0:0:0:0:
224,192,35441,1,0,0:0:0:0:
224,192,35530,1,0,0:0:0:0:
288,192,35888,1,8,0:0:0:0:
224,192,36245,1,4,0:0:0:0:
224,192,36602,1,0,0:0:0:0:
288,192,36780,1,8,0:0:0:0:
288,192,37316,1,8,0:0:0:0:
224,192,37673,1,0,0:0:0:0:
224,192,37852,1,0,0:0:0:0:
224,192,38030,1,0,0:0:0:0:
288,192,38209,1,8,0:0:0:0:
288,192,38566,1,8,0:0:0:0:
224,192,38745,1,0,0:0:0:0:
288,192,39102,1,8,0:0:0:0:
224,192,39280,1,0,0:0:0:0:
224,192,39459,1,0,0:0:0:0:
288,192,39638,1,8,0:0:0:0:
224,192,40173,1,0,0:0:0:0:
224,192,40530,1,0,0:0:0:0:
288,192,40709,1,8,0:0:0:0:
224,192,40888,1,0,0:0:0:0:
288,192,41067,1,0,0:0:0:0:
224,192,41245,1,8,0:0:0:0:
288,192,41423,1,8,0:0:0:0:
224,192,41602,1,0,0:0:0:0:
224,128,41959,1,4,0:0:0:0:
224,192,42316,1,0,0:0:0:0:
288,192,42495,1,8,0:0:0:0:
288,192,43030,1,8,0:0:0:0:
288,192,43388,1,0,0:0:0:0:
288,192,43566,1,8,0:0:0:0:
288,192,43923,1,8,0:0:0:0:
224,192,44102,1,0,0:0:0:0:
224,192,44280,1,0,0:0:0:0:
288,192,44459,1,8,0:0:0:0:
288,192,44816,1,8,0:0:0:0:
224,192,45173,1,0,0:0:0:0:
288,192,45352,1,8,0:0:0:0:
288,192,45888,1,8,0:0:0:0:
288,128,46066,1,12,0:0:0:0:
224,192,46423,1,0,0:0:0:0:
224,192,46513,1,0,0:0:0:0:
224,192,46602,1,0,0:0:0:0:
288,192,46780,1,8,0:0:0:0:
224,192,46959,1,0,0:0:0:0:
224,192,47138,1,0,0:0:0:0:
288,128,47673,1,12,0:0:0:0:
288,192,48030,1,8,0:0:0:0:
224,192,48209,1,0,0:0:0:0:
224,192,48388,1,0,0:0:0:0:
224,192,48566,1,0,0:0:0:0:
288,192,48745,1,8,0:0:0:0:
224,192,49102,1,0,0:0:0:0:
224,192,49280,1,0,0:0:0:0:
288,192,49459,1,8,0:0:0:0:
288,192,49816,1,8,0:0:0:0:
224,192,49995,1,0,0:0:0:0:
288,192,50173,1,8,0:0:0:0:
224,192,50530,1,0,0:0:0:0:
288,192,50888,1,8,0:0:0:0:
224,192,51066,1,0,0:0:0:0:
288,192,51245,1,8,0:0:0:0:
288,192,51423,1,8,0:0:0:0:
224,192,51602,1,0,0:0:0:0:
288,192,51959,1,8,0:0:0:0:
224,192,52316,1,0,0:0:0:0:
288,192,52495,1,8,0:0:0:0:
288,192,52584,1,8,0:0:0:0:
288,192,52673,1,8,0:0:0:0:
288,128,53030,1,12,0:0:0:0:
224,192,53388,1,0,0:0:0:0:
288,192,55530,1,8,0:0:0:0:
224,192,56245,1,0,0:0:0:0:
288,192,58388,1,8,0:0:0:0:
224,128,59102,1,4,0:0:0:0:
224,192,59459,1,0,0:0:0:0:
288,192,59816,1,8,0:0:0:0:
288,192,59995,1,8,0:0:0:0:
288,192,60173,1,8,0:0:0:0:
224,192,60352,1,0,0:0:0:0:
288,192,60530,1,8,0:0:0:0:
288,192,60888,1,8,0:0:0:0:
224,192,61066,1,0,0:0:0:0:
288,192,61245,1,8,0:0:0:0:
224,192,61423,1,0,0:0:0:0:
288,192,61602,1,8,0:0:0:0:
288,192,61959,1,8,0:0:0:0:
224,192,62138,1,0,0:0:0:0:
224,192,62227,1,0,0:0:0:0:
224,192,62316,1,0,0:0:0:0:
288,192,62495,1,8,0:0:0:0:
224,192,62852,1,0,0:0:0:0:
288,192,63030,1,8,0:0:0:0:
288,192,63209,1,8,0:0:0:0:
288,192,63566,1,8,0:0:0:0:
288,192,63745,1,8,0:0:0:0:
224,192,64459,1,0,0:0:0:0:
288,128,64816,1,12,0:0:0:0:
288,192,65173,1,8,0:0:0:0:
224,192,65352,1,0,0:0:0:0:
224,192,65441,1,0,0:0:0:0:
224,192,65530,1,0,0:0:0:0:
224,192,65709,1,0,0:0:0:0:
288,192,65888,1,8,0:0:0:0:
224,192,66066,1,0,0:0:0:0:
224,192,66423,1,0,0:0:0:0:
288,192,66602,1,8,0:0:0:0:
224,192,66959,1,0,0:0:0:0:
224,192,67138,1,0,0:0:0:0:
288,192,67316,1,8,0:0:0:0:
288,192,67495,1,8,0:0:0:0:
224,192,67673,1,0,0:0:0:0:
224,192,68030,1,0,0:0:0:0:
288,192,68209,1,8,0:0:0:0:
288,192,68566,1,8,0:0:0:0:
224,192,68745,1,0,0:0:0:0:
224,192,69280,1,0,0:0:0:0:
288,192,69459,1,8,0:0:0:0:
224,192,69638,1,0,0:0:0:0:
224,192,69727,1,0,0:0:0:0:
224,192,69816,1,0,0:0:0:0:
288,192,69995,1,8,0:0:0:0:
288,192,70173,1,8,0:0:0:0:
224,192,70352,1,0,0:0:0:0:
224,128,70530,1,4,0:0:0:0:
288,192,70888,1,8,0:0:0:0:
224,192,71245,1,0,0:0:0:0:
224,192,71423,1,0,0:0:0:0:
288,192,71602,1,8,0:0:0:0:
224,192,71959,1,0,0:0:0:0:
288,192,72316,1,8,0:0:0:0:
288,192,72495,1,8,0:0:0:0:
288,192,72584,1,8,0:0:0:0:
288,192,72673,1,8,0:0:0:0:
224,192,72852,1,0,0:0:0:0:
288,192,73030,1,8,0:0:0:0:
224,192,73388,1,0,0:0:0:0:
288,192,73745,1,8,0:0:0:0:
224,192,74102,1,0,0:0:0:0:
224,192,74280,1,0,0:0:0:0:
288,192,74459,1,8,0:0:0:0:
224,128,74816,1,4,0:0:0:0:
224,192,74995,1,0,0:0:0:0:
224,192,75173,1,0,0:0:0:0:
288,192,75352,1,8,0:0:0:0:
224,192,75709,1,0,0:0:0:0:
224,192,75798,1,0,0:0:0:0:
224,192,75888,1,0,0:0:0:0:
224,192,76066,1,0,0:0:0:0:
288,128,76245,1,12,0:0:0:0:
288,192,76602,1,8,0:0:0:0:
224,192,76781,1,0,0:0:0:0:
224,192,76870,1,0,0:0:0:0:
224,192,76959,1,0,0:0:0:0:
288,192,77138,1,8,0:0:0:0:
224,192,77316,1,0,0:0:0:0:
288,192,77495,1,8,0:0:0:0:
288,192,78031,1,8,0:0:0:0:
288,192,78388,1,8,0:0:0:0:
224,192,78567,1,0,0:0:0:0:
288,192,78745,1,8,0:0:0:0:
288,192,78924,1,8,0:0:0:0:
224,192,79102,1,0,0:0:0:0:
288,192,79459,1,8,0:0:0:0:
224,192,79638,1,0,0:0:0:0:
224,192,79995,1,0,0:0:0:0:
288,192,80173,1,8,0:0:0:0:
224,192,80709,1,0,0:0:0:0:
288,192,80888,1,8,0:0:0:0:
288,192,81066,1,8,0:0:0:0:
288,192,81155,1,8,0:0:0:0:
288,192,81245,1,8,0:0:0:0:
224,192,81423,1,0,0:0:0:0:
288,192,81602,1,8,0:0:0:0:
224,192,81780,1,0,0:0:0:0:
224,128,81959,1,4,0:0:0:0:
288,192,82316,1,8,0:0:0:0:
224,192,82495,1,0,0:0:0:0:
224,192,82673,1,0,0:0:0:0:
288,192,82852,1,8,0:0:0:0:
224,192,83030,1,0,0:0:0:0:
288,192,83209,1,8,0:0:0:0:
224,192,83566,1,0,0:0:0:0:
288,192,83745,1,8,0:0:0:0:
224,192,84102,1,0,0:0:0:0:
224,192,84280,1,0,0:0:0:0:
288,192,84459,1,8,0:0:0:0:
288,192,84638,1,8,0:0:0:0:
224,128,84816,1,4,0:0:0:0:
288,192,85173,1,8,0:0:0:0:
224,128,85530,1,4,0:0:0:0:
288,192,85888,1,8,0:0:0:0:
224,128,86245,1,4,0:0:0:0:
288,192,86602,1,8,0:0:0:0:
288,192,86780,1,8,0:0:0:0:
288,192,86959,1,0,0:0:0:0:
224,192,87138,1,8,0:0:0:0:
224,192,87227,1,8,0:0:0:0:
224,192,87316,1,8,0:0:0:0:
288,128,87673,1,12,0:0:0:0:
224,192,87852,1,0,0:0:0:0:
224,192,88030,1,0,0:0:0:0:
288,192,88209,1,8,0:0:0:0:
224,192,88388,1,0,0:0:0:0:
288,192,88566,1,8,0:0:0:0:
288,192,88745,1,8,0:0:0:0:
224,128,88923,1,4,0:0:0:0:
224,192,91423,1,0,0:0:0:0:
288,192,91602,1,8,0:0:0:0:
224,128,91959,1,4,0:0:0:0:
288,192,92316,1,8,0:0:0:0:
224,192,92673,1,0,0:0:0:0:
224,192,92852,1,0,0:0:0:0:
288,192,93030,1,8,0:0:0:0:
224,192,93209,1,0,0:0:0:0:
224,192,93566,1,0,0:0:0:0:
288,192,93745,1,8,0:0:0:0:
288,192,94102,1,8,0:0:0:0:
224,192,94280,1,0,0:0:0:0:
288,192,94459,1,8,0:0:0:0:
224,192,94816,1,0,0:0:0:0:
288,192,95173,1,8,0:0:0:0:
224,192,95530,1,0,0:0:0:0:
224,192,95709,1,0,0:0:0:0:
288,192,95888,1,8,0:0:0:0:
288,192,96066,1,8,0:0:0:0:
288,192,96602,1,8,0:0:0:0:
224,192,96959,1,0,0:0:0:0:
224,192,97138,1,0,0:0:0:0:
288,192,97316,1,8,0:0:0:0:
224,192,97495,1,0,0:0:0:0:
288,128,97673,1,12,0:0:0:0:
288,192,98030,1,8,0:0:0:0:
224,192,98388,1,0,0:0:0:0:
224,192,98566,1,0,0:0:0:0:
288,192,98745,1,8,0:0:0:0:
224,192,98923,1,0,0:0:0:0:
224,192,99280,1,8,0:0:0:0:
288,192,99459,1,0,0:0:0:0:
224,192,99638,1,8,0:0:0:0:
288,192,99995,1,0,0:0:0:0:
224,192,100173,1,8,0:0:0:0:
224,192,100263,1,8,0:0:0:0:
224,192,100352,1,8,0:0:0:0:
288,192,100530,1,0,0:0:0:0:
288,192,100888,1,8,0:0:0:0:
224,192,101423,1,0,0:0:0:0:
288,192,101602,1,8,0:0:0:0:
288,192,101780,1,8,0:0:0:0:
224,128,101959,1,4,0:0:0:0:
288,192,102316,1,8,0:0:0:0:
224,192,102495,1,0,0:0:0:0:
288,192,102852,1,8,0:0:0:0:
224,192,103030,1,0,0:0:0:0:
224,192,103209,1,0,0:0:0:0:
288,192,103566,1,8,0:0:0:0:
288,192,103745,1,8,0:0:0:0:
288,192,104102,1,8,0:0:0:0:
288,192,104280,1,8,0:0:0:0:
288,192,104638,1,8,0:0:0:0:
288,192,104995,1,8,0:0:0:0:
288,192,105173,1,8,0:0:0:0:
