osu file format v14

[General]
AudioFilename: audio.mp3
AudioLeadIn: 0
PreviewTime: 189271
Countdown: 0
SampleSet: Soft
StackLeniency: 0.7
Mode: 0
LetterboxInBreaks: 0
WidescreenStoryboard: 1

[Editor]
Bookmarks: 14271,25700,37128,48557,59985,71414,82842,94271,105700,117128,128557,139985,151414,162842,174271,189985,201414,212842,229985,237128
DistanceSpacing: 0.8
BeatDivisor: 4
GridSize: 32
TimelineZoom: 3.499999

[Metadata]
Title:Koi Saku Mirai
TitleUnicode:恋さくミライ
Artist:Sasaki Sayaka
ArtistUnicode:佐咲紗花
Creator:Shikibe Mayu
Version:Blossom
Source:恋がさくころ桜どき
Tags:shizuku- kazato asa phns osu philippines osuph osu!ph nationals Koi ga Saku Koro Sakura Doki Love Blooms with the Cherry Blossoms eroge visual novel video game pop japanese jpop j-pop
BeatmapID:3277408
BeatmapSetID:1604974

[Difficulty]
HPDrainRate:6
CircleSize:4
OverallDifficulty:8.5
ApproachRate:9
SliderMultiplier:2
SliderTickRate:1

[Events]
//Background and Video events
0,0,"BG.jpg",0,0
//Break Periods
2,105899,114564
2,189985,199385
//Storyboard Layer 0 (Background)
//Storyboard Layer 1 (Fail)
//Storyboard Layer 2 (Pass)
//Storyboard Layer 3 (Foreground)
//Storyboard Layer 4 (Overlay)
//Storyboard Sound Samples

[TimingPoints]
2843,357.142857142857,4,2,1,50,1,0
2843,-133.333333333333,4,2,1,50,0,0
14271,-100,4,2,1,80,0,0
25700,-125,4,2,1,60,0,0
35521,-125,4,2,1,70,0,0
37128,-111.111111111111,4,2,1,70,0,0
48557,-142.857142857143,4,2,1,70,0,0
59985,-111.111111111111,4,2,1,70,0,0
71057,-66.6666666666667,4,2,1,70,0,0
71414,-90.9090909090909,4,2,1,80,0,1
92842,-142.857142857143,4,2,1,70,0,0
94271,-100,4,2,1,70,0,0
116235,-125,4,2,1,70,0,0
117128,-111.111111111111,4,2,1,70,0,0
128557,-142.857142857143,4,2,1,70,0,0
139985,-111.111111111111,4,2,1,70,0,0
151414,-90.9090909090909,4,2,1,80,0,1
172842,-142.857142857143,4,2,1,70,0,0
174271,-100,4,2,1,70,0,0
187128,-111.111111111111,4,2,1,60,0,0
187485,-111.111111111111,4,2,1,5,0,0
188557,-111.111111111111,4,2,1,60,0,0
199985,-111.111111111111,4,2,1,60,0,0
201057,-83.3333333333333,4,2,1,60,0,0
201414,-90.9090909090909,4,2,1,80,0,1
211414,-138.888888888889,4,2,1,80,0,0
212842,-104.166666666667,4,2,1,70,0,0
224271,-156.25,4,2,1,70,0,0
224628,-156.25,4,2,1,5,0,0
226771,-125,4,2,1,70,0,0
231414,-125,4,2,1,60,0,0
232842,-125,4,2,1,50,0,0
234271,-125,4,2,1,40,0,0
235700,-125,4,2,1,30,0,0
237128,-125,4,2,1,5,0,0

[Colours]
Combo1 : 165,216,190
Combo2 : 203,243,243
Combo3 : 155,186,217
Combo4 : 228,204,236

[HitObjects]
256,192,700,12,0,2485,0:0:0:0:
391,129,2843,6,0,L|406:51,1,75.0000028610231,2|0,0:0|0:0,0:0:0:0:
481,109,3200,1,0,0:0:0:0:
318,74,3378,2,0,P|249:91|171:106,1,150.000005722046,2|0,0:0|0:0,0:0:0:0:
240,180,3914,1,2,0:0:0:0:
190,23,4092,1,0,0:0:0:0:
96,141,4271,6,0,P|53:150|7:160,2,75.0000028610231,2|0|0,0:0|0:0|0:0,0:0:0:0:
39,68,4807,1,0,0:0:0:0:
3,246,4985,2,0,P|76:230|149:214,1,150.000005722046,2|0,0:0|0:0,0:0:0:0:
149,214,5700,6,0,L|163:290,1,75.0000028610231,2|0,0:0|0:0,0:0:0:0:
238,235,6057,1,0,0:0:0:0:
78,332,6235,2,0,P|153:331|212:374,1,150.000005722046,2|0,0:0|0:0,0:0:0:0:
211,373,6771,1,0,0:0:0:0:
345,297,6950,6,0,P|300:307|267:317,1,75.0000028610231,2|0,0:0|0:0,0:0:0:0:
413,372,7307,1,0,0:0:0:0:
433,279,7485,1,0,0:0:0:0:
369,206,7664,2,0,P|379:151|397:46,1,150.000005722046,2|0,0:0|0:0,0:0:0:0:
277,19,8200,5,2,0:0:0:0:
253,43,8289,1,2,0:0:0:0:
221,55,8378,1,2,0:0:0:0:
187,54,8467,1,2,0:0:0:0:
156,38,8557,1,2,0:2:0:0:
0,239,8914,6,0,P|75:224|166:206,1,150.000005722046,2|2,0:0|0:0,0:0:0:0:
69,74,9450,1,0,0:0:0:0:
69,74,9628,2,0,P|58:123|48:177,1,75.0000028610231,0|0,0:0|0:0,0:0:0:0:
194,287,9985,6,0,P|232:237|209:143,1,150.000005722046,2|0,0:0|0:0,0:0:0:0:
343,82,10521,2,0,P|415:100|488:116,1,150.000005722046,2|0,0:0|0:0,0:0:0:0:
393,262,11057,2,0,P|384:223|374:177,1,75.0000028610231,0|0,0:0|0:0,0:0:0:0:
377,188,11325,1,0,0:0:0:0:
377,188,11414,1,2,0:0:0:0:
488,116,11592,2,0,P|479:154|469:200,1,75.0000028610231,0|0,0:0|0:0,0:0:0:0:
465,367,11950,6,0,P|394:318|310:339,1,150.000005722046,2|0,0:0|0:0,0:0:0:0:
271,384,12485,1,0,0:0:0:0:
215,202,12664,6,0,P|207:238|201:275,1,75.0000028610231,2|0,0:0|0:0,0:0:0:0:
201,275,12932,1,0,0:0:0:0:
201,275,13021,1,0,0:0:0:0:
143,356,13200,1,2,0:0:0:0:
44,318,13378,2,0,L|-8:331,2,37.5000014305115,0|0|2,0:0|0:0|0:0,0:0:0:0:
112,247,13735,1,0,0:0:0:0:
78,64,13914,6,0,L|56:186,1,112.500004291535,8|0,0:1|0:0,0:0:0:0:
112,247,14271,6,0,B|213:225|192:304|313:271,1,200,4|8,3:2|0:0,0:0:0:0:
437,148,14807,1,2,0:0:0:0:
459,110,14896,1,0,1:0:0:0:
462,66,14985,1,0,3:0:0:0:
443,25,15074,1,0,1:0:0:0:
407,0,15164,1,0,1:0:0:0:
364,82,15342,1,10,0:0:0:0:
509,223,15521,6,0,P|453:237|398:247,1,100,2|0,0:0|3:0,0:0:0:0:
275,377,15878,1,2,0:0:0:0:
217,187,16057,1,8,0:0:0:0:
300,271,16235,5,0,1:0:0:0:
300,271,16325,1,0,1:0:0:0:
300,271,16414,2,0,P|312:214|321:163,1,100,2|0,3:2|0:0,0:0:0:0:
217,17,16771,1,8,0:0:0:0:
87,131,16950,5,0,1:0:0:0:
87,131,17039,1,0,1:0:0:0:
87,131,17128,2,0,P|140:116|215:99,1,100,2|2,3:2|0:0,0:0:0:0:
319,172,17485,1,8,0:0:0:0:
430,23,17664,1,0,1:0:0:0:
391,11,17753,1,0,1:0:0:0:
350,16,17842,1,2,3:2:0:0:
316,37,17931,1,0,1:0:0:0:
294,70,18021,1,0,1:0:0:0:
379,105,18200,1,8,0:0:0:0:
203,7,18378,5,0,1:0:0:0:
203,7,18467,1,0,1:0:0:0:
203,7,18557,2,0,P|191:59|182:116,1,100,2|2,3:2|0:0,0:0:0:0:
236,313,18914,1,8,0:0:0:0:
13,272,19092,6,0,P|91:207|192:223,1,200,0|0,1:0|0:0,0:0:0:0:
312,372,19628,1,8,0:0:0:0:
348,363,19717,1,0,1:0:0:0:
385,355,19806,1,0,1:0:0:0:
421,347,19895,1,0,1:0:0:0:
458,339,19985,6,0,B|490:222|420:266|449:145,1,200,6|8,3:2|0:0,0:0:0:0:
392,68,20521,1,0,1:0:0:0:
392,68,20610,1,0,1:0:0:0:
392,68,20700,2,0,L|402:18,2,50,0|0|2,3:0|1:0|0:0,0:0:0:0:
316,212,21057,6,0,P|303:156|287:98,1,100,8|0,0:0|1:0,0:0:0:0:
291,114,21325,1,0,1:0:0:0:
291,114,21414,1,2,3:2:0:0:
192,224,21592,2,0,P|142:215|92:210,1,100,2|8,0:0|0:0,0:0:0:0:
13,21,21950,6,0,P|99:37|152:146,1,200,2|2,0:0|0:0,0:0:0:0:
106,345,22485,1,8,0:0:0:0:
150,334,22575,1,0,1:0:0:0:
193,323,22664,1,0,1:0:0:0:
236,313,22753,1,0,1:0:0:0:
279,303,22842,6,0,L|377:326,1,100,2|0,3:2|1:0,0:0:0:0:
385,328,23110,1,0,1:0:0:0:
395,330,23200,1,8,0:0:0:0:
487,270,23378,2,0,L|478:217,2,50,0|0|2,1:0|1:0|3:2,0:0:0:0:
312,177,23735,5,2,3:2:0:0:
293,129,23825,1,0,1:0:0:0:
296,81,23914,1,8,0:0:0:0:
319,37,24003,1,0,1:0:0:0:
363,16,24092,1,6,3:2:0:0:
363,16,24450,5,2,3:2:0:0:
279,243,24628,1,10,0:0:0:0:
512,192,24807,1,2,3:2:0:0:
252,89,24985,2,0,L|198:101,3,50,6|0|0|0,3:2|1:0|1:0|1:0,0:0:0:0:
90,64,25342,5,8,0:0:0:0:
83,100,25431,1,8,0:0:0:0:
77,137,25520,1,8,0:0:0:0:
71,174,25609,1,8,0:0:0:0:
64,211,25700,6,0,B|149:198|121:244|224:224,1,160,6|0,3:2|3:0,0:0:0:0:
368,301,26235,2,0,P|359:340|347:393,1,80,2|0,0:0|3:0,0:0:0:0:
272,356,26592,2,0,P|280:316|289:278,1,80,2|0,0:0|3:0,0:0:0:0:
470,240,26950,6,0,P|492:150|444:85,1,160,2|2,0:0|0:0,0:0:0:0:
368,132,27485,2,0,P|322:141|281:149,1,80,0|2,3:0|1:2,0:0:0:0:
289,147,27753,1,0,1:0:0:0:
289,147,27842,2,0,P|280:101|272:60,1,80,0|2,3:0|0:0,0:0:0:0:
193,83,28200,2,0,P|202:129|210:170,1,80,0|2,3:0|0:0,0:0:0:0:
140,299,28557,6,0,P|84:257|-11:279,1,160,2|0,3:2|3:0,0:0:0:0:
106,378,29092,1,2,0:0:0:0:
219,246,29271,2,0,P|233:315|245:382,1,120,0|0,3:0|0:0,0:0:0:0:
241,363,29628,2,0,P|285:371|333:379,1,80,0|2,3:0|0:0,0:0:0:0:
456,238,29985,6,0,P|377:238|309:290,1,160,0|0,3:0|3:0,0:0:0:0:
293,182,30521,1,0,1:0:0:0:
293,182,30610,1,0,1:0:0:0:
293,182,30700,2,0,P|300:135|309:84,1,80,2|0,3:2|0:0,0:0:0:0:
225,49,31057,2,0,P|218:96|209:147,1,80,0|0,3:0|0:0,0:0:0:0:
0,256,31414,6,0,P|62:207|155:225,1,160,2|0,3:2|3:0,0:0:0:0:
200,287,31950,2,0,P|247:277|293:269,1,80,2|0,0:0|3:0,0:0:0:0:
371,166,32307,2,0,P|331:173|292:181,1,80,2|0,0:0|3:0,0:0:0:0:
408,262,32664,5,2,0:0:0:0:
480,198,32842,2,0,P|496:120|512:30,1,160,2|0,3:2|3:0,0:0:0:0:
430,0,33378,1,0,1:0:0:0:
430,0,33467,1,0,1:0:0:0:
430,0,33557,2,0,P|385:8|338:19,1,80,2|2,3:2|0:0,0:0:0:0:
246,123,33914,1,0,3:0:0:0:
258,34,34092,1,2,0:0:0:0:
333,168,34271,6,0,P|268:214|182:195,1,160,2|0,3:2|3:0,0:0:0:0:
119,113,34807,1,2,0:0:0:0:
0,218,34985,5,2,3:2:0:0:
3,243,35074,1,0,1:0:0:0:
8,269,35163,1,0,3:0:0:0:
13,296,35252,1,0,1:0:0:0:
18,322,35342,1,8,0:0:0:0:
23,348,35431,1,0,1:0:0:0:
28,375,35520,1,4,3:2:0:0:
28,375,35878,5,10,0:0:0:0:
120,200,36057,1,10,0:0:0:0:
288,320,36235,2,0,B|312:381|384:392|421:340|421:340|400:299|357:299,1,240,6|8,3:2|0:0,0:0:0:0:
211,250,36950,5,8,0:0:0:0:
211,250,37039,1,8,0:0:0:0:
211,250,37128,2,0,L|192:353,1,89.9999972534181,4|0,3:2|0:0,0:0:0:0:
299,230,37485,1,8,0:0:0:0:
137,187,37664,1,0,1:0:0:0:
176,194,37753,1,0,1:0:0:0:
216,186,37842,1,2,3:2:0:0:
249,164,37931,1,0,1:0:0:0:
272,131,38021,1,0,1:0:0:0:
191,6,38200,6,0,L|171:108,1,89.9999972534181,8|0,0:0|1:0,0:0:0:0:
173,94,38467,1,0,1:0:0:0:
173,94,38557,1,2,3:2:0:0:
247,286,38735,1,2,0:0:0:0:
381,136,38914,1,8,0:0:0:0:
472,352,39092,5,0,1:0:0:0:
450,342,39182,1,0,1:0:0:0:
431,334,39271,2,0,L|337:351,1,89.9999972534181,2|2,3:2|0:0,0:0:0:0:
216,186,39628,1,8,0:0:0:0:
82,352,39807,5,0,1:0:0:0:
82,352,39896,1,0,1:0:0:0:
82,352,39985,2,0,P|181:354|256:273,1,179.999994506836,2|8,3:2|0:0,0:0:0:0:
245,297,40432,1,0,1:0:0:0:
251,286,40521,2,0,L|237:190,1,89.9999972534181,2|0,1:2|3:2,0:0:0:0:
416,72,40878,2,0,L|402:168,1,89.9999972534181,2|8,0:2|0:0,0:0:0:0:
236,22,41235,6,0,P|143:45|43:61,1,179.999994506836,2|0,0:0|1:0,0:0:0:0:
5,236,41771,1,8,0:0:0:0:
42,249,41860,1,0,1:0:0:0:
82,246,41950,1,0,1:0:0:0:
119,231,42039,1,0,1:0:0:0:
146,201,42128,2,0,P|151:157|159:98,1,89.9999972534181,2|0,3:2|0:0,0:0:0:0:
280,13,42485,1,8,0:0:0:0:
335,194,42664,5,8,0:0:0:0:
335,194,42753,1,8,0:0:0:0:
335,194,42842,2,0,P|406:177|524:157,1,179.999994506836,6|8,3:2|0:0,0:0:0:0:
409,92,43378,2,0,L|417:43,2,44.999998626709,0|0|2,1:0|1:0|3:2,0:0:0:0:
379,271,43735,1,2,0:0:0:0:
250,173,43914,2,0,L|156:193,1,89.9999972534181,8|0,0:0|1:0,0:0:0:0:
152,193,44182,1,0,1:0:0:0:
141,196,44271,6,0,P|150:151|159:95,1,89.9999972534181,2|0,3:2|0:0,0:0:0:0:
48,143,44628,1,8,0:0:0:0:
154,317,44807,1,0,1:0:0:0:
124,289,44896,1,0,1:0:0:0:
87,273,44985,1,2,3:2:0:0:
47,273,45074,1,0,1:0:0:0:
9,286,45164,1,0,1:0:0:0:
67,369,45342,1,8,0:0:0:0:
237,262,45521,5,0,1:0:0:0:
237,262,45610,1,0,1:0:0:0:
237,262,45700,2,0,P|285:273|343:283,1,89.9999972534181,4|0,3:2|0:0,0:0:0:0:
388,379,46057,1,8,0:0:0:0:
497,267,46235,1,0,1:0:0:0:
510,229,46324,1,0,1:0:0:0:
508,189,46413,1,2,3:2:0:0:
489,153,46502,1,0,1:0:0:0:
457,128,46592,2,0,L|405:139,1,44.999998626709,0|0,3:2|1:0,0:0:0:0:
301,164,46771,1,8,0:0:0:0:
186,16,46950,6,0,P|282:20|343:85,1,179.999994506836,6|2,3:2|3:2,0:0:0:0:
338,75,47396,1,0,1:0:0:0:
338,75,47485,1,8,0:0:0:0:
246,277,47664,2,0,L|236:230,1,44.999998626709,0|0,3:0|1:0,0:0:0:0:
216,151,47842,5,4,3:2:0:0:
216,151,47932,1,0,1:0:0:0:
216,151,48021,1,0,1:0:0:0:
405,252,48200,1,8,0:0:0:0:
225,369,48378,5,8,0:0:0:0:
218,361,48467,1,8,0:0:0:0:
213,355,48557,2,0,B|95:323|132:398|5:373,1,209.999993591309,6|0,3:2|3:0,0:0:0:0:
9,373,49182,1,0,3:0:0:0:
9,373,49271,1,8,0:0:0:0:
40,224,49450,2,0,P|48:258|54:319,1,69.9999978637696,2|0,3:2|0:0,0:0:0:0:
234,233,49807,1,4,3:2:0:0:
234,233,50164,6,0,P|298:250|377:267,1,139.999995727539,6|0,3:2|3:0,0:0:0:0:
376,263,50610,1,0,3:0:0:0:
384,259,50700,2,0,P|374:219|364:176,1,69.9999978637696,8|0,0:0|0:0,0:0:0:0:
450,136,51057,2,0,P|459:175|470:219,1,69.9999978637696,0|0,3:0|1:0,0:0:0:0:
512,70,51414,6,0,P|446:82|381:34,1,139.999995727539,6|0,3:2|0:0,0:0:0:0:
300,6,51950,2,0,L|251:15,2,34.9999989318848,0|0|8,3:0|3:0|0:0,0:0:0:0:
299,158,52307,2,0,P|311:118|317:76,1,69.9999978637696,2|0,3:2|0:0,0:0:0:0:
77,119,52664,5,4,3:2:0:0:
77,119,53021,2,0,P|154:102|240:86,1,139.999995727539,4|0,3:2|3:0,0:0:0:0:
214,90,53467,1,0,3:0:0:0:
214,90,53557,1,8,0:0:0:0:
261,247,53735,1,0,0:0:0:0:
392,130,53914,1,0,3:0:0:0:
498,246,54092,5,0,1:0:0:0:
498,246,54182,1,0,1:0:0:0:
498,246,54271,2,0,P|413:232|347:222,1,139.999995727539,4|0,3:2|0:0,0:0:0:0:
327,320,54807,2,0,L|335:358,2,34.9999989318848,0|0|8,3:0|3:0|0:0,0:0:0:0:
261,247,55164,2,0,P|252:207|241:168,1,69.9999978637696,2|0,3:2|0:0,0:0:0:0:
341,12,55521,6,0,P|411:51|482:27,1,139.999995727539,8|8,0:2|0:0,0:0:0:0:
318,118,56057,1,2,0:0:0:0:
236,18,56235,1,0,3:0:0:0:
236,18,56325,1,0,3:0:0:0:
236,18,56414,2,0,P|230:58|221:102,1,69.9999978637696,8|0,0:0|0:0,0:0:0:0:
134,175,56771,2,0,P|140:215|149:259,1,69.9999978637696,0|0,3:0|1:0,0:0:0:0:
145,244,57039,1,0,1:0:0:0:
145,244,57128,6,0,P|78:239|14:286,1,139.999995727539,4|0,3:2|0:0,0:0:0:0:
178,384,57664,1,0,3:0:0:0:
178,384,57753,1,0,1:0:0:0:
178,384,57842,2,0,P|185:342|192:306,1,69.9999978637696,8|0,0:0|0:0,0:0:0:0:
216,188,58200,1,2,0:0:0:0:
405,231,58378,6,0,P|330:231|265:273,1,139.999995727539,6|0,3:2|1:0,0:0:0:0:
112,156,58914,1,8,0:0:0:0:
58,305,59092,1,0,1:0:0:0:
58,305,59182,1,0,1:0:0:0:
58,305,59271,2,0,L|66:358,1,34.9999989318848,10|0,0:2|0:0,0:0:0:0:
216,188,59450,2,0,L|224:135,1,34.9999989318848,0|0,3:0|0:0,0:0:0:0:
336,357,59628,5,8,0:0:0:0:
370,349,59717,1,8,0:0:0:0:
404,340,59806,1,8,0:0:0:0:
438,332,59895,1,8,0:0:0:0:
472,324,59985,6,0,P|520:249|500:161,1,179.999994506836,4|8,3:2|0:0,0:0:0:0:
389,117,60521,1,0,1:0:0:0:
389,117,60610,1,0,1:0:0:0:
389,117,60700,2,0,L|344:126,2,44.999998626709,2|0|0,3:2|1:0|1:0,0:0:0:0:
473,34,61057,1,8,0:0:0:0:
421,208,61235,5,0,1:0:0:0:
421,208,61325,1,0,1:0:0:0:
421,208,61414,2,0,L|313:232,1,89.9999972534181,2|0,3:2|0:0,0:0:0:0:
253,109,61771,1,8,0:0:0:0:
212,282,61950,1,0,1:0:0:0:
184,311,62039,1,0,1:0:0:0:
147,327,62128,1,2,3:2:0:0:
107,329,62217,1,0,1:0:0:0:
69,315,62307,1,0,1:0:0:0:
118,229,62485,1,8,0:0:0:0:
292,366,62664,5,0,1:0:0:0:
292,366,62753,1,0,1:0:0:0:
292,366,62842,2,0,B|390:386|365:323|471:345,1,179.999994506836,2|8,3:2|0:0,0:0:0:0:
503,226,63378,1,0,1:0:0:0:
512,193,63467,1,0,1:0:0:0:
509,160,63556,1,2,3:2:0:0:
494,130,63645,1,0,1:0:0:0:
468,108,63735,1,0,1:0:0:0:
351,12,63914,2,0,P|340:59|326:128,1,89.9999972534181,8|0,0:0|1:0,0:0:0:0:
329,120,64182,1,0,1:0:0:0:
326,141,64271,6,0,B|226:123|245:184|142:163,1,179.999994506836,2|8,3:2|0:0,0:0:0:0:
52,106,64807,1,0,1:0:0:0:
45,119,64896,1,0,1:0:0:0:
38,129,64985,2,0,P|46:179|54:232,1,89.9999972534181,2|0,3:2|1:0,0:0:0:0:
185,82,65342,1,8,0:0:0:0:
12,303,65521,5,8,0:0:0:0:
12,303,65610,1,8,0:0:0:0:
12,303,65700,2,0,P|87:251|181:267,1,179.999994506836,2|8,3:2|0:0,0:0:0:0:
284,307,66235,2,0,L|342:291,2,44.999998626709,0|0|2,1:0|1:0|3:2,0:0:0:0:
193,365,66592,1,0,3:0:0:0:
254,221,66771,2,0,P|245:171|234:110,1,89.9999972534181,8|0,0:0|1:0,0:0:0:0:
236,124,67039,1,0,1:0:0:0:
234,113,67128,5,2,3:2:0:0:
432,42,67307,1,0,0:0:0:0:
380,244,67485,1,8,0:0:0:0:
316,35,67664,6,0,P|226:28|140:4,1,179.999994506836,2|2,0:0|0:0,0:0:0:0:
20,218,68200,1,8,0:0:0:0:
186,178,68378,5,0,1:0:0:0:
186,178,68467,1,0,1:0:0:0:
186,178,68557,1,2,3:2:0:0:
62,84,68735,1,8,0:0:0:0:
108,291,68914,1,8,0:0:0:0:
315,193,69092,2,0,L|368:203,1,44.999998626709,8|0,0:0|1:0,0:0:0:0:
276,373,69271,5,8,0:0:0:0:
232,361,69360,1,8,0:0:0:0:
204,322,69450,1,8,0:0:0:0:
210,277,69539,1,8,0:0:0:0:
245,247,69628,2,0,L|272:252,8,22.4999993133545,8|8|8|8|8|8|8|8|12,0:2|1:2|1:2|1:2|1:2|1:2|1:2|1:2|3:2,0:2:0:0:
512,58,70700,5,0,1:0:0:0:
510,69,70789,1,0,1:0:0:0:
508,79,70878,1,0,1:0:0:0:
506,87,70967,1,0,1:0:0:0:
505,96,71057,2,0,B|378:140|429:9|294:56,1,225.000008583069,8|0,0:1|0:0,0:0:0:0:
209,14,71414,6,0,P|221:77|232:146,1,110.000003356934,6|0,3:2|0:0,0:0:0:0:
301,53,71771,1,8,0:0:0:0:
151,201,71950,5,0,1:0:0:0:
151,201,72039,1,0,1:0:0:0:
151,201,72128,2,0,P|209:214|273:231,1,110.000003356934,2|2,3:2|0:0,0:0:0:0:
228,122,72485,1,8,0:0:0:0:
120,296,72664,5,0,1:0:0:0:
120,296,72753,1,0,1:0:0:0:
120,296,72842,2,0,P|44:227|86:108,1,220.000006713867,2|8,3:2|0:0,0:0:0:0:
137,11,73378,1,0,1:0:0:0:
137,11,73467,1,0,1:0:0:0:
137,11,73557,1,2,3:2:0:0:
166,195,73735,1,0,1:0:0:0:
305,54,73914,5,8,0:0:0:0:
353,43,74003,1,0,1:0:0:0:
401,49,74092,1,0,1:0:0:0:
435,84,74182,1,0,1:0:0:0:
456,128,74271,2,0,L|437:243,1,110.000003356934,2|2,3:2|0:0,0:0:0:0:
349,157,74628,1,8,0:0:0:0:
492,323,74807,5,0,1:0:0:0:
442,318,74896,1,0,1:0:0:0:
393,324,74985,1,2,3:2:0:0:
348,346,75075,1,0,1:0:0:0:
314,381,75164,1,0,1:0:0:0:
215,213,75342,1,8,0:0:0:0:
71,345,75521,5,0,1:0:0:0:
71,345,75610,1,0,1:0:0:0:
71,345,75700,2,0,P|129:331|181:314,1,110.000003356934,2|2,3:2|0:0,0:0:0:0:
8,232,76057,1,8,0:0:0:0:
124,134,76235,5,0,1:0:0:0:
124,134,76325,1,0,1:0:0:0:
124,134,76414,2,0,P|115:192|102:251,1,110.000003356934,2|0,3:2|0:0,0:0:0:0:
245,384,76771,1,10,0:0:0:0:
272,343,76860,1,0,1:0:0:0:
316,320,76950,1,0,1:0:0:0:
365,316,77039,1,0,1:0:0:0:
407,340,77128,6,0,P|481:321|512:310,1,110.000003356934,6|0,3:2|0:0,0:0:0:0:
474,145,77485,2,0,P|400:164|369:175,1,110.000003356934,10|0,0:0|1:0,0:0:0:0:
368,175,77753,1,0,1:0:0:0:
368,175,77842,1,2,3:2:0:0:
188,124,78021,1,2,0:0:0:0:
307,7,78200,1,8,0:0:0:0:
250,237,78378,5,0,1:0:0:0:
250,237,78467,1,0,1:0:0:0:
250,237,78557,2,0,P|264:298|273:353,1,110.000003356934,6|0,3:2|3:0,0:0:0:0:
368,175,78914,1,8,0:0:0:0:
179,325,79092,6,0,P|93:312|3:299,1,165.000005035401,6|0,3:2|0:0,0:0:0:0:
15,300,79450,1,0,3:0:0:0:
186,193,79628,2,0,P|172:135|159:72,1,110.000003356934,8|0,0:0|1:0,0:0:0:0:
161,85,79896,1,0,1:0:0:0:
161,85,79985,1,6,3:2:0:0:
0,34,80164,1,2,0:0:0:0:
62,226,80342,1,8,0:0:0:0:
264,90,80521,5,0,1:0:0:0:
264,90,80610,1,0,1:0:0:0:
264,90,80700,2,0,L|327:104,1,55.0000016784668,2|0,3:2|0:0,0:0:0:0:
401,191,80878,2,0,L|464:205,1,55.0000016784668,0|0,3:0|0:0,0:0:0:0:
389,19,81057,1,8,0:0:0:0:
301,217,81235,6,0,P|320:295|339:401,1,165.000005035401,6|0,3:2|0:0,0:0:0:0:
335,378,81592,1,0,3:0:0:0:
477,310,81771,2,0,P|464:256|454:202,1,110.000003356934,8|0,0:0|3:0,0:0:0:0:
363,45,82128,5,8,0:0:0:0:
322,72,82217,1,0,1:0:0:0:
272,75,82307,1,0,3:0:0:0:
234,42,82396,1,0,1:0:0:0:
186,30,82485,1,8,0:0:0:0:
138,43,82575,1,8,0:0:0:0:
106,81,82664,1,8,0:0:0:0:
106,130,82753,1,8,0:0:0:0:
130,172,82842,6,0,P|119:229|108:297,1,110.000003356934,6|0,3:2|0:0,0:0:0:0:
217,228,83200,1,8,0:0:0:0:
43,383,83378,2,0,P|123:318|239:338,1,220.000006713867,2|0,0:0|1:0,0:0:0:0:
245,343,83825,1,0,1:0:0:0:
257,352,83914,2,0,P|311:337|364:325,1,110.000003356934,8|2,0:0|0:0,0:0:0:0:
512,128,84271,6,0,B|386:104|425:189|286:159,1,220.000006713867,2|8,3:2|0:0,0:0:0:0:
165,36,84807,1,0,1:0:0:0:
165,36,84896,1,0,1:0:0:0:
165,36,84985,1,2,3:2:0:0:
131,225,85164,1,0,0:0:0:0:
264,78,85342,1,8,0:0:0:0:
319,252,85521,5,0,1:0:0:0:
319,252,85610,1,0,1:0:0:0:
319,252,85700,2,0,P|265:262|198:280,1,110.000003356934,2|2,3:2|0:0,0:0:0:0:
65,139,86057,1,8,0:0:0:0:
0,372,86235,2,0,P|84:376|166:316,1,165.000005035401,2|0,0:0|0:0,0:0:0:0:
151,335,86592,1,2,0:0:0:0:
65,139,86771,2,0,P|57:201|46:258,1,110.000003356934,8|2,0:0|0:0,0:0:0:0:
268,371,87128,5,4,3:2:0:0:
211,152,87307,1,0,1:0:0:0:
211,152,87396,1,8,0:0:0:0:
211,152,87485,1,8,0:0:0:0:
454,202,87664,6,0,P|437:268|424:325,1,110.000003356934,4|0,3:2|1:0,0:0:0:0:
351,291,87932,1,0,1:0:0:0:
351,291,88021,2,0,P|363:237|377:184,1,110.000003356934,4|0,3:2|0:0,0:0:0:0:
198,12,88378,6,0,P|85:16|17:93,1,220.000006713867,6|2,3:2|3:2,0:0:0:0:
115,276,88914,2,0,P|128:205|140:147,1,110.000003356934,8|0,0:0|1:0,0:0:0:0:
135,167,89182,1,0,1:0:0:0:
135,167,89271,1,2,3:2:0:0:
31,206,89450,1,2,0:0:0:0:
223,240,89628,1,8,0:0:0:0:
328,92,89807,5,0,1:0:0:0:
328,92,89896,1,0,1:0:0:0:
328,92,89985,2,0,P|383:78|451:61,1,110.000003356934,4|2,3:2|3:2,0:0:0:0:
259,11,90342,1,8,0:0:0:0:
394,180,90521,6,0,P|380:269|365:359,1,165.000005035401,6|0,3:2|0:0,0:0:0:0:
367,342,90878,1,0,3:0:0:0:
478,273,91057,1,8,0:0:0:0:
294,218,91235,5,2,0:0:0:0:
294,218,91325,1,2,0:0:0:0:
294,218,91414,2,0,P|232:233|173:245,1,110.000003356934,8|0,0:0|3:0,0:0:0:0:
0,338,91771,1,10,0:0:0:0:
32,116,91950,5,0,3:0:0:0:
30,125,92039,1,0,1:0:0:0:
27,132,92128,2,0,P|34:164|44:206,1,55.0000016784668,8|0,0:0|1:0,0:0:0:0:
186,242,92307,1,0,3:0:0:0:
188,235,92396,1,0,3:0:0:0:
190,227,92485,2,0,P|193:214|196:201,7,27.5000008392334,10|8|8|8|8|8|8|8,0:2|1:2|0:0|0:0|0:0|0:0|0:0|0:0,0:0:0:0:
204,180,92842,1,6,3:2:0:0:
512,320,93378,6,0,P|444:321|375:377,1,139.999995727539,2|2,0:0|0:0,0:0:0:0:
305,260,93914,1,8,0:1:0:0:
302,249,94003,1,2,0:0:0:0:
298,238,94092,1,2,0:0:0:0:
295,227,94182,1,2,0:0:0:0:
294,218,94271,6,0,B|267:101|341:159|303:15,1,200,6|8,3:2|0:0,0:0:0:0:
473,150,94807,1,0,1:0:0:0:
473,150,94896,1,0,1:0:0:0:
473,150,94985,2,0,P|415:163|361:180,1,100,0|2,3:0|0:0,0:0:0:0:
233,93,95342,1,8,0:0:0:0:
177,285,95521,1,0,1:0:0:0:
0,201,95700,6,0,P|54:187|122:173,1,100,2|2,3:2|0:0,0:0:0:0:
230,207,96057,1,8,0:0:0:0:
155,0,96235,1,0,1:0:0:0:
155,0,96325,1,0,1:0:0:0:
155,0,96414,2,0,P|144:53|132:114,1,100,0|2,3:0|0:0,0:0:0:0:
49,38,96771,1,8,0:0:0:0:
237,74,96950,5,0,1:0:0:0:
244,81,97039,1,0,1:0:0:0:
244,81,97128,2,0,P|294:68|353:54,1,100,2|2,3:2|0:0,0:0:0:0:
426,2,97485,1,8,0:0:0:0:
508,193,97664,5,0,1:0:0:0:
467,212,97753,1,0,1:0:0:0:
422,215,97842,1,2,3:2:0:0:
379,198,97932,1,0,1:0:0:0:
348,164,98021,1,0,1:0:0:0:
439,107,98200,1,8,0:0:0:0:
399,306,98378,5,0,1:2:0:0:
399,306,98467,1,0,1:0:0:0:
399,306,98557,2,0,P|355:316|295:329,1,100,0|2,3:0|0:0,0:0:0:0:
133,230,98914,1,8,0:0:0:0:
190,384,99092,5,0,1:0:0:0:
190,384,99182,1,0,1:0:0:0:
190,384,99271,2,0,P|198:340|211:273,1,100,2|0,3:2|0:0,0:0:0:0:
20,185,99628,5,8,0:0:0:0:
0,144,99717,1,0,1:0:0:0:
5,99,99807,1,0,1:0:0:0:
26,59,99896,1,0,1:0:0:0:
68,44,99985,2,0,P|137:57|237:75,1,150,6|0,3:2|0:0,0:0:0:0:
215,71,100342,1,8,0:0:0:0:
326,99,100521,2,0,P|315:51|307:-6,1,100,2|0,0:0|3:0,0:0:0:0:
126,146,100878,2,0,P|137:194|145:251,1,100,2|8,0:0|0:0,0:0:0:0:
275,351,101235,6,0,B|379:328|357:389|471:362,1,200,2|2,0:0|0:0,0:0:0:0:
510,247,101771,1,8,0:0:0:0:
392,169,101950,1,0,1:0:0:0:
392,169,102039,1,0,1:0:0:0:
392,169,102128,2,0,P|402:222|413:287,1,100,0|2,3:0|0:0,0:0:0:0:
275,351,102485,5,8,0:0:0:0:
128,320,102664,1,0,1:0:0:0:
88,336,102753,1,0,1:0:0:0:
49,352,102842,2,0,L|28:252,1,100,2|0,3:2|1:0,0:0:0:0:
25,240,103110,1,0,1:0:0:0:
23,227,103200,1,8,0:0:0:0:
174,115,103378,5,0,1:0:0:0:
182,122,103467,1,0,1:0:0:0:
182,122,103557,2,0,L|166:190,1,50,2|0,3:2|0:0,0:0:0:0:
249,280,103735,5,0,3:0:0:0:
298,289,103825,1,0,1:0:0:0:
345,274,103914,1,8,0:0:0:0:
384,243,104003,1,0,1:0:0:0:
398,195,104092,1,6,3:2:0:0:
330,20,104450,5,2,3:2:0:0:
302,196,104628,1,10,0:0:0:0:
486,131,104807,1,2,3:2:0:0:
230,80,104985,2,0,L|170:93,3,50,4|0|0|0,3:2|1:0|1:0|1:0,0:0:0:0:
330,20,105342,5,8,0:1:0:0:
323,64,105432,1,0,1:0:0:0:
316,108,105521,1,0,1:0:0:0:
309,152,105610,1,0,1:0:0:0:
302,196,105699,1,4,3:2:0:0:
442,363,115164,5,2,0:0:0:0:
442,363,115253,1,2,0:0:0:0:
442,363,115342,1,2,0:0:0:0:
442,363,115432,1,2,0:0:0:0:
442,363,115521,2,0,P|505:291|479:194,1,200,6|2,3:2|3:2,0:0:0:0:
410,146,116057,1,8,0:0:0:0:
311,292,116235,6,0,B|181:274|237:370|87:344,1,240,4|8,3:2|0:0,0:0:0:0:
33,262,116950,5,8,0:0:0:0:
33,262,117039,1,8,0:0:0:0:
33,262,117128,2,0,P|46:178|59:83,1,179.999994506836,6|8,3:2|0:0,0:0:0:0:
228,153,117664,5,0,1:0:0:0:
228,153,117753,1,0,1:0:0:0:
228,153,117842,2,0,P|182:163|118:177,1,89.9999972534181,2|2,3:2|0:0,0:0:0:0:
163,81,118200,1,8,0:0:0:0:
352,227,118378,6,0,P|372:135|394:31,1,179.999994506836,2|2,0:0|0:0,0:0:0:0:
297,0,118914,2,0,P|287:46|276:98,1,89.9999972534181,8|0,0:0|1:0,0:0:0:0:
278,87,119182,1,0,1:0:0:0:
278,87,119271,1,2,3:2:0:0:
472,178,119450,1,2,0:0:0:0:
279,286,119628,1,8,0:0:0:0:
507,382,119807,5,0,1:0:0:0:
507,382,119896,1,0,1:0:0:0:
507,382,119985,2,0,P|436:326|341:338,1,179.999994506836,2|8,3:2|0:0,0:0:0:0:
195,232,120521,2,0,P|185:284|176:338,1,89.9999972534181,2|0,0:0|3:2,0:0:0:0:
178,320,120789,1,0,1:0:0:0:
178,320,120878,1,2,0:0:0:0:
279,286,121057,1,8,0:0:0:0:
107,184,121235,6,0,P|194:193|261:138,1,179.999994506836,2|2,0:2|0:0,0:0:0:0:
442,190,121771,1,8,0:0:0:0:
402,13,121950,5,0,1:0:0:0:
369,37,122039,1,0,1:0:0:0:
347,71,122128,1,2,3:2:0:0:
345,111,122217,1,0,1:0:0:0:
361,148,122307,1,0,1:0:0:0:
512,107,122485,2,0,L|406:93,1,89.9999972534181,8|0,0:0|1:0,0:0:0:0:
422,95,122753,1,0,1:0:0:0:
422,95,122842,1,2,3:2:0:0:
237,339,123200,6,0,L|333:318,1,89.9999972534181,8|0,0:0|1:0,0:0:0:0:
362,334,123467,1,0,1:0:0:0:
402,327,123557,1,2,3:2:0:0:
435,303,123646,1,0,1:0:0:0:
451,265,123735,1,0,1:0:0:0:
348,154,123914,6,0,P|359:209|366:254,1,89.9999972534181,8|0,0:0|1:0,0:0:0:0:
237,339,124271,2,0,P|156:287|49:311,1,179.999994506836,2|8,3:2|0:0,0:0:0:0:
0,339,124807,2,0,L|10:396,2,44.999998626709,0|0|2,1:0|1:0|3:2,0:0:0:0:
161,243,125164,1,2,0:0:0:0:
29,165,125342,2,0,L|44:76,1,89.9999972534181,8|0,0:0|1:0,0:0:0:0:
44,76,125610,1,0,1:0:0:0:
44,76,125700,6,0,B|142:92|113:32|223:53,1,179.999994506836,4|8,3:2|0:0,0:0:0:0:
354,190,126235,1,0,1:0:0:0:
354,190,126325,1,0,1:0:0:0:
354,190,126414,1,2,3:2:0:0:
320,0,126592,1,0,1:0:0:0:
230,169,126771,1,8,0:0:0:0:
417,92,126950,6,0,L|382:285,1,179.999994506836,4|0,3:2|3:0,0:0:0:0:
384,269,127396,1,0,1:0:0:0:
384,269,127485,1,8,0:0:0:0:
200,378,127664,6,0,L|210:329,1,44.999998626709,0|0,3:0|1:0,0:0:0:0:
218,247,127842,1,2,3:2:0:0:
218,247,127932,1,0,0:0:0:0:
218,247,128021,1,0,1:0:0:0:
360,353,128200,1,8,0:0:0:0:
135,288,128378,5,8,0:0:0:0:
135,288,128468,1,8,0:0:0:0:
135,288,128557,2,0,P|57:294|-3:245,1,139.999995727539,4|0,3:2|0:0,0:0:0:0:
38,182,129092,2,0,L|30:142,2,34.9999989318848,0|0|8,3:0|3:0|0:0,0:0:0:0:
69,384,129450,1,2,3:2:0:0:
275,243,129807,6,0,L|359:257,1,69.9999978637696,4|0,3:2|0:0,0:0:0:0:
400,183,130164,2,0,L|232:157,1,139.999995727539,4|0,3:2|3:0,0:0:0:0:
253,165,130610,1,0,3:0:0:0:
244,168,130700,2,0,P|237:131|227:94,1,69.9999978637696,8|0,0:0|0:0,0:0:0:0:
301,5,131057,2,0,P|307:41|317:78,1,69.9999978637696,2|0,0:0|3:0,0:0:0:0:
170,213,131414,6,0,P|109:178|33:196,1,139.999995727539,4|0,3:2|0:0,0:0:0:0:
0,119,131950,2,0,L|7:80,2,34.9999989318848,0|0|8,3:0|3:0|0:0,0:0:0:0:
93,266,132307,2,0,L|79:344,1,69.9999978637696,2|0,3:2|0:0,0:0:0:0:
261,161,132664,1,4,3:2:0:0:
261,161,133021,6,0,P|332:204|406:185,1,139.999995727539,4|0,3:2|3:0,0:0:0:0:
390,188,133467,1,0,3:0:0:0:
394,177,133557,2,0,L|375:93,1,69.9999978637696,8|0,0:0|0:0,0:0:0:0:
496,260,133914,2,0,L|477:344,1,69.9999978637696,2|0,0:0|1:0,0:0:0:0:
480,328,134182,1,0,1:0:0:0:
480,328,134271,2,0,B|399:316|426:364|331:349,1,139.999995727539,4|0,3:2|0:0,0:0:0:0:
255,325,134807,2,0,L|249:365,2,34.9999989318848,0|0|8,3:0|3:0|0:0,0:0:0:0:
200,251,135164,2,0,L|284:231,1,69.9999978637696,2|0,0:0|0:0,0:0:0:0:
448,190,135521,6,0,P|480:131|469:46,1,139.999995727539,8|8,0:0|0:0,0:0:0:0:
385,14,136057,2,0,L|369:88,1,69.9999978637696,2|0,0:0|3:0,0:0:0:0:
370,82,136325,1,0,3:0:0:0:
370,82,136414,2,0,L|288:100,1,69.9999978637696,8|0,0:0|0:0,0:0:0:0:
123,44,136771,2,0,L|191:29,1,69.9999978637696,2|0,0:0|1:0,0:0:0:0:
191,29,137039,1,0,1:0:0:0:
191,29,137128,6,0,B|217:156|140:109|167:243,1,209.999993591309,6|0,3:2|3:0,0:0:0:0:
164,231,137753,1,0,3:0:0:0:
164,231,137842,1,8,0:0:0:0:
103,303,138021,2,0,L|33:293,1,69.9999978637696,2|0,0:0|3:0,0:0:0:0:
256,384,138378,6,0,P|310:347|396:356,1,139.999995727539,6|2,3:2|0:0,0:0:0:0:
382,349,138825,1,0,0:0:0:0:
382,349,138914,1,0,3:0:0:0:
483,256,139092,5,2,0:0:0:0:
483,256,139182,1,2,0:0:0:0:
483,256,139271,2,0,L|492:300,1,34.9999989318848,8|0,0:0|0:0,0:0:0:0:
361,217,139450,2,0,L|352:173,1,34.9999989318848,0|0,3:0|1:0,0:0:0:0:
256,384,139628,5,8,0:0:0:0:
221,377,139717,1,0,3:0:0:0:
187,370,139806,1,0,3:0:0:0:
153,363,139895,1,0,3:0:0:0:
118,355,139985,6,0,B|81:252|145:292|101:160,1,179.999994506836,6|8,3:2|0:0,0:0:0:0:
44,116,140521,2,0,L|-1:125,2,44.999998626709,0|0|2,1:0|1:0|3:2,0:0:0:0:
185,83,140878,1,2,0:0:0:0:
256,214,141057,1,8,0:0:0:0:
456,169,141235,5,0,1:0:0:0:
456,169,141325,1,0,1:0:0:0:
456,169,141414,2,0,P|465:121|474:73,1,89.9999972534181,2|0,3:2|0:0,0:0:0:0:
350,185,141771,1,8,0:0:0:0:
512,266,141950,1,0,1:0:0:0:
473,254,142039,1,0,1:0:0:0:
433,259,142128,1,2,3:2:0:0:
398,279,142217,1,0,1:0:0:0:
374,311,142307,1,0,1:0:0:0:
466,362,142485,1,10,0:0:0:0:
284,268,142664,5,0,1:0:0:0:
284,268,142753,1,0,1:0:0:0:
284,268,142842,2,0,P|298:175|315:72,1,179.999994506836,2|8,3:2|0:0,0:0:0:0:
192,0,143378,5,0,1:0:0:0:
170,34,143467,1,0,1:0:0:0:
131,48,143557,1,0,3:2:0:0:
91,56,143646,1,0,1:0:0:0:
51,46,143735,1,2,0:0:0:0:
187,167,143914,2,0,L|173:228,1,44.999998626709,8|0,0:0|0:0,0:0:0:0:
11,194,144092,5,0,1:0:0:0:
11,194,144182,1,0,1:0:0:0:
11,194,144271,2,0,L|112:172,1,89.9999972534181,2|0,3:2|0:0,0:0:0:0:
256,320,144628,2,0,L|357:298,1,89.9999972534181,8|0,0:0|1:0,0:0:0:0:
381,316,144896,1,0,1:0:0:0:
421,314,144985,1,2,3:2:0:0:
458,297,145075,1,0,1:0:0:0:
484,266,145164,1,0,1:0:0:0:
318,143,145342,1,8,0:0:0:0:
433,55,145521,5,0,1:0:0:0:
433,55,145610,1,0,1:0:0:0:
433,55,145700,2,0,L|398:235,1,179.999994506836,2|8,3:2|0:0,0:0:0:0:
246,134,146235,5,0,1:0:0:0:
219,164,146325,1,0,1:0:0:0:
181,179,146414,1,2,3:2:0:0:
140,183,146503,1,0,1:0:0:0:
101,172,146592,1,0,1:0:0:0:
156,82,146771,1,8,0:0:0:0:
234,300,146950,5,0,1:0:0:0:
234,300,147039,1,0,1:0:0:0:
234,300,147128,2,0,P|239:325|244:352,1,44.999998626709,2|0,3:2|0:0,0:0:0:0:
151,384,147307,2,0,P|142:334|132:280,1,89.9999972534181,2|8,0:0|0:0,0:0:0:0:
352,352,147664,5,0,1:0:0:0:
379,322,147753,1,0,1:0:0:0:
416,306,147842,1,0,3:0:0:0:
456,303,147932,1,0,1:0:0:0:
494,312,148021,1,2,0:2:0:0:
372,133,148200,2,0,P|365:177|359:222,1,89.9999972534181,10|0,0:0|1:0,0:0:0:0:
151,384,148557,5,2,3:2:0:0:
90,169,148735,1,0,3:0:0:0:
285,256,148914,1,8,0:0:0:0:
329,42,149092,1,0,3:0:0:0:
207,205,149271,5,10,0:0:0:0:
192,242,149360,1,8,0:0:0:0:
194,282,149450,1,8,0:0:0:0:
211,318,149539,1,8,0:0:0:0:
242,342,149628,2,0,L|266:347,8,22.4999993133545,8|8|8|8|8|8|8|8|12,0:2|1:2|1:2|1:2|1:2|1:2|1:2|1:2|3:2,0:0:0:0:
480,256,150700,5,0,1:0:0:0:
482,245,150789,1,0,1:0:0:0:
484,234,150878,1,0,1:0:0:0:
486,223,150968,1,0,1:0:0:0:
488,212,151057,2,0,L|479:168,1,44.999998626709,8|0,0:1|1:0,0:0:0:0:
390,54,151235,2,0,L|381:98,1,44.999998626709,0|0,1:0|1:0,0:0:0:0:
343,252,151414,6,0,P|271:264|207:278,1,110.000003356934,6|0,3:2|0:0,0:0:0:0:
275,174,151771,1,8,0:0:0:0:
179,348,151950,1,0,1:0:0:0:
179,348,152039,1,0,1:0:0:0:
179,348,152128,2,0,P|145:296|154:235,1,110.000003356934,2|2,3:2|0:0,0:0:0:0:
198,73,152485,1,8,0:0:0:0:
359,174,152664,5,0,1:0:0:0:
359,174,152753,1,0,1:0:0:0:
359,174,152842,2,0,P|417:160|478:146,1,110.000003356934,2|0,3:2|0:0,0:0:0:0:
388,70,153200,1,8,0:0:0:0:
414,255,153378,5,0,1:0:0:0:
366,269,153467,1,0,1:0:0:0:
316,265,153557,1,2,3:2:0:0:
276,235,153646,1,0,1:0:0:0:
257,189,153735,1,0,1:0:0:0:
148,18,153914,2,0,P|136:74|123:134,1,110.000003356934,8|0,0:0|1:0,0:0:0:0:
178,383,154271,5,2,3:2:0:0:
31,243,154450,1,2,0:0:0:0:
257,189,154628,1,8,0:0:0:0:
116,313,154807,5,0,1:0:0:0:
116,313,154896,1,0,1:0:0:0:
116,313,154985,2,0,L|126:254,2,55.0000016784668,0|0|2,3:0|1:0|1:2,0:0:0:0:
293,375,155342,1,8,0:0:0:0:
401,244,155521,5,0,1:0:0:0:
401,244,155610,1,0,1:0:0:0:
401,244,155700,2,0,P|340:257|287:269,1,110.000003356934,2|2,3:2|0:0,0:0:0:0:
109,88,156057,1,8,0:0:0:0:
36,182,156235,2,0,P|121:202|222:105,1,220.000006713867,2|2,0:0|0:0,0:0:0:0:
422,10,156771,5,8,0:0:0:0:
422,10,156860,1,0,1:0:0:0:
422,10,156950,1,0,1:0:0:0:
422,10,157039,1,0,1:0:0:0:
422,10,157128,2,0,P|408:68|394:131,1,110.000003356934,6|0,3:2|0:0,0:0:0:0:
313,48,157485,1,8,0:0:0:0:
469,197,157664,5,0,1:0:0:0:
469,197,157753,1,0,1:0:0:0:
469,197,157842,2,0,P|411:209|353:222,1,110.000003356934,2|2,3:2|0:2,0:0:0:0:
396,117,158200,1,8,0:0:0:0:
229,14,158378,5,0,1:0:0:0:
229,14,158467,1,0,1:0:0:0:
229,14,158557,2,0,P|217:72|204:130,1,110.000003356934,6|2,3:2|0:0,0:0:0:0:
266,325,158914,1,8,0:0:0:0:
26,242,159092,2,0,P|99:192|184:207,1,165.000005035401,6|0,3:2|0:0,0:0:0:0:
171,200,159450,1,2,0:0:0:0:
367,290,159628,6,0,L|428:279,1,55.0000016784668,8|0,0:0|1:0,0:0:0:0:
292,159,159807,1,0,1:0:0:0:
292,159,159896,1,0,1:0:0:0:
292,159,159985,1,4,3:2:0:0:
256,384,160164,1,2,0:0:0:0:
375,201,160342,1,8,0:0:0:0:
160,345,160521,5,2,0:0:0:0:
118,371,160610,1,0,1:0:0:0:
68,373,160700,1,0,3:0:0:0:
21,356,160789,1,0,1:0:0:0:
4,308,160878,1,2,3:2:0:0:
161,197,161057,1,8,0:0:0:0:
352,384,161235,6,0,P|447:348|473:235,1,220.000006713867,4|0,3:2|3:0,0:0:0:0:
469,228,161682,1,0,3:0:0:0:
462,216,161771,2,0,L|483:108,1,110.000003356934,8|0,0:0|3:0,0:0:0:0:
233,19,162128,5,2,3:2:0:0:
210,62,162217,1,0,1:0:0:0:
205,111,162307,1,0,3:0:0:0:
220,158,162396,1,0,1:0:0:0:
256,192,162485,1,8,0:0:0:0:
292,226,162575,1,8,0:0:0:0:
307,273,162664,1,8,0:0:0:0:
302,322,162754,1,8,0:0:0:0:
279,365,162842,6,0,B|198:354|198:354|149:377|149:377|40:365,1,220.000006713867,6|10,3:2|0:0,0:0:0:0:
1,198,163378,1,0,1:0:0:0:
1,198,163467,1,0,1:0:0:0:
1,198,163557,2,0,P|59:186|130:168,1,110.000003356934,2|2,3:2|0:0,0:0:0:0:
70,278,163914,1,8,0:0:0:0:
37,101,164092,1,0,1:0:0:0:
210,156,164271,6,0,B|324:173|300:97|420:121,1,220.000006713867,2|8,3:2|0:0,0:0:0:0:
389,263,164807,1,0,1:0:0:0:
389,263,164896,1,0,1:0:0:0:
389,263,164985,2,0,L|379:206,2,55.0000016784668,2|0|0,3:2|1:0|1:0,0:0:0:0:
493,73,165342,2,0,L|513:187,1,110.000003356934,8|0,0:0|1:0,0:0:0:0:
362,346,165700,5,0,3:0:0:0:
420,121,165878,1,2,0:0:0:0:
356,367,166057,1,8,0:0:0:0:
91,246,166235,5,0,1:0:0:0:
120,206,166325,1,0,1:0:0:0:
164,185,166414,1,2,3:2:0:0:
213,180,166503,1,0,1:0:0:0:
259,196,166592,1,0,1:0:0:0:
207,384,166771,2,0,L|187:272,1,110.000003356934,8|2,0:0|0:0,0:0:0:0:
385,124,167128,5,4,3:2:0:0:
320,337,167307,1,0,3:0:0:0:
320,337,167396,1,8,0:0:0:0:
320,337,167485,1,8,0:0:0:0:
44,297,167664,6,0,P|29:237|14:176,1,110.000003356934,4|0,3:2|1:2,0:0:0:0:
98,166,167932,1,0,1:2:0:0:
98,166,168021,2,0,P|113:226|128:287,1,110.000003356934,4|0,3:2|0:0,0:0:0:0:
320,337,168378,6,0,P|449:339|516:248,1,220.000006713867,4|2,3:2|3:2,0:0:0:0:
411,122,168914,2,0,L|392:231,1,110.000003356934,8|2,0:0|0:0,0:0:0:0:
392,231,169182,1,2,0:0:0:0:
392,231,169271,1,0,3:0:0:0:
250,186,169450,1,2,0:0:0:0:
177,360,169628,2,0,L|69:383,1,110.000003356934,10|0,0:0|1:0,0:0:0:0:
69,382,169896,1,0,1:0:0:0:
69,382,169985,5,4,3:2:0:0:
272,261,170164,1,2,0:0:0:0:
62,171,170342,1,8,0:0:0:0:
149,268,170521,6,0,B|120:139|190:194|154:44,1,220.000006713867,6|0,3:2|3:0,0:0:0:0:
312,14,171057,1,8,0:0:0:0:
352,42,171146,1,0,1:0:0:0:
400,52,171235,1,0,1:0:0:0:
449,53,171325,1,0,1:0:0:0:
494,35,171414,5,4,3:2:0:0:
462,263,171592,1,0,0:0:0:0:
264,176,171771,1,8,0:0:0:0:
264,176,171860,1,0,1:0:0:0:
264,176,171950,2,0,L|324:162,1,55.0000016784668,0|0,1:0|1:0,0:0:0:0:
477,354,172128,5,6,3:2:0:0:
429,368,172217,1,8,0:0:0:0:
380,358,172307,1,8,0:0:0:0:
349,319,172396,1,8,0:0:0:0:
346,269,172485,2,0,L|353:238,7,27.5000008392334,10|8|8|8|8|8|8|8,0:2|1:2|1:2|1:2|1:2|1:2|1:2|1:2,0:0:0:0:
354,232,172842,5,6,3:2:0:0:
192,64,173378,6,0,L|43:90,1,139.999995727539,2|2,0:0|0:0,0:0:0:0:
0,265,173914,2,0,L|9:311,1,34.9999989318848,8|0,0:1|1:0,0:0:0:0:
83,380,174092,2,0,L|92:334,1,34.9999989318848,0|0,1:0|1:0,0:0:0:0:
186,298,174271,6,0,B|302:267|255:335|390:300,1,200,6|10,3:2|0:0,0:0:0:0:
494,246,174807,1,0,1:0:0:0:
494,246,174896,1,0,1:0:0:0:
494,246,174985,2,0,L|480:305,2,50,2|0|0,3:2|1:0|1:0,0:0:0:0:
438,78,175342,1,8,0:0:0:0:
303,199,175521,5,0,1:0:0:0:
303,199,175610,1,0,1:0:0:0:
303,199,175700,2,0,P|358:185|403:176,1,100,0|2,3:0|0:0,0:0:0:0:
316,88,176057,1,8,0:0:0:0:
353,282,176235,5,0,1:0:0:0:
309,296,176325,1,0,1:0:0:0:
264,293,176414,1,2,3:2:0:0:
225,269,176503,1,0,1:0:0:0:
205,228,176592,1,0,1:0:0:0:
316,88,176771,1,8,0:0:0:0:
103,21,176950,5,0,1:0:0:0:
103,21,177039,1,0,1:0:0:0:
103,21,177128,2,0,P|116:79|129:159,1,100,2|0,3:2|0:0,0:0:0:0:
204,48,177485,1,8,0:0:0:0:
29,185,177664,5,0,1:0:0:0:
71,169,177753,1,0,1:0:0:0:
115,170,177842,1,2,3:2:0:0:
157,185,177932,1,0,1:0:0:0:
182,221,178021,1,2,0:0:0:0:
288,160,178200,1,10,0:0:0:0:
112,356,178378,5,0,1:0:0:0:
112,356,178467,1,0,1:0:0:0:
112,356,178557,2,0,P|103:302|91:253,1,100,2|2,3:2|0:0,0:0:0:0:
214,127,178914,1,8,0:0:0:0:
320,320,179092,5,0,1:0:0:0:
320,320,179182,1,0,1:0:0:0:
320,320,179271,2,0,L|371:331,1,50,2|0,3:2|1:0,0:0:0:0:
464,224,179450,2,0,L|413:235,1,50,2|0,0:0|1:0,0:0:0:0:
247,372,179628,5,8,0:0:0:0:
204,384,179717,1,0,1:0:0:0:
159,374,179807,1,0,1:0:0:0:
121,349,179896,1,0,1:0:0:0:
97,310,179985,2,0,L|-7:334,1,100,2|0,3:2|0:0,0:0:0:0:
163,106,180342,5,8,0:0:0:0:
172,150,180432,1,0,1:0:0:0:
181,194,180521,1,0,1:0:0:0:
190,238,180610,1,0,1:0:0:0:
199,282,180699,1,2,3:2:0:0:
372,187,180878,1,2,0:0:0:0:
445,379,181057,1,10,0:0:0:0:
283,254,181235,1,2,0:0:0:0:
496,127,181414,6,0,P|486:178|474:235,1,100,2|0,3:2|0:0,0:0:0:0:
353,322,181771,1,8,0:0:0:0:
181,194,181950,5,2,1:2:0:0:
140,213,182039,1,2,1:2:0:0:
95,215,182128,1,0,3:0:0:0:
52,201,182217,1,0,1:0:0:0:
25,164,182307,2,0,L|16:113,1,50,2|2,1:2|1:2,0:0:0:0:
84,48,182485,6,0,L|79:22,7,25,10|2|2|2|2|2|2|2,0:2|1:2|1:2|1:2|1:2|1:2|1:2|1:2,0:0:0:0:
76,4,182842,5,4,3:2:0:0:
181,194,183021,1,2,3:2:0:0:
0,294,183200,1,8,0:0:0:0:
173,97,183378,5,0,3:0:0:0:
173,97,183467,1,0,3:0:0:0:
173,97,183557,2,0,L|282:114,1,100,6|2,3:2|3:2,0:0:0:0:
478,213,183914,1,10,0:0:0:0:
436,7,184092,1,2,3:2:0:0:
330,257,184271,5,6,3:2:0:0:
269,17,184450,1,2,3:2:0:0:
497,103,184628,1,10,0:0:0:0:
209,240,184807,1,0,3:0:0:0:
209,240,184896,1,0,3:0:0:0:
209,240,184985,1,6,3:2:0:0:
480,352,185164,1,2,3:2:0:0:
290,135,185342,2,0,L|281:191,1,50,8|0,0:0|1:0,0:0:0:0:
242,373,185521,5,0,1:0:0:0:
242,373,185610,1,0,1:0:0:0:
242,373,185700,1,6,3:2:0:0:
179,82,185878,1,0,0:0:0:0:
179,82,185967,1,8,0:0:0:0:
179,82,186057,1,8,0:0:0:0:
337,297,186235,5,6,3:2:0:0:
49,199,186414,2,0,L|-1:207,2,50,0|8|8,0:0|0:0|0:0,0:0:0:0:
337,297,186771,5,2,3:2:0:0:
383,314,186860,1,2,0:0:0:0:
433,307,186950,1,2,0:0:0:0:
471,275,187039,1,2,0:0:0:0:
489,233,187128,2,0,B|526:166|452:69|346:102|317:186|317:186|246:217|148:177|129:40|204:-36|340:-36|372:68|344:112,1,719.999978027344,6|2,3:2|0:0,0:0:0:0:
327,354,199985,5,2,1:2:0:0:
366,344,200075,1,2,1:2:0:0:
405,335,200164,1,2,1:2:0:0:
444,327,200253,1,2,1:2:0:0:
482,318,200342,2,0,L|500:227,1,89.9999972534181,2|0,0:0|1:0,0:0:0:0:
501,219,200610,1,0,1:0:0:0:
505,206,200700,1,2,0:0:0:0:
364,47,200878,1,0,0:0:0:0:
304,176,201057,2,0,P|367:188|432:130,1,119.999996337891,8|0,0:1|1:0,0:0:0:0:
414,162,201325,1,0,1:0:0:0:
414,162,201414,6,0,B|311:132|326:242|200:208,1,220.000006713867,6|8,3:2|0:0,0:0:0:0:
90,55,201950,1,0,1:0:0:0:
90,55,202039,1,0,1:0:0:0:
90,55,202128,2,0,L|66:179,1,110.000003356934,2|2,3:2|0:0,0:0:0:0:
170,114,202485,1,8,0:0:0:0:
0,264,202664,5,0,1:0:0:0:
0,264,202753,1,0,1:0:0:0:
0,264,202842,2,0,P|102:254|183:329,1,220.000006713867,2|8,3:2|0:0,0:0:0:0:
313,197,203378,1,0,1:0:0:0:
313,197,203467,1,0,1:0:0:0:
313,197,203557,1,2,3:2:0:0:
280,384,203735,1,0,1:0:0:0:
417,318,203914,6,0,L|345:331,1,55.0000016784668,8|0,0:0|1:0,0:0:0:0:
223,209,204092,2,0,L|151:222,1,55.0000016784668,0|0,1:0|1:0,0:0:0:0:
417,28,204271,6,0,L|392:144,1,110.000003356934,2|0,3:2|1:0,0:0:0:0:
393,135,204539,1,0,1:0:0:0:
393,135,204628,1,8,0:0:0:0:
200,92,204807,6,0,P|254:81|311:66,1,110.000003356934,2|0,0:0|3:0,0:0:0:0:
505,214,205164,2,0,P|451:225|394:240,1,110.000003356934,2|8,0:0|0:0,0:0:0:0:
276,166,205521,1,0,0:0:0:0:
307,384,205700,6,0,L|328:262,1,110.000003356934,6|0,3:2|0:0,0:0:0:0:
325,275,205967,1,8,0:0:0:0:
325,275,206057,1,8,0:0:0:0:
306,68,206235,2,0,P|360:80|418:91,1,110.000003356934,6|0,3:2|1:0,0:0:0:0:
398,179,206503,1,0,1:0:0:0:
398,179,206592,2,0,P|344:167|286:156,1,110.000003356934,6|0,3:2|0:0,0:0:0:0:
24,362,206950,6,0,P|147:367|224:293,1,220.000006713867,6|2,3:2|3:2,0:0:0:0:
221,295,207396,1,0,1:0:0:0:
226,282,207485,2,0,L|209:169,1,110.000003356934,8|2,0:0|0:0,0:0:0:0:
373,47,207842,5,0,3:0:0:0:
325,249,208021,1,2,0:0:0:0:
512,185,208200,1,10,0:0:0:0:
253,73,208378,5,0,1:0:0:0:
253,73,208467,1,0,1:0:0:0:
253,73,208557,2,0,P|185:85|128:96,1,110.000003356934,6|2,3:2|0:0,0:0:0:0:
290,156,208914,1,8,0:0:0:0:
64,0,209092,6,0,P|50:98|30:228,1,220.000006713867,6|0,3:2|3:0,0:0:0:0:
240,384,209628,1,8,0:0:0:0:
212,343,209717,1,0,1:0:0:0:
165,326,209806,1,0,1:0:0:0:
115,327,209895,1,0,1:0:0:0:
69,347,209985,5,6,3:2:0:0:
187,155,210164,2,0,L|172:214,1,55.0000016784668,0|0,1:0|1:0,0:0:0:0:
318,329,210342,2,0,L|436:299,1,110.000003356934,8|0,0:0|1:0,0:0:0:0:
424,301,210610,1,0,1:0:0:0:
424,301,210700,2,0,L|438:248,1,55.0000016784668,8|0,0:0|1:0,0:0:0:0:
384,160,210878,5,0,3:0:0:0:
340,167,210967,1,0,3:0:0:0:
309,134,211057,2,0,L|320:91,7,27.5000008392334,10|8|8|8|8|8|8|8,0:2|1:2|0:0|0:0|0:0|0:0|0:0|0:0,0:0:0:0:
319,94,211414,1,6,3:2:0:0:
21,31,211950,6,0,P|107:30|158:78,1,144.000003515625,2|2,0:0|0:0,0:0:0:0:
190,144,212396,1,2,0:0:0:0:
187,155,212485,2,0,L|169:237,1,72.0000017578125,8|2,0:1|0:0,0:0:0:0:
72,384,212842,6,0,P|59:288|45:193,1,192.0000046875,6|10,3:2|0:0,0:0:0:0:
248,0,213378,2,0,P|285:47|263:107,1,96.0000023437501,2|0,0:0|3:0,0:0:0:0:
171,225,213735,5,2,1:2:0:0:
100,43,213914,1,8,0:0:0:0:
281,80,214092,2,0,L|479:43,1,192.0000046875,2|2,0:0|0:0,0:0:0:0:
510,268,214628,2,0,P|461:260|419:223,1,96.0000023437501,8|0,0:0|1:0,0:0:0:0:
357,156,214896,1,0,1:0:0:0:
357,156,214985,2,0,L|336:257,1,96.0000023437501,2|2,3:2|0:0,0:0:0:0:
381,348,215342,1,8,0:0:0:0:
262,197,215521,5,0,1:0:0:0:
262,197,215610,1,0,1:0:0:0:
262,197,215700,2,0,L|163:217,1,96.0000023437501,2|2,3:2|0:0,0:0:0:0:
98,158,216057,1,8,0:0:0:0:
164,343,216235,1,2,0:0:0:0:
123,367,216324,1,0,1:0:0:0:
75,371,216413,1,0,3:0:0:0:
31,354,216502,1,0,1:0:0:0:
0,319,216592,1,2,0:0:0:0:
95,276,216771,1,8,0:0:0:0:
260,384,216950,6,0,L|457:354,1,192.0000046875,2|2,0:0|0:0,0:0:0:0:
325,223,217485,1,8,0:0:0:0:
499,178,217664,5,0,1:0:0:0:
512,221,217753,1,0,1:0:0:0:
487,262,217842,2,0,L|376:283,1,96.0000023437501,2|0,3:2|0:0,0:0:0:0:
340,134,218200,5,8,0:0:0:0:
333,91,218289,1,0,1:0:0:0:
304,59,218378,1,0,1:0:0:0:
264,41,218467,1,0,1:0:0:0:
220,42,218557,2,0,P|177:52|121:64,1,96.0000023437501,6|0,3:2|0:0,0:0:0:0:
205,142,218914,1,8,0:0:0:0:
44,10,219092,6,0,P|31:94|16:179,1,144.000003515625,2|0,0:0|0:0,0:0:0:0:
16,179,219450,1,2,0:0:0:0:
194,264,219628,1,8,0:0:0:0:
84,384,219807,5,2,1:2:0:0:
84,384,219896,1,0,1:0:0:0:
84,384,219985,2,0,P|75:328|65:272,1,96.0000023437501,0|2,3:0|0:0,0:0:0:0:
205,142,220342,1,8,0:0:0:0:
342,295,220521,5,0,1:0:0:0:
303,314,220610,1,0,1:0:0:0:
260,314,220699,1,0,3:0:0:0:
221,297,220788,1,0,1:0:0:0:
194,264,220878,1,2,0:0:0:0:
307,123,221057,6,0,P|295:181|283:232,1,96.0000023437501,8|0,0:0|1:0,0:0:0:0:
286,216,221325,1,0,1:0:0:0:
286,216,221414,1,0,3:0:0:0:
441,281,221592,2,0,L|494:272,2,48.000001171875,2|2|8,0:0|0:0|0:0,0:0:0:0:
402,186,221950,1,2,0:0:0:0:
402,186,222039,1,2,0:0:0:0:
402,186,222128,1,0,3:0:0:0:
296,384,222307,5,2,0:0:0:0:
248,377,222396,1,2,0:0:0:0:
200,371,222485,1,8,0:0:0:0:
153,365,222574,1,2,0:0:0:0:
105,358,222664,1,6,3:2:0:0:
105,358,223021,5,2,3:2:0:0:
63,154,223200,1,10,0:0:0:0:
272,109,223378,1,2,3:2:0:0:
317,318,223557,6,0,P|367:329|436:345,1,96.0000023437501,6|0,3:2|0:0,0:0:0:0:
477,273,223914,1,8,0:1:0:0:
255,382,224092,5,2,0:0:0:0:
255,382,224182,1,2,0:0:0:0:
255,382,224271,2,0,B|187:394|167:322|213:274|276:298|276:298|344:314|397:236|360:161|289:149|236:183|236:183|174:229|70:186|50:43|143:-38|276:-7|285:82,1,896,6|0,3:2|0:0,0:0:0:0:
281,62,227128,6,0,L|453:33,1,160,6|0,3:2|3:0,0:0:0:0:
378,139,227664,1,2,0:0:0:0:
203,19,227842,6,0,L|183:110,1,80,2|0,3:2|0:0,0:0:0:0:
283,280,228200,2,0,L|303:189,1,80,0|0,3:0|0:0,0:0:0:0:
114,148,228557,5,2,3:2:0:0:
146,368,228735,1,0,3:0:0:0:
369,337,228914,1,0,3:0:0:0:
334,113,229092,1,0,3:0:0:0:
80,236,229271,5,0,3:0:0:0:
130,244,229360,1,0,3:0:0:0:
181,253,229450,1,0,3:0:0:0:
232,261,229539,1,0,3:0:0:0:
280,242,229628,5,0,3:0:0:0:
331,251,229717,1,0,3:0:0:0:
382,259,229807,1,0,3:0:0:0:
433,268,229896,1,0,3:0:0:0:
480,249,229985,5,6,3:2:0:0:
256,192,230075,12,0,237128,0:0:0:0:
