osu file format v14

[General]
AudioFilename: audio.mp3
AudioLeadIn: 0
PreviewTime: 33176
Countdown: 0
SampleSet: Normal
StackLeniency: 0.7
Mode: 1
LetterboxInBreaks: 0
WidescreenStoryboard: 0

[Editor]
Bookmarks: 11235,22206,27692,30435,33178,44149,55121,58206,62320,67806,70548,73291,84263,95234,100720,103463,106206,117177,128148,131234,133977,144948,150434,153176,155919,166891,172376,175119,180605,186091,191576,192262,194317,194319,202548,205634,208376,211119,222091,233062,238548,241291,244376
DistanceSpacing: 0.8
BeatDivisor: 4
GridSize: 4
TimelineZoom: 1.5

[Metadata]
Title:Kiss no Hitotsu de
TitleUnicode:キスのひとつで
Artist:Sasaki Sayaka
ArtistUnicode:佐咲紗花
Creator:Volta
Version:Oni
Source:ちいさな彼女の小夜曲
Tags:taiko chiisana kanojo no Little Princess's serenade セレナーデ chiikano visual novel eroge ending feng
BeatmapID:1212728
BeatmapSetID:572323

[Difficulty]
HPDrainRate:5
CircleSize:5
OverallDifficulty:5.5
ApproachRate:5
SliderMultiplier:1.4
SliderTickRate:1

[Events]
//Background and Video events
0,0,"no.jpg",0,95
//Break Periods
//Storyboard Layer 0 (Background)
//Storyboard Layer 1 (Fail)
//Storyboard Layer 2 (Pass)
//Storyboard Layer 3 (Foreground)
//Storyboard Sound Samples

[TimingPoints]
262,342.857142857143,4,1,0,40,1,0
262,-125,4,1,0,40,0,0
11147,-111.111111111111,4,1,0,50,0,0
20404,-111.111111111111,4,1,0,60,0,0
22119,-100,4,1,0,70,0,0
27647,-100,4,1,0,50,0,0
28033,-125,4,1,0,50,0,0
30004,-111.111111111111,4,1,0,80,0,0
33133,-100,4,1,0,95,0,0
33176,-100,4,1,0,95,0,1
57862,342.857142857143,4,1,0,50,1,9
58204,342.857142857143,4,1,0,50,1,0
58204,-111.111111111111,4,1,0,50,0,0
60604,-111.111111111111,4,1,0,35,0,0
62146,-125,4,1,0,45,0,0
66518,-125,4,1,0,70,0,0
70718,-111.111111111111,4,1,0,70,0,0
72087,-105.263157894737,4,1,0,70,0,0
73461,-100,4,1,0,85,0,0
95232,-111.111111111111,4,1,0,75,0,0
101061,-125,4,1,0,70,0,0
103289,-100,4,1,0,80,0,0
106204,-100,4,1,0,95,0,1
130889,342.857142857143,4,1,0,60,1,9
131232,342.857142857143,4,1,0,60,1,0
133803,-125,4,1,0,50,0,0
144860,-125,4,1,0,40,0,0
149917,-100,4,1,0,80,0,0
180432,-125,4,1,0,55,0,0
185917,-111.111111111111,4,1,0,65,0,0
189689,-100,4,1,0,75,0,0
191917,-100,4,1,0,85,0,0
194317,-100,4,1,0,95,0,1
205289,342.857142857143,4,1,0,95,1,9
205632,342.857142857143,4,1,0,95,1,0
232974,-100,4,1,0,85,0,0
238203,-125,4,1,0,55,0,0
240946,-100,4,1,0,95,0,0
245832,-100,4,1,0,55,0,0

[HitObjects]
240,196,262,5,8,0:0:0:0:
224,188,947,1,8,0:0:0:0:
224,160,1290,1,8,0:0:0:0:
264,180,1633,1,0,0:0:0:0:
264,180,2319,1,0,0:0:0:0:
264,180,3004,1,8,0:0:0:0:
128,168,3690,1,8,0:0:0:0:
128,168,4033,1,0,0:0:0:0:
128,168,4376,1,8,0:0:0:0:
128,168,5062,1,8,0:0:0:0:
128,168,5747,1,0,0:0:0:0:
128,168,6433,1,0,0:0:0:0:
128,176,6776,1,0,0:0:0:0:
128,176,7119,1,8,0:0:0:0:
200,148,7804,1,8,0:0:0:0:
200,148,8490,1,0,0:0:0:0:
200,148,9176,1,0,0:0:0:0:
200,148,9519,1,8,0:0:0:0:
200,148,9862,1,0,0:0:0:0:
200,148,10547,1,0,0:0:0:0:
200,148,11233,1,12,0:0:0:0:
224,188,11919,1,8,0:0:0:0:
224,160,12262,1,8,0:0:0:0:
264,180,12604,1,0,0:0:0:0:
264,180,13290,1,0,0:0:0:0:
36,164,13633,1,0,0:0:0:0:
264,180,13976,1,8,0:0:0:0:
128,168,14662,1,8,0:0:0:0:
128,168,15004,1,0,0:0:0:0:
128,168,15347,1,8,0:0:0:0:
128,168,16033,1,8,0:0:0:0:
60,168,16376,1,8,0:0:0:0:
128,168,16719,1,0,0:0:0:0:
128,168,17404,1,0,0:0:0:0:
128,176,17747,1,0,0:0:0:0:
128,176,18090,1,8,0:0:0:0:
200,148,18776,1,8,0:0:0:0:
164,120,19119,1,0,0:0:0:0:
200,148,19462,1,8,0:0:0:0:
200,148,20147,1,8,0:0:0:0:
176,120,20490,1,0,0:0:0:0:
144,184,20662,1,0,0:0:0:0:
144,184,20747,1,0,0:0:0:0:
176,120,20833,1,8,0:0:0:0:
176,120,21004,1,8,0:0:0:0:
172,124,21347,1,0,0:0:0:0:
192,184,21519,1,8,0:0:0:0:
276,136,21604,1,8,0:0:0:0:
168,124,21690,1,0,0:0:0:0:
264,144,21862,1,0,0:0:0:0:
216,124,22204,1,12,0:0:0:0:
156,144,22376,1,0,0:0:0:0:
156,144,22462,1,0,0:0:0:0:
132,136,22547,1,8,0:0:0:0:
156,144,22719,1,0,0:0:0:0:
152,132,22890,1,8,0:0:0:0:
152,132,23062,1,0,0:0:0:0:
220,184,23147,1,0,0:0:0:0:
152,132,23233,1,8,0:0:0:0:
152,132,23404,1,8,0:0:0:0:
152,132,23576,1,0,0:0:0:0:
152,132,23919,1,0,0:0:0:0:
156,136,24090,1,8,0:0:0:0:
192,124,24176,1,8,0:0:0:0:
152,132,24262,1,0,0:0:0:0:
156,136,24433,1,8,0:0:0:0:
152,132,24604,1,0,0:0:0:0:
216,176,24776,5,8,0:0:0:0:
144,112,24862,1,8,0:0:0:0:
216,188,24947,1,0,0:0:0:0:
152,144,25290,1,8,0:0:0:0:
28,172,25462,1,0,0:0:0:0:
28,172,25547,1,0,0:0:0:0:
152,144,25633,1,8,0:0:0:0:
28,172,25804,1,0,0:0:0:0:
152,144,25976,1,8,0:0:0:0:
252,140,26147,1,8,0:0:0:0:
316,140,26233,1,8,0:0:0:0:
152,144,26319,1,0,0:0:0:0:
40,100,26490,1,8,0:0:0:0:
152,144,26662,1,0,0:0:0:0:
168,148,26833,5,0,0:0:0:0:
176,144,26919,1,0,0:0:0:0:
244,168,27004,5,8,0:0:0:0:
76,160,27176,1,0,0:0:0:0:
76,160,27347,1,8,0:0:0:0:
192,144,27433,1,8,0:0:0:0:
200,148,27519,1,8,0:0:0:0:
200,148,27690,1,0,0:0:0:0:
176,168,28376,1,8,0:0:0:0:
68,160,28719,1,0,0:0:0:0:
132,176,29062,1,0,0:0:0:0:
224,128,29233,1,8,0:0:0:0:
340,148,29404,1,0,0:0:0:0:
248,144,29576,1,0,0:0:0:0:
248,152,29747,1,8,0:0:0:0:
240,152,30090,1,0,0:0:0:0:
288,172,30433,5,12,0:0:0:0:
232,176,30604,1,0,0:0:0:0:
192,152,30690,1,0,0:0:0:0:
232,176,30776,1,0,0:0:0:0:
232,176,30947,1,0,0:0:0:0:
164,156,31119,1,8,0:0:0:0:
228,128,31290,1,0,0:0:0:0:
212,144,31376,1,0,0:0:0:0:
232,136,31462,1,8,0:0:0:0:
232,136,31633,1,8,0:0:0:0:
176,160,31804,1,0,0:0:0:0:
256,192,31976,1,8,0:0:0:0:
256,192,32147,1,8,0:0:0:0:
256,192,32490,1,8,0:0:0:0:
260,188,32662,1,8,0:0:0:0:
92,148,32747,1,8,0:0:0:0:
260,188,32833,1,0,0:0:0:0:
260,188,32919,1,0,0:0:0:0:
260,188,33004,1,0,0:0:0:0:
340,200,33176,1,12,0:0:0:0:
156,140,33519,1,8,0:0:0:0:
144,136,33690,1,0,0:0:0:0:
276,92,33862,1,0,0:0:0:0:
112,120,33947,1,0,0:0:0:0:
204,104,34033,1,0,0:0:0:0:
156,88,34119,1,0,0:0:0:0:
204,104,34204,1,8,0:0:0:0:
240,152,34376,1,0,0:0:0:0:
228,144,34547,1,8,0:0:0:0:
184,136,34719,1,0,0:0:0:0:
136,104,34804,1,0,0:0:0:0:
136,108,34890,1,8,0:0:0:0:
136,112,35062,1,8,0:0:0:0:
108,160,35233,1,0,0:0:0:0:
188,48,35404,1,8,0:0:0:0:
192,72,35490,1,0,0:0:0:0:
108,160,35576,1,8,0:0:0:0:
204,120,35662,1,8,0:0:0:0:
316,156,35747,1,0,0:0:0:0:
152,136,35919,1,8,0:0:0:0:
208,120,36262,1,8,0:0:0:0:
208,124,36433,1,0,0:0:0:0:
208,128,36604,1,0,0:0:0:0:
144,128,36690,1,0,0:0:0:0:
236,120,36776,1,0,0:0:0:0:
208,128,36862,1,0,0:0:0:0:
176,72,36947,1,8,0:0:0:0:
264,92,37119,1,0,0:0:0:0:
264,116,37290,1,8,0:0:0:0:
196,112,37462,1,0,0:0:0:0:
192,112,37547,1,0,0:0:0:0:
184,116,37633,1,8,0:0:0:0:
184,128,37804,1,8,0:0:0:0:
244,152,37976,1,0,0:0:0:0:
248,160,38062,1,0,0:0:0:0:
248,160,38147,1,8,0:0:0:0:
248,160,38233,1,8,0:0:0:0:
248,160,38319,1,0,0:0:0:0:
252,160,38490,1,8,0:0:0:0:
184,184,38662,1,4,0:0:0:0:
208,140,39004,1,8,0:0:0:0:
200,128,39176,1,8,0:0:0:0:
212,136,39347,1,0,0:0:0:0:
216,112,39519,1,0,0:0:0:0:
220,112,39604,1,0,0:0:0:0:
228,104,39690,1,8,0:0:0:0:
232,108,39776,1,8,0:0:0:0:
232,108,39862,1,0,0:0:0:0:
176,104,40033,1,0,0:0:0:0:
240,116,40204,1,0,0:0:0:0:
240,120,40290,1,0,0:0:0:0:
176,112,40376,1,8,0:0:0:0:
176,112,40547,1,8,0:0:0:0:
232,128,40719,1,0,0:0:0:0:
232,120,41062,1,8,0:0:0:0:
232,120,41233,1,0,0:0:0:0:
204,108,41404,1,8,0:0:0:0:
208,152,41576,1,0,0:0:0:0:
208,152,41662,1,0,0:0:0:0:
204,108,41747,1,8,0:0:0:0:
204,108,41919,1,8,0:0:0:0:
204,108,42090,1,0,0:0:0:0:
216,112,42262,1,0,0:0:0:0:
216,112,42347,1,0,0:0:0:0:
216,112,42433,1,8,0:0:0:0:
224,96,42519,1,8,0:0:0:0:
216,112,42604,1,0,0:0:0:0:
256,184,42776,1,12,0:0:0:0:
176,156,42947,1,0,0:0:0:0:
136,124,43119,1,8,0:0:0:0:
136,124,43204,1,8,0:0:0:0:
136,124,43290,1,0,0:0:0:0:
192,168,43462,1,8,0:0:0:0:
192,168,43633,1,0,0:0:0:0:
180,172,43719,1,0,0:0:0:0:
184,156,43804,1,8,0:0:0:0:
184,160,43890,1,0,0:0:0:0:
180,168,43976,1,0,0:0:0:0:
180,172,44147,1,12,0:0:0:0:
156,140,44490,1,8,0:0:0:0:
144,136,44662,1,0,0:0:0:0:
276,92,44833,1,0,0:0:0:0:
112,120,44919,1,0,0:0:0:0:
204,104,45004,1,0,0:0:0:0:
156,88,45090,1,0,0:0:0:0:
204,104,45176,1,8,0:0:0:0:
240,152,45347,1,0,0:0:0:0:
228,144,45519,1,8,0:0:0:0:
184,136,45690,1,0,0:0:0:0:
136,104,45776,1,0,0:0:0:0:
136,108,45862,1,8,0:0:0:0:
136,112,46033,1,8,0:0:0:0:
108,160,46204,1,0,0:0:0:0:
188,48,46376,1,8,0:0:0:0:
192,72,46462,1,0,0:0:0:0:
108,160,46547,1,8,0:0:0:0:
204,120,46633,1,8,0:0:0:0:
316,156,46719,1,0,0:0:0:0:
152,136,46890,1,8,0:0:0:0:
208,120,47233,1,8,0:0:0:0:
208,124,47404,1,0,0:0:0:0:
208,128,47576,1,0,0:0:0:0:
144,128,47662,1,0,0:0:0:0:
236,120,47747,1,0,0:0:0:0:
208,128,47833,1,0,0:0:0:0:
176,72,47919,1,8,0:0:0:0:
264,92,48090,1,0,0:0:0:0:
264,116,48262,1,8,0:0:0:0:
196,112,48433,1,0,0:0:0:0:
192,112,48519,1,0,0:0:0:0:
184,116,48604,1,8,0:0:0:0:
184,128,48776,1,8,0:0:0:0:
244,152,48947,1,0,0:0:0:0:
124,152,49033,1,0,0:0:0:0:
248,160,49119,1,8,0:0:0:0:
168,132,49204,1,8,0:0:0:0:
144,176,49290,1,0,0:0:0:0:
252,160,49462,1,8,0:0:0:0:
228,128,49633,1,4,0:0:0:0:
208,140,49976,1,8,0:0:0:0:
200,128,50147,1,0,0:0:0:0:
212,136,50319,1,0,0:0:0:0:
216,112,50490,1,0,0:0:0:0:
220,112,50576,1,0,0:0:0:0:
228,104,50662,1,8,0:0:0:0:
232,108,50747,1,8,0:0:0:0:
232,108,50833,1,0,0:0:0:0:
176,104,51004,1,0,0:0:0:0:
240,116,51176,1,0,0:0:0:0:
240,120,51262,1,0,0:0:0:0:
176,112,51347,1,8,0:0:0:0:
176,112,51519,1,8,0:0:0:0:
232,128,51690,1,0,0:0:0:0:
232,120,52033,1,8,0:0:0:0:
220,176,52204,1,0,0:0:0:0:
196,132,52376,1,12,0:0:0:0:
256,152,52547,1,0,0:0:0:0:
256,152,52633,1,0,0:0:0:0:
256,152,52719,1,8,0:0:0:0:
256,152,52890,1,0,0:0:0:0:
196,132,53062,1,12,0:0:0:0:
208,140,53233,1,8,0:0:0:0:
216,144,53404,1,0,0:0:0:0:
216,144,53490,1,0,0:0:0:0:
216,140,53576,1,0,0:0:0:0:
216,136,53662,1,0,0:0:0:0:
224,112,53747,1,8,0:0:0:0:
216,136,53919,1,0,0:0:0:0:
200,168,54090,1,8,0:0:0:0:
208,156,54262,1,8,0:0:0:0:
208,160,54347,1,8,0:0:0:0:
208,156,54433,1,0,0:0:0:0:
168,148,54519,1,0,0:0:0:0:
168,148,54604,1,8,0:0:0:0:
164,152,54776,1,0,0:0:0:0:
164,160,54947,1,0,0:0:0:0:
212,148,55119,1,12,0:0:0:0:
240,156,55290,1,8,0:0:0:0:
240,156,55462,1,0,0:0:0:0:
176,160,55633,1,12,0:0:0:0:
176,160,55804,1,0,0:0:0:0:
176,160,55976,1,8,0:0:0:0:
176,160,56147,1,12,0:0:0:0:
184,136,56319,1,0,0:0:0:0:
184,136,56490,1,0,0:0:0:0:
184,136,56662,1,12,0:0:0:0:
200,88,58204,1,8,0:0:0:0:
192,88,59575,1,0,0:0:0:0:
180,92,60861,1,0,0:0:0:0:
184,96,60946,1,8,0:0:0:0:
120,144,62318,1,0,0:0:0:0:
120,144,63004,1,8,0:0:0:0:
148,160,63175,1,0,0:0:0:0:
148,160,63346,1,0,0:0:0:0:
152,160,63518,1,8,0:0:0:0:
168,120,63689,1,0,0:0:0:0:
168,120,64032,1,0,0:0:0:0:
168,120,64375,1,8,0:0:0:0:
168,120,64718,1,8,0:0:0:0:
168,120,65061,1,0,0:0:0:0:
168,120,65746,1,8,0:0:0:0:
172,148,65918,1,0,0:0:0:0:
176,156,66089,1,8,0:0:0:0:
176,168,66261,1,8,0:0:0:0:
176,168,66432,1,0,0:0:0:0:
60,196,66604,1,8,0:0:0:0:
284,152,66946,1,0,0:0:0:0:
284,152,67032,1,0,0:0:0:0:
144,160,67118,1,8,0:0:0:0:
228,156,67461,1,8,0:0:0:0:
184,144,67804,1,4,0:0:0:0:
232,144,68489,1,4,0:0:0:0:
168,192,68832,1,8,0:0:0:0:
224,144,69175,1,12,0:0:0:0:
136,156,69346,1,0,0:0:0:0:
116,176,69518,1,8,0:0:0:0:
116,176,69604,1,8,0:0:0:0:
120,172,69689,1,8,0:0:0:0:
120,172,69861,1,8,0:0:0:0:
120,172,70032,1,0,0:0:0:0:
232,168,70204,1,8,0:0:0:0:
256,160,70289,1,8,0:0:0:0:
116,176,70375,1,0,0:0:0:0:
116,176,70546,1,4,0:0:0:0:
232,112,70889,1,0,0:0:0:0:
232,112,71061,1,0,0:0:0:0:
232,112,71232,1,0,0:0:0:0:
232,112,71404,1,0,0:0:0:0:
232,112,71575,1,0,0:0:0:0:
232,112,71746,1,0,0:0:0:0:
152,120,71918,1,8,0:0:0:0:
152,120,72261,1,8,0:0:0:0:
152,120,72432,1,8,0:0:0:0:
196,196,72604,1,8,0:0:0:0:
196,196,72689,1,8,0:0:0:0:
200,160,72775,1,0,0:0:0:0:
200,160,72861,1,0,0:0:0:0:
208,136,72946,1,8,0:0:0:0:
240,192,73118,1,8,0:0:0:0:
240,204,73204,1,8,0:0:0:0:
244,208,73289,1,0,0:0:0:0:
232,152,73632,5,8,0:0:0:0:
260,164,73804,1,0,0:0:0:0:
208,156,73975,1,0,0:0:0:0:
208,160,74146,1,0,0:0:0:0:
208,160,74318,1,8,0:0:0:0:
208,160,74489,1,8,0:0:0:0:
164,152,74661,1,0,0:0:0:0:
128,128,75004,5,8,0:0:0:0:
120,136,75175,1,0,0:0:0:0:
108,136,75261,1,0,0:0:0:0:
240,216,75346,1,0,0:0:0:0:
240,216,75518,1,0,0:0:0:0:
240,216,75689,1,8,0:0:0:0:
248,192,75861,1,8,0:0:0:0:
240,216,76032,1,0,0:0:0:0:
288,188,76375,5,8,0:0:0:0:
288,188,76546,1,0,0:0:0:0:
288,188,76718,1,8,0:0:0:0:
288,188,76889,1,0,0:0:0:0:
288,188,77061,1,8,0:0:0:0:
288,188,77232,1,8,0:0:0:0:
168,172,77404,1,0,0:0:0:0:
168,188,77746,5,8,0:0:0:0:
192,112,77918,1,8,0:0:0:0:
204,128,78004,1,8,0:0:0:0:
156,144,78089,1,0,0:0:0:0:
156,144,78261,1,0,0:0:0:0:
156,144,78432,1,8,0:0:0:0:
156,144,78604,1,0,0:0:0:0:
240,144,78775,1,0,0:0:0:0:
292,176,79118,5,8,0:0:0:0:
292,176,79289,1,0,0:0:0:0:
292,176,79461,1,0,0:0:0:0:
292,176,79632,1,0,0:0:0:0:
292,176,79804,1,8,0:0:0:0:
292,176,79975,1,8,0:0:0:0:
292,176,80146,1,0,0:0:0:0:
292,176,80489,5,8,0:0:0:0:
292,176,80661,1,0,0:0:0:0:
228,176,80746,1,0,0:0:0:0:
200,200,80832,1,0,0:0:0:0:
200,200,81004,1,0,0:0:0:0:
164,208,81175,1,8,0:0:0:0:
176,200,81346,1,8,0:0:0:0:
176,200,81518,1,0,0:0:0:0:
236,140,81861,5,8,0:0:0:0:
232,144,82032,1,0,0:0:0:0:
180,164,82204,1,0,0:0:0:0:
160,164,82375,1,8,0:0:0:0:
160,164,82546,1,8,0:0:0:0:
216,160,82889,1,0,0:0:0:0:
216,176,83061,1,0,0:0:0:0:
224,152,83232,1,8,0:0:0:0:
224,152,83318,1,8,0:0:0:0:
224,160,83404,1,0,0:0:0:0:
224,160,83575,1,0,0:0:0:0:
220,164,83746,1,0,0:0:0:0:
220,164,83918,1,8,0:0:0:0:
220,164,84004,1,8,0:0:0:0:
220,164,84089,1,8,0:0:0:0:
236,140,84175,1,8,0:0:0:0:
220,164,84261,1,0,0:0:0:0:
188,232,84604,5,8,0:0:0:0:
188,232,84775,1,0,0:0:0:0:
188,232,84861,1,8,0:0:0:0:
188,232,84946,1,8,0:0:0:0:
188,232,85118,1,0,0:0:0:0:
188,232,85289,1,8,0:0:0:0:
188,232,85461,1,8,0:0:0:0:
188,232,85632,1,0,0:0:0:0:
136,156,85975,5,8,0:0:0:0:
188,192,86146,1,0,0:0:0:0:
188,192,86318,1,8,0:0:0:0:
188,192,86489,1,8,0:0:0:0:
92,168,86575,1,8,0:0:0:0:
176,200,86661,1,0,0:0:0:0:
176,200,86832,1,0,0:0:0:0:
92,168,87004,1,8,0:0:0:0:
176,200,87346,1,8,0:0:0:0:
124,148,87518,1,0,0:0:0:0:
176,200,87689,1,8,0:0:0:0:
216,120,87861,1,0,0:0:0:0:
200,88,87946,1,0,0:0:0:0:
200,136,88032,1,8,0:0:0:0:
176,120,88204,1,8,0:0:0:0:
176,120,88375,1,0,0:0:0:0:
204,116,88718,5,8,0:0:0:0:
104,128,88889,1,0,0:0:0:0:
164,184,89061,1,8,0:0:0:0:
104,172,89232,1,8,0:0:0:0:
112,180,89318,1,8,0:0:0:0:
104,172,89404,1,8,0:0:0:0:
104,184,89575,1,0,0:0:0:0:
112,180,89746,1,8,0:0:0:0:
116,188,90089,5,8,0:0:0:0:
104,104,90261,1,0,0:0:0:0:
244,104,90346,1,0,0:0:0:0:
184,152,90432,1,8,0:0:0:0:
108,140,90604,1,0,0:0:0:0:
180,152,90775,1,8,0:0:0:0:
176,156,90946,1,8,0:0:0:0:
176,200,91118,1,0,0:0:0:0:
176,200,91461,5,8,0:0:0:0:
168,184,91632,1,0,0:0:0:0:
164,132,91718,1,8,0:0:0:0:
152,180,91804,1,0,0:0:0:0:
208,36,91975,1,0,0:0:0:0:
168,184,92146,1,8,0:0:0:0:
176,184,92318,1,0,0:0:0:0:
96,152,92489,1,0,0:0:0:0:
136,100,92832,1,8,0:0:0:0:
132,96,93004,1,0,0:0:0:0:
152,112,93175,1,8,0:0:0:0:
180,140,93346,1,0,0:0:0:0:
168,144,93432,1,0,0:0:0:0:
152,120,93518,1,8,0:0:0:0:
168,144,93689,1,8,0:0:0:0:
216,184,93861,5,0,0:0:0:0:
192,172,94032,1,0,0:0:0:0:
200,104,94204,1,8,0:0:0:0:
216,148,94375,1,0,0:0:0:0:
216,148,94546,1,0,0:0:0:0:
180,192,94632,1,0,0:0:0:0:
184,184,94718,1,0,0:0:0:0:
224,168,94889,1,8,0:0:0:0:
232,168,95232,5,4,0:0:0:0:
200,160,95404,1,4,0:0:0:0:
156,144,95575,1,0,0:0:0:0:
272,188,95918,1,0,0:0:0:0:
272,188,96261,1,0,0:0:0:0:
264,192,96432,1,12,0:0:0:0:
44,184,96604,1,0,0:0:0:0:
184,136,96775,1,12,0:0:0:0:
104,156,96946,1,0,0:0:0:0:
216,116,97289,1,0,0:0:0:0:
256,228,97461,1,8,0:0:0:0:
256,228,97546,1,8,0:0:0:0:
256,228,97632,1,0,0:0:0:0:
184,164,97804,1,8,0:0:0:0:
176,152,97975,1,4,0:0:0:0:
176,152,98146,1,4,0:0:0:0:
104,152,98318,1,0,0:0:0:0:
112,156,98661,1,0,0:0:0:0:
188,148,99004,1,0,0:0:0:0:
248,168,99175,1,12,0:0:0:0:
80,168,99346,1,0,0:0:0:0:
248,168,99518,1,12,0:0:0:0:
112,164,99861,1,0,0:0:0:0:
216,160,100204,1,8,0:0:0:0:
216,160,100375,1,0,0:0:0:0:
216,160,100461,1,0,0:0:0:0:
216,160,100546,1,0,0:0:0:0:
216,160,100718,1,4,0:0:0:0:
136,176,101232,1,0,0:0:0:0:
136,176,101404,1,8,0:0:0:0:
96,136,101746,1,8,0:0:0:0:
136,176,101918,1,0,0:0:0:0:
136,176,102089,1,0,0:0:0:0:
128,144,102261,1,8,0:0:0:0:
196,116,102604,1,0,0:0:0:0:
196,120,102775,1,8,0:0:0:0:
144,160,102946,1,0,0:0:0:0:
144,156,103032,1,0,0:0:0:0:
352,256,103118,5,8,0:0:0:0:
352,256,103461,1,0,0:0:0:0:
352,256,103632,1,0,0:0:0:0:
352,256,103804,1,0,0:0:0:0:
360,256,103975,1,0,0:0:0:0:
360,256,104146,1,8,0:0:0:0:
76,128,104318,1,0,0:0:0:0:
360,256,104489,1,8,0:0:0:0:
360,256,104661,1,8,0:0:0:0:
216,152,104746,1,8,0:0:0:0:
360,256,104832,1,0,0:0:0:0:
360,256,105004,1,0,0:0:0:0:
252,200,105175,5,0,0:0:0:0:
252,200,105261,1,0,0:0:0:0:
252,200,105346,1,8,0:0:0:0:
292,140,105432,1,0,0:0:0:0:
240,128,105518,1,8,0:0:0:0:
240,128,105604,1,8,0:0:0:0:
240,132,105689,1,0,0:0:0:0:
240,132,105775,1,0,0:0:0:0:
176,152,105861,1,8,0:0:0:0:
176,164,106032,1,0,0:0:0:0:
340,200,106204,1,12,0:0:0:0:
156,140,106547,1,8,0:0:0:0:
144,136,106718,1,0,0:0:0:0:
276,92,106890,1,0,0:0:0:0:
112,120,106975,1,0,0:0:0:0:
204,104,107061,1,0,0:0:0:0:
156,88,107147,1,0,0:0:0:0:
204,104,107232,1,8,0:0:0:0:
240,152,107404,1,0,0:0:0:0:
228,144,107575,1,8,0:0:0:0:
184,136,107747,1,0,0:0:0:0:
136,104,107832,1,0,0:0:0:0:
136,108,107918,1,8,0:0:0:0:
136,112,108090,1,8,0:0:0:0:
108,160,108261,1,0,0:0:0:0:
188,48,108432,1,8,0:0:0:0:
192,72,108518,1,0,0:0:0:0:
108,160,108604,1,8,0:0:0:0:
204,120,108690,1,8,0:0:0:0:
316,156,108775,1,0,0:0:0:0:
152,136,108947,1,8,0:0:0:0:
208,120,109290,1,8,0:0:0:0:
208,124,109461,1,0,0:0:0:0:
208,128,109632,1,0,0:0:0:0:
144,128,109718,1,0,0:0:0:0:
236,120,109804,1,0,0:0:0:0:
208,128,109890,1,0,0:0:0:0:
176,72,109975,1,8,0:0:0:0:
264,92,110147,1,0,0:0:0:0:
264,116,110318,1,8,0:0:0:0:
196,112,110490,1,0,0:0:0:0:
192,112,110575,1,0,0:0:0:0:
184,116,110661,1,8,0:0:0:0:
184,128,110832,1,8,0:0:0:0:
244,152,111004,1,0,0:0:0:0:
248,160,111090,1,0,0:0:0:0:
248,160,111175,1,8,0:0:0:0:
248,160,111261,1,8,0:0:0:0:
248,160,111347,1,0,0:0:0:0:
252,160,111518,1,8,0:0:0:0:
184,184,111690,1,4,0:0:0:0:
208,140,112032,1,8,0:0:0:0:
200,128,112204,1,0,0:0:0:0:
212,136,112375,1,0,0:0:0:0:
216,112,112547,1,0,0:0:0:0:
220,112,112632,1,0,0:0:0:0:
228,104,112718,1,8,0:0:0:0:
232,108,112804,1,8,0:0:0:0:
232,108,112890,1,0,0:0:0:0:
176,104,113061,1,0,0:0:0:0:
240,116,113232,1,0,0:0:0:0:
240,120,113318,1,0,0:0:0:0:
176,112,113404,1,8,0:0:0:0:
176,112,113575,1,8,0:0:0:0:
232,128,113747,1,0,0:0:0:0:
232,120,114090,1,8,0:0:0:0:
232,120,114261,1,0,0:0:0:0:
204,108,114432,1,8,0:0:0:0:
208,152,114604,1,0,0:0:0:0:
208,152,114690,1,0,0:0:0:0:
204,108,114775,1,8,0:0:0:0:
204,108,114947,1,8,0:0:0:0:
204,108,115118,1,0,0:0:0:0:
216,112,115290,1,0,0:0:0:0:
216,112,115375,1,0,0:0:0:0:
216,112,115461,1,8,0:0:0:0:
224,96,115547,1,8,0:0:0:0:
216,112,115632,1,0,0:0:0:0:
256,184,115804,1,12,0:0:0:0:
176,156,115975,1,0,0:0:0:0:
136,124,116147,1,8,0:0:0:0:
136,124,116232,1,8,0:0:0:0:
136,124,116318,1,0,0:0:0:0:
192,168,116490,1,8,0:0:0:0:
192,168,116661,1,0,0:0:0:0:
180,172,116747,1,0,0:0:0:0:
184,156,116832,1,8,0:0:0:0:
184,160,116918,1,0,0:0:0:0:
180,168,117004,1,0,0:0:0:0:
180,172,117175,1,12,0:0:0:0:
156,140,117518,1,8,0:0:0:0:
144,136,117690,1,0,0:0:0:0:
276,92,117861,1,0,0:0:0:0:
112,120,117947,1,0,0:0:0:0:
204,104,118032,1,0,0:0:0:0:
156,88,118118,1,0,0:0:0:0:
204,104,118204,1,8,0:0:0:0:
240,152,118375,1,0,0:0:0:0:
228,144,118547,1,8,0:0:0:0:
184,136,118718,1,0,0:0:0:0:
136,104,118804,1,0,0:0:0:0:
136,108,118890,1,8,0:0:0:0:
136,112,119061,1,8,0:0:0:0:
108,160,119232,1,0,0:0:0:0:
188,48,119404,1,8,0:0:0:0:
192,72,119490,1,0,0:0:0:0:
108,160,119575,1,8,0:0:0:0:
204,120,119661,1,8,0:0:0:0:
316,156,119747,1,0,0:0:0:0:
152,136,119918,1,8,0:0:0:0:
208,120,120261,1,8,0:0:0:0:
208,124,120432,1,0,0:0:0:0:
208,128,120604,1,0,0:0:0:0:
144,128,120690,1,0,0:0:0:0:
236,120,120775,1,0,0:0:0:0:
208,128,120861,1,0,0:0:0:0:
176,72,120947,1,8,0:0:0:0:
264,92,121118,1,0,0:0:0:0:
264,116,121290,1,8,0:0:0:0:
196,112,121461,1,0,0:0:0:0:
192,112,121547,1,0,0:0:0:0:
184,116,121632,1,8,0:0:0:0:
184,128,121804,1,8,0:0:0:0:
244,152,121975,1,0,0:0:0:0:
124,152,122061,1,0,0:0:0:0:
248,160,122147,1,8,0:0:0:0:
168,132,122232,1,8,0:0:0:0:
144,176,122318,1,0,0:0:0:0:
252,160,122490,1,8,0:0:0:0:
228,128,122661,1,4,0:0:0:0:
208,140,123004,1,8,0:0:0:0:
200,128,123175,1,8,0:0:0:0:
212,136,123347,1,0,0:0:0:0:
216,112,123518,1,0,0:0:0:0:
220,112,123604,1,0,0:0:0:0:
228,104,123690,1,8,0:0:0:0:
232,108,123775,1,8,0:0:0:0:
232,108,123861,1,0,0:0:0:0:
176,104,124032,1,0,0:0:0:0:
240,116,124204,1,0,0:0:0:0:
240,120,124290,1,0,0:0:0:0:
176,112,124375,1,8,0:0:0:0:
176,112,124547,1,8,0:0:0:0:
232,128,124718,1,0,0:0:0:0:
232,120,125061,1,8,0:0:0:0:
220,176,125232,1,0,0:0:0:0:
196,132,125404,1,12,0:0:0:0:
256,152,125575,1,0,0:0:0:0:
256,152,125661,1,0,0:0:0:0:
256,152,125747,1,8,0:0:0:0:
256,152,125918,1,0,0:0:0:0:
196,132,126090,1,12,0:0:0:0:
208,140,126261,1,8,0:0:0:0:
216,144,126432,1,0,0:0:0:0:
216,144,126518,1,0,0:0:0:0:
216,140,126604,1,0,0:0:0:0:
216,136,126690,1,0,0:0:0:0:
224,112,126775,1,8,0:0:0:0:
216,136,126947,1,0,0:0:0:0:
200,168,127118,1,8,0:0:0:0:
208,156,127290,1,8,0:0:0:0:
208,160,127375,1,8,0:0:0:0:
208,156,127461,1,0,0:0:0:0:
168,148,127547,1,0,0:0:0:0:
168,148,127632,1,8,0:0:0:0:
164,152,127804,1,0,0:0:0:0:
164,160,127975,1,0,0:0:0:0:
212,148,128147,1,12,0:0:0:0:
240,156,128318,1,8,0:0:0:0:
240,156,128490,1,0,0:0:0:0:
176,160,128661,1,12,0:0:0:0:
176,160,128832,1,0,0:0:0:0:
176,160,129004,1,8,0:0:0:0:
176,160,129175,1,12,0:0:0:0:
184,136,129347,1,0,0:0:0:0:
184,136,129518,1,0,0:0:0:0:
184,136,129690,1,12,0:0:0:0:
224,184,131060,5,0,0:0:0:0:
192,100,131146,1,8,0:0:0:0:
316,180,131232,1,8,0:0:0:0:
272,176,133974,1,8,0:0:0:0:
272,176,134660,1,8,0:0:0:0:
252,176,135346,1,0,0:0:0:0:
188,144,136032,1,0,0:0:0:0:
112,140,136717,1,8,0:0:0:0:
112,140,137403,1,8,0:0:0:0:
180,112,137746,1,0,0:0:0:0:
180,112,138089,1,8,0:0:0:0:
180,112,138432,1,8,0:0:0:0:
180,112,138774,1,0,0:0:0:0:
180,112,139117,1,0,0:0:0:0:
180,112,139460,1,8,0:0:0:0:
180,112,140146,1,8,0:0:0:0:
180,112,140832,1,0,0:0:0:0:
180,112,141517,1,0,0:0:0:0:
108,156,141860,1,0,0:0:0:0:
180,112,142203,1,8,0:0:0:0:
180,112,142717,1,8,0:0:0:0:
180,112,142889,1,8,0:0:0:0:
180,152,143232,1,0,0:0:0:0:
188,104,143574,1,8,0:0:0:0:
264,172,143746,1,0,0:0:0:0:
232,112,144089,1,0,0:0:0:0:
188,104,144260,1,8,0:0:0:0:
272,168,144603,1,0,0:0:0:0:
220,176,144946,5,12,0:0:0:0:
160,160,146317,1,8,0:0:0:0:
160,160,147689,1,8,0:0:0:0:
176,152,149060,1,8,0:0:0:0:
240,148,150089,1,0,0:0:0:0:
220,184,150260,1,0,0:0:0:0:
220,184,150346,1,0,0:0:0:0:
220,184,150432,1,8,0:0:0:0:
148,156,150603,1,0,0:0:0:0:
148,156,150774,1,0,0:0:0:0:
184,136,150946,1,8,0:0:0:0:
148,156,151117,1,0,0:0:0:0:
136,176,151289,1,0,0:0:0:0:
192,136,151460,1,8,0:0:0:0:
136,176,151632,1,0,0:0:0:0:
136,176,151803,1,0,0:0:0:0:
192,136,151974,1,8,0:0:0:0:
188,208,152146,1,0,0:0:0:0:
136,176,152317,1,0,0:0:0:0:
176,144,152489,1,8,0:0:0:0:
292,140,152660,1,0,0:0:0:0:
292,140,152832,1,8,0:0:0:0:
236,148,152917,1,8,0:0:0:0:
236,148,153003,1,8,0:0:0:0:
292,140,153089,1,8,0:0:0:0:
236,148,153174,1,0,0:0:0:0:
200,152,153517,1,0,0:0:0:0:
204,156,153689,1,0,0:0:0:0:
168,152,153860,1,8,0:0:0:0:
168,152,154032,1,0,0:0:0:0:
168,152,154203,1,0,0:0:0:0:
168,152,154374,1,8,0:0:0:0:
112,168,154546,1,8,0:0:0:0:
120,168,154717,1,0,0:0:0:0:
120,168,154803,1,0,0:0:0:0:
120,168,154889,1,8,0:0:0:0:
124,172,155060,1,8,0:0:0:0:
172,160,155232,1,0,0:0:0:0:
172,160,155403,1,0,0:0:0:0:
188,184,155489,1,0,0:0:0:0:
248,224,155574,1,8,0:0:0:0:
248,224,155660,1,8,0:0:0:0:
248,224,155746,1,0,0:0:0:0:
240,184,155917,1,4,0:0:0:0:
216,168,156260,1,8,0:0:0:0:
232,168,156603,1,0,0:0:0:0:
232,168,156774,1,0,0:0:0:0:
232,172,156946,1,8,0:0:0:0:
232,176,157117,1,0,0:0:0:0:
120,160,157203,1,0,0:0:0:0:
232,176,157289,1,8,0:0:0:0:
160,176,157460,1,0,0:0:0:0:
132,160,157632,1,8,0:0:0:0:
132,160,157803,1,8,0:0:0:0:
136,168,157974,1,0,0:0:0:0:
128,180,158317,1,8,0:0:0:0:
136,184,158660,1,0,0:0:0:0:
236,96,158832,1,0,0:0:0:0:
240,108,158917,1,0,0:0:0:0:
184,224,159003,1,8,0:0:0:0:
176,160,159174,1,0,0:0:0:0:
176,168,159346,1,8,0:0:0:0:
176,168,159517,1,8,0:0:0:0:
176,168,159689,1,0,0:0:0:0:
152,164,160032,1,8,0:0:0:0:
200,176,160374,1,8,0:0:0:0:
204,164,160546,1,0,0:0:0:0:
160,120,160717,1,8,0:0:0:0:
276,32,160803,1,8,0:0:0:0:
160,120,160889,1,0,0:0:0:0:
132,136,161060,1,8,0:0:0:0:
192,136,161232,1,0,0:0:0:0:
192,136,161403,1,4,0:0:0:0:
80,104,161746,1,0,0:0:0:0:
80,104,161917,1,0,0:0:0:0:
80,104,162089,1,0,0:0:0:0:
80,104,162260,1,0,0:0:0:0:
80,104,162432,1,8,0:0:0:0:
80,104,162603,1,0,0:0:0:0:
144,172,162689,1,0,0:0:0:0:
80,104,162774,1,8,0:0:0:0:
144,172,162946,1,0,0:0:0:0:
260,156,163117,1,8,0:0:0:0:
260,168,163289,1,0,0:0:0:0:
260,176,163460,1,8,0:0:0:0:
160,192,163632,1,8,0:0:0:0:
160,192,163803,1,0,0:0:0:0:
172,168,164146,1,8,0:0:0:0:
124,144,164317,1,0,0:0:0:0:
188,136,164489,1,0,0:0:0:0:
200,128,164660,1,8,0:0:0:0:
200,128,164832,1,8,0:0:0:0:
172,132,165003,1,0,0:0:0:0:
176,136,165174,1,12,0:0:0:0:
272,208,165517,1,0,0:0:0:0:
312,232,165689,1,0,0:0:0:0:
312,232,165774,1,0,0:0:0:0:
312,232,165860,1,8,0:0:0:0:
212,148,166032,1,8,0:0:0:0:
228,200,166203,1,0,0:0:0:0:
212,148,166317,1,0,0:0:0:0:
228,200,166432,1,0,0:0:0:0:
228,200,166546,1,8,0:0:0:0:
228,200,166660,1,8,0:0:0:0:
228,200,166774,1,8,0:0:0:0:
248,200,166889,1,4,0:0:0:0:
164,88,167403,1,0,0:0:0:0:
164,88,167574,1,8,0:0:0:0:
164,80,167917,1,8,0:0:0:0:
152,80,168089,1,0,0:0:0:0:
152,80,168260,1,0,0:0:0:0:
152,80,168432,1,8,0:0:0:0:
152,88,168774,1,0,0:0:0:0:
152,88,168946,1,8,0:0:0:0:
172,88,169289,1,0,0:0:0:0:
136,172,169460,1,0,0:0:0:0:
172,88,169632,1,4,0:0:0:0:
268,88,170146,1,0,0:0:0:0:
260,88,170317,1,8,0:0:0:0:
268,136,170660,1,8,0:0:0:0:
172,168,170832,1,0,0:0:0:0:
180,120,171003,1,0,0:0:0:0:
180,120,171174,1,8,0:0:0:0:
48,156,171517,1,0,0:0:0:0:
92,184,171689,1,8,0:0:0:0:
168,136,171860,1,0,0:0:0:0:
144,160,172032,5,8,0:0:0:0:
156,176,172117,1,8,0:0:0:0:
336,124,172203,1,8,0:0:0:0:
280,120,172289,5,8,0:0:0:0:
280,124,172374,1,0,0:0:0:0:
96,128,172717,1,8,0:0:0:0:
124,192,172889,1,0,0:0:0:0:
124,192,173060,1,0,0:0:0:0:
184,112,173146,1,0,0:0:0:0:
124,192,173232,1,0,0:0:0:0:
124,192,173403,1,8,0:0:0:0:
124,192,173574,1,0,0:0:0:0:
124,192,173746,1,8,0:0:0:0:
184,152,173832,1,8,0:0:0:0:
284,172,173917,1,0,0:0:0:0:
184,152,174089,1,8,0:0:0:0:
184,152,174260,1,0,0:0:0:0:
184,152,174432,1,0,0:0:0:0:
32,128,174517,1,0,0:0:0:0:
244,176,174603,1,8,0:0:0:0:
240,188,174774,1,8,0:0:0:0:
152,152,174946,1,0,0:0:0:0:
352,176,175117,1,8,0:0:0:0:
152,188,175460,1,0,0:0:0:0:
276,176,175632,1,8,0:0:0:0:
152,188,175803,1,0,0:0:0:0:
152,188,175974,1,0,0:0:0:0:
276,176,176146,1,8,0:0:0:0:
160,192,176317,1,0,0:0:0:0:
164,184,176489,1,0,0:0:0:0:
288,176,176660,1,8,0:0:0:0:
160,172,176832,1,0,0:0:0:0:
160,168,177003,1,0,0:0:0:0:
288,176,177174,1,8,0:0:0:0:
192,160,177346,1,0,0:0:0:0:
192,160,177432,1,0,0:0:0:0:
296,176,177517,1,8,0:0:0:0:
308,176,177603,1,8,0:0:0:0:
232,144,177689,1,0,0:0:0:0:
308,176,177860,1,8,0:0:0:0:
224,216,178203,1,8,0:0:0:0:
224,216,178374,1,0,0:0:0:0:
228,176,178546,1,8,0:0:0:0:
240,152,178632,1,8,0:0:0:0:
240,148,178717,1,0,0:0:0:0:
240,148,178803,1,0,0:0:0:0:
240,152,178889,1,8,0:0:0:0:
236,88,179060,1,8,0:0:0:0:
232,148,179232,1,4,0:0:0:0:
248,140,180603,1,8,0:0:0:0:
176,156,181974,1,8,0:0:0:0:
176,156,182660,1,8,0:0:0:0:
176,156,183346,1,8,0:0:0:0:
176,156,184203,1,8,0:0:0:0:
176,156,184460,1,8,0:0:0:0:
176,156,184717,1,0,0:0:0:0:
172,136,185060,1,8,0:0:0:0:
72,168,185403,1,0,0:0:0:0:
148,156,185574,1,0,0:0:0:0:
148,156,185746,1,0,0:0:0:0:
148,176,186089,1,8,0:0:0:0:
188,140,186774,1,8,0:0:0:0:
96,164,187117,1,8,0:0:0:0:
176,128,187460,1,0,0:0:0:0:
176,124,187803,1,8,0:0:0:0:
176,128,188146,1,8,0:0:0:0:
92,40,188317,1,0,0:0:0:0:
176,128,188489,1,8,0:0:0:0:
176,128,188832,1,0,0:0:0:0:
176,208,189174,1,0,0:0:0:0:
224,156,189346,1,0,0:0:0:0:
176,208,189517,1,8,0:0:0:0:
96,172,189860,1,8,0:0:0:0:
216,236,190032,1,0,0:0:0:0:
216,236,190203,1,8,0:0:0:0:
244,180,190546,1,8,0:0:0:0:
244,180,190717,1,8,0:0:0:0:
244,180,190803,1,8,0:0:0:0:
244,180,190889,1,0,0:0:0:0:
244,180,191060,1,0,0:0:0:0:
244,180,191232,1,0,0:0:0:0:
244,180,191317,1,0,0:0:0:0:
244,180,191403,1,0,0:0:0:0:
244,180,191489,1,0,0:0:0:0:
244,180,191574,1,8,0:0:0:0:
272,248,192089,1,0,0:0:0:0:
228,168,192174,1,0,0:0:0:0:
240,184,192260,1,8,0:0:0:0:
124,148,192432,1,0,0:0:0:0:
196,216,192603,1,8,0:0:0:0:
180,204,192689,1,8,0:0:0:0:
180,200,192774,1,0,0:0:0:0:
180,200,192946,1,8,0:0:0:0:
200,148,193117,1,0,0:0:0:0:
208,152,193289,1,0,0:0:0:0:
212,160,193460,1,12,0:0:0:0:
212,160,193803,1,12,0:0:0:0:
212,160,194146,1,12,0:0:0:0:
120,172,194489,1,0,0:0:0:0:
192,176,194660,1,8,0:0:0:0:
192,188,194832,1,0,0:0:0:0:
188,192,195003,1,8,0:0:0:0:
188,192,195089,1,8,0:0:0:0:
236,120,195174,1,0,0:0:0:0:
176,72,195346,1,8,0:0:0:0:
264,92,195517,1,0,0:0:0:0:
264,116,195689,1,8,0:0:0:0:
196,112,195860,1,0,0:0:0:0:
192,112,195946,1,0,0:0:0:0:
184,116,196031,1,8,0:0:0:0:
184,128,196203,1,8,0:0:0:0:
244,152,196374,1,0,0:0:0:0:
124,152,196460,1,0,0:0:0:0:
248,160,196546,1,8,0:0:0:0:
168,132,196631,1,8,0:0:0:0:
144,176,196717,1,0,0:0:0:0:
252,160,196889,1,8,0:0:0:0:
228,128,197060,1,4,0:0:0:0:
208,140,197403,1,8,0:0:0:0:
200,128,197574,1,0,0:0:0:0:
212,136,197746,1,0,0:0:0:0:
216,112,197917,1,0,0:0:0:0:
220,112,198003,1,0,0:0:0:0:
228,104,198089,1,8,0:0:0:0:
232,108,198174,1,8,0:0:0:0:
232,108,198260,1,0,0:0:0:0:
176,104,198431,1,0,0:0:0:0:
240,116,198603,1,8,0:0:0:0:
240,120,198689,1,8,0:0:0:0:
176,112,198774,1,0,0:0:0:0:
176,112,198946,1,8,0:0:0:0:
232,128,199117,1,0,0:0:0:0:
232,120,199460,1,8,0:0:0:0:
220,176,199631,1,0,0:0:0:0:
196,132,199803,1,12,0:0:0:0:
256,152,199974,1,0,0:0:0:0:
256,152,200060,1,0,0:0:0:0:
256,152,200146,1,8,0:0:0:0:
256,152,200317,1,0,0:0:0:0:
196,132,200489,1,12,0:0:0:0:
208,140,200660,1,8,0:0:0:0:
216,144,200831,1,0,0:0:0:0:
216,144,200917,1,0,0:0:0:0:
216,140,201003,1,0,0:0:0:0:
216,136,201089,1,0,0:0:0:0:
224,112,201174,1,8,0:0:0:0:
216,136,201346,1,0,0:0:0:0:
200,168,201517,1,8,0:0:0:0:
208,156,201689,1,8,0:0:0:0:
208,160,201774,1,8,0:0:0:0:
208,156,201860,1,0,0:0:0:0:
168,148,201946,1,0,0:0:0:0:
168,148,202031,1,8,0:0:0:0:
164,152,202203,1,0,0:0:0:0:
164,160,202374,1,0,0:0:0:0:
212,148,202546,1,12,0:0:0:0:
240,156,202717,1,8,0:0:0:0:
240,156,202889,1,0,0:0:0:0:
176,160,203060,1,12,0:0:0:0:
176,160,203231,1,0,0:0:0:0:
176,160,203403,1,8,0:0:0:0:
176,160,203574,1,12,0:0:0:0:
184,136,203746,1,0,0:0:0:0:
184,136,203917,5,0,0:0:0:0:
184,136,204089,1,12,0:0:0:0:
208,168,204946,5,0,0:0:0:0:
208,168,205032,1,0,0:0:0:0:
192,180,205117,1,0,0:0:0:0:
120,160,205203,1,0,0:0:0:0:
192,180,205289,1,8,0:0:0:0:
124,156,205460,1,8,0:0:0:0:
176,176,205546,1,8,0:0:0:0:
192,180,205632,1,0,0:0:0:0:
148,92,205974,1,8,0:0:0:0:
208,144,206146,1,0,0:0:0:0:
332,296,206317,1,0,0:0:0:0:
324,208,206489,1,0,0:0:0:0:
168,112,206660,1,8,0:0:0:0:
156,96,206832,1,0,0:0:0:0:
156,96,207003,1,0,0:0:0:0:
168,112,207346,1,8,0:0:0:0:
168,112,207517,1,0,0:0:0:0:
228,192,207689,1,0,0:0:0:0:
260,188,207860,1,0,0:0:0:0:
132,184,208032,1,8,0:0:0:0:
244,120,208117,1,8,0:0:0:0:
248,120,208203,1,0,0:0:0:0:
248,120,208374,1,8,0:0:0:0:
176,136,208717,1,8,0:0:0:0:
176,136,208889,1,0,0:0:0:0:
168,140,209060,1,8,0:0:0:0:
192,140,209232,1,8,0:0:0:0:
192,144,209403,1,8,0:0:0:0:
240,128,209489,1,8,0:0:0:0:
216,144,209574,1,0,0:0:0:0:
144,176,209660,1,0,0:0:0:0:
144,176,209746,1,8,0:0:0:0:
164,120,209917,1,8,0:0:0:0:
184,128,210089,1,0,0:0:0:0:
196,124,210260,1,8,0:0:0:0:
196,124,210432,1,8,0:0:0:0:
204,128,210603,1,0,0:0:0:0:
204,128,210774,1,8,0:0:0:0:
236,112,210860,1,8,0:0:0:0:
232,104,210946,5,8,0:0:0:0:
232,104,211117,1,0,0:0:0:0:
140,128,211460,1,8,0:0:0:0:
188,116,211803,5,0,0:0:0:0:
188,116,211974,1,0,0:0:0:0:
192,112,212146,1,8,0:0:0:0:
148,104,212317,1,0,0:0:0:0:
104,128,212403,1,0,0:0:0:0:
148,104,212489,1,8,0:0:0:0:
132,112,212832,1,8,0:0:0:0:
104,144,213003,1,0,0:0:0:0:
120,140,213174,1,8,0:0:0:0:
224,156,213260,1,8,0:0:0:0:
164,184,213346,1,0,0:0:0:0:
152,148,213517,1,8,0:0:0:0:
160,176,213689,1,8,0:0:0:0:
164,184,213860,1,0,0:0:0:0:
236,140,214203,1,8,0:0:0:0:
252,136,214546,5,0,0:0:0:0:
288,152,214717,1,0,0:0:0:0:
300,172,214889,1,8,0:0:0:0:
272,160,215060,1,0,0:0:0:0:
128,152,215146,1,0,0:0:0:0:
272,164,215232,1,8,0:0:0:0:
72,148,215574,1,8,0:0:0:0:
72,148,215746,1,8,0:0:0:0:
204,104,215832,1,8,0:0:0:0:
212,112,215917,1,0,0:0:0:0:
132,144,216089,1,8,0:0:0:0:
212,124,216260,1,0,0:0:0:0:
172,124,216432,1,8,0:0:0:0:
172,124,216603,1,0,0:0:0:0:
248,156,216946,1,8,0:0:0:0:
160,108,217289,5,0,0:0:0:0:
172,144,217460,1,0,0:0:0:0:
172,144,217632,1,8,0:0:0:0:
216,112,217803,1,0,0:0:0:0:
216,112,217889,1,0,0:0:0:0:
216,112,217974,1,8,0:0:0:0:
232,132,218146,1,0,0:0:0:0:
168,160,218317,1,8,0:0:0:0:
216,160,218660,1,8,0:0:0:0:
100,148,218832,1,8,0:0:0:0:
216,120,219003,1,0,0:0:0:0:
164,152,219174,1,0,0:0:0:0:
188,84,219346,1,8,0:0:0:0:
192,124,219689,5,8,0:0:0:0:
188,84,219860,1,0,0:0:0:0:
192,84,219946,1,0,0:0:0:0:
192,124,220032,1,8,0:0:0:0:
196,84,220203,1,0,0:0:0:0:
192,124,220374,1,8,0:0:0:0:
176,152,220546,1,8,0:0:0:0:
328,160,220717,5,4,0:0:0:0:
216,132,221060,1,8,0:0:0:0:
148,164,221232,1,0,0:0:0:0:
148,164,221403,1,8,0:0:0:0:
184,172,221574,1,0,0:0:0:0:
184,172,221660,1,0,0:0:0:0:
184,172,221746,1,8,0:0:0:0:
352,228,221832,1,0,0:0:0:0:
248,172,221917,1,0,0:0:0:0:
224,168,222089,5,12,0:0:0:0:
140,128,222432,1,8,0:0:0:0:
188,116,222775,5,0,0:0:0:0:
188,116,222946,1,0,0:0:0:0:
192,112,223118,1,8,0:0:0:0:
148,104,223289,1,0,0:0:0:0:
104,128,223375,1,0,0:0:0:0:
148,104,223461,1,8,0:0:0:0:
132,112,223804,1,8,0:0:0:0:
104,144,223975,1,0,0:0:0:0:
120,140,224146,1,8,0:0:0:0:
204,128,224232,1,8,0:0:0:0:
164,184,224318,1,0,0:0:0:0:
152,148,224489,1,8,0:0:0:0:
160,176,224661,1,8,0:0:0:0:
256,84,224832,1,0,0:0:0:0:
236,140,225175,1,8,0:0:0:0:
252,136,225518,5,0,0:0:0:0:
288,152,225689,1,0,0:0:0:0:
300,172,225861,1,8,0:0:0:0:
272,160,226032,1,0,0:0:0:0:
128,152,226118,1,0,0:0:0:0:
272,164,226204,1,8,0:0:0:0:
72,148,226546,1,8,0:0:0:0:
248,176,226717,1,8,0:0:0:0:
176,156,226803,1,8,0:0:0:0:
220,168,226889,1,0,0:0:0:0:
224,140,227060,1,0,0:0:0:0:
236,136,227232,1,8,0:0:0:0:
120,164,227403,1,0,0:0:0:0:
248,128,227574,1,4,0:0:0:0:
160,108,227917,1,8,0:0:0:0:
224,144,228260,5,0,0:0:0:0:
108,164,228432,1,0,0:0:0:0:
116,172,228603,1,8,0:0:0:0:
124,164,228774,1,0,0:0:0:0:
180,140,228860,1,0,0:0:0:0:
124,164,228946,1,8,0:0:0:0:
144,164,229289,1,8,0:0:0:0:
152,120,229460,1,0,0:0:0:0:
152,124,229632,1,8,0:0:0:0:
168,112,229717,1,8,0:0:0:0:
96,92,229803,1,0,0:0:0:0:
104,100,229974,1,8,0:0:0:0:
168,132,230146,1,8,0:0:0:0:
232,160,230317,1,0,0:0:0:0:
160,124,230660,1,8,0:0:0:0:
176,96,230832,1,0,0:0:0:0:
160,136,230917,1,0,0:0:0:0:
180,100,231003,1,8,0:0:0:0:
192,168,231174,1,0,0:0:0:0:
192,168,231346,1,8,0:0:0:0:
192,168,231432,1,8,0:0:0:0:
192,168,231517,1,0,0:0:0:0:
208,164,231689,5,8,0:0:0:0:
260,196,232032,1,8,0:0:0:0:
260,196,232146,1,8,0:0:0:0:
260,196,232260,1,8,0:0:0:0:
260,196,232374,5,0,0:0:0:0:
220,132,232489,1,0,0:0:0:0:
260,196,232603,1,0,0:0:0:0:
260,196,232717,1,0,0:0:0:0:
388,160,232832,1,0,0:0:0:0:
388,160,232946,1,0,0:0:0:0:
188,160,233060,5,12,0:0:0:0:
144,160,233574,1,0,0:0:0:0:
200,120,233746,1,8,0:0:0:0:
144,160,233917,1,0,0:0:0:0:
192,152,234260,1,0,0:0:0:0:
216,184,234432,1,0,0:0:0:0:
220,184,234603,1,8,0:0:0:0:
184,112,234946,1,0,0:0:0:0:
196,144,235117,1,8,0:0:0:0:
168,152,235289,1,0,0:0:0:0:
212,152,235374,1,0,0:0:0:0:
212,152,235460,1,0,0:0:0:0:
192,144,235632,1,8,0:0:0:0:
264,144,235803,5,4,0:0:0:0:
192,160,236317,1,0,0:0:0:0:
192,152,236489,1,8,0:0:0:0:
172,144,236660,1,0,0:0:0:0:
172,144,237003,1,0,0:0:0:0:
232,96,237174,1,12,0:0:0:0:
292,220,237346,1,0,0:0:0:0:
292,220,237517,1,0,0:0:0:0:
272,216,237860,1,8,0:0:0:0:
204,168,238546,5,8,0:0:0:0:
200,204,239917,1,8,0:0:0:0:
216,208,241117,1,0,0:0:0:0:
192,184,241203,1,0,0:0:0:0:
192,184,241289,1,8,0:0:0:0:
248,148,241632,5,8,0:0:0:0:
244,152,241803,1,8,0:0:0:0:
244,152,241974,1,8,0:0:0:0:
244,152,242146,1,8,0:0:0:0:
244,152,242317,1,8,0:0:0:0:
244,152,242489,1,8,0:0:0:0:
216,120,242660,1,8,0:0:0:0:
216,120,242832,1,8,0:0:0:0:
216,120,243003,1,8,0:0:0:0:
216,120,243174,1,8,0:0:0:0:
216,120,243346,1,8,0:0:0:0:
216,120,243517,1,8,0:0:0:0:
188,136,243689,1,8,0:0:0:0:
188,136,243860,1,8,0:0:0:0:
272,136,244374,1,4,0:0:0:0:
200,144,246003,1,8,0:0:0:0:
204,136,246089,1,0,0:0:0:0:
200,144,246174,1,8,0:0:0:0:
204,136,246260,1,8,0:0:0:0:
