osu file format v14

[General]
AudioFilename: audio.mp3
AudioLeadIn: 0
PreviewTime: 33176
Countdown: 0
SampleSet: Normal
StackLeniency: 0.7
Mode: 1
LetterboxInBreaks: 0
WidescreenStoryboard: 0

[Editor]
Bookmarks: 11235,22206,27692,30435,33178,44149,55121,58206,62320,67806,70548,73291,84263,95234,100720,103463,106206,117177,128148,131234,133977,144948,150434,153176,155919,166891,172376,175119,180605,186091,191576,192262,194319,202548,205634,208376,211119,222091,233062,238548,241291,244376
DistanceSpacing: 0.8
BeatDivisor: 4
GridSize: 4
TimelineZoom: 1.3

[Metadata]
Title:Kiss no Hitotsu de
TitleUnicode:キスのひとつで
Artist:Sasaki Sayaka
ArtistUnicode:佐咲紗花
Creator:Volta
Version:Muzukashii
Source:ちいさな彼女の小夜曲
Tags:taiko chiisana kanojo no Little Princess's serenade セレナーデ chiikano visual novel eroge ending feng
BeatmapID:1212727
BeatmapSetID:572323

[Difficulty]
HPDrainRate:5
CircleSize:5
OverallDifficulty:5
ApproachRate:5
SliderMultiplier:1.4
SliderTickRate:1

[Events]
//Background and Video events
0,0,"hitotsu.jpg",0,110
//Break Periods
//Storyboard Layer 0 (Background)
//Storyboard Layer 1 (Fail)
//Storyboard Layer 2 (Pass)
//Storyboard Layer 3 (Foreground)
//Storyboard Sound Samples

[TimingPoints]
262,342.857142857143,4,1,0,40,1,0
262,-100,4,1,0,40,0,0
11147,-100,4,1,0,50,0,0
20404,-100,4,1,0,60,0,0
22119,-100,4,1,0,70,0,0
27647,-100,4,1,0,50,0,0
30004,-100,4,1,0,80,0,0
33133,-100,4,1,0,95,0,0
33176,-100,4,1,0,95,0,1
57862,342.857142857143,4,1,0,50,1,9
58204,342.857142857143,4,1,0,50,1,0
60604,-100,4,1,0,35,0,0
62146,-100,4,1,0,45,0,0
66518,-100,4,1,0,70,0,0
73289,-100,4,1,0,85,0,0
95232,-100,4,1,0,75,0,0
100718,-100,4,1,0,70,0,0
103289,-100,4,1,0,80,0,0
106204,-100,4,1,0,95,0,1
130889,342.857142857143,4,1,0,60,1,9
131232,342.857142857143,4,1,0,60,1,0
133803,-100,4,1,0,50,0,0
144860,-100,4,1,0,40,0,0
149917,-100,4,1,0,80,0,0
180432,-100,4,1,0,55,0,0
185917,-100,4,1,0,65,0,0
189689,-100,4,1,0,75,0,0
191917,-100,4,1,0,85,0,0
194317,-100,4,1,0,95,0,1
205289,342.857142857143,4,1,0,95,1,9
205632,342.857142857143,4,1,0,95,1,0
232974,-100,4,1,0,85,0,0
238203,-100,4,1,0,55,0,0
240946,-100,4,1,0,95,0,0
245832,-100,4,1,0,55,0,0

[HitObjects]
304,128,262,5,8,0:0:0:0:
132,120,947,1,8,0:0:0:0:
132,120,1633,1,0,0:0:0:0:
152,120,2319,1,0,0:0:0:0:
140,152,3004,1,8,0:0:0:0:
48,188,3690,1,8,0:0:0:0:
32,136,4033,1,0,0:0:0:0:
48,188,4376,1,8,0:0:0:0:
48,188,5062,1,8,0:0:0:0:
48,188,5747,5,0,0:0:0:0:
48,188,6433,1,0,0:0:0:0:
164,148,7119,1,8,0:0:0:0:
136,136,7804,1,8,0:0:0:0:
164,148,8490,1,0,0:0:0:0:
64,216,9176,1,0,0:0:0:0:
72,88,9519,1,8,0:0:0:0:
164,148,9862,1,0,0:0:0:0:
192,128,10547,1,0,0:0:0:0:
288,56,11233,5,12,0:0:0:0:
64,216,11919,1,0,0:0:0:0:
260,120,12604,1,8,0:0:0:0:
136,104,13290,1,8,0:0:0:0:
160,80,13633,1,8,0:0:0:0:
260,120,13976,1,0,0:0:0:0:
64,216,14662,1,0,0:0:0:0:
232,96,15347,1,8,0:0:0:0:
136,120,16033,1,0,0:0:0:0:
184,144,16376,1,0,0:0:0:0:
232,96,16719,1,8,0:0:0:0:
64,216,17404,1,8,0:0:0:0:
232,92,18090,1,0,0:0:0:0:
152,128,18776,1,8,0:0:0:0:
152,128,19119,1,0,0:0:0:0:
232,96,19462,1,8,0:0:0:0:
68,212,20147,1,8,0:0:0:0:
124,144,20490,1,0,0:0:0:0:
232,92,20833,1,8,0:0:0:0:
104,180,21004,1,8,0:0:0:0:
192,172,21347,1,0,0:0:0:0:
116,148,21519,1,8,0:0:0:0:
196,128,21862,1,8,0:0:0:0:
224,120,22204,1,4,0:0:0:0:
224,180,22547,1,0,0:0:0:0:
108,156,22719,1,8,0:0:0:0:
196,128,22890,1,0,0:0:0:0:
184,132,23233,1,0,0:0:0:0:
176,128,23404,1,0,0:0:0:0:
196,128,23576,1,8,0:0:0:0:
176,124,23919,1,8,0:0:0:0:
152,156,24090,1,0,0:0:0:0:
196,128,24262,1,8,0:0:0:0:
140,144,24433,1,0,0:0:0:0:
276,160,24604,1,8,0:0:0:0:
168,136,24776,1,8,0:0:0:0:
204,124,24947,1,0,0:0:0:0:
168,128,25290,1,0,0:0:0:0:
76,276,25462,1,8,0:0:0:0:
276,160,25633,1,0,0:0:0:0:
176,136,25976,1,0,0:0:0:0:
28,148,26147,1,0,0:0:0:0:
276,160,26319,1,8,0:0:0:0:
112,160,26662,1,8,0:0:0:0:
88,260,26833,1,0,0:0:0:0:
184,116,27004,1,8,0:0:0:0:
96,248,27176,1,0,0:0:0:0:
192,156,27347,1,0,0:0:0:0:
216,208,27433,1,0,0:0:0:0:
212,116,27519,1,0,0:0:0:0:
280,156,27690,1,8,0:0:0:0:
236,188,28376,1,8,0:0:0:0:
184,140,28719,1,0,0:0:0:0:
284,156,29062,1,8,0:0:0:0:
64,168,29747,1,8,0:0:0:0:
180,140,30090,1,0,0:0:0:0:
208,124,30433,1,8,0:0:0:0:
152,120,30776,1,8,0:0:0:0:
240,168,30947,1,8,0:0:0:0:
180,112,31119,1,0,0:0:0:0:
120,136,31462,1,8,0:0:0:0:
160,148,31633,1,0,0:0:0:0:
148,92,31804,1,0,0:0:0:0:
184,164,31976,1,8,0:0:0:0:
84,156,32147,1,8,0:0:0:0:
248,124,32490,1,8,0:0:0:0:
248,124,32662,1,0,0:0:0:0:
264,124,32833,1,0,0:0:0:0:
200,136,32919,1,0,0:0:0:0:
196,156,33004,1,0,0:0:0:0:
176,76,33176,1,12,0:0:0:0:
144,168,33519,1,8,0:0:0:0:
88,136,33862,1,0,0:0:0:0:
128,88,34033,1,0,0:0:0:0:
92,132,34204,1,8,0:0:0:0:
76,140,34376,1,0,0:0:0:0:
32,148,34462,1,0,0:0:0:0:
92,144,34547,1,0,0:0:0:0:
116,96,34719,1,0,0:0:0:0:
48,152,34890,1,8,0:0:0:0:
16,148,35062,1,0,0:0:0:0:
92,144,35404,1,0,0:0:0:0:
136,144,35576,1,8,0:0:0:0:
104,128,35747,1,8,0:0:0:0:
92,144,35919,1,0,0:0:0:0:
80,156,36262,1,8,0:0:0:0:
92,144,36604,1,0,0:0:0:0:
80,152,36776,1,0,0:0:0:0:
92,144,36947,1,8,0:0:0:0:
48,132,37119,1,8,0:0:0:0:
48,136,37204,1,8,0:0:0:0:
92,144,37290,1,8,0:0:0:0:
60,148,37462,1,0,0:0:0:0:
200,120,37633,1,8,0:0:0:0:
200,120,37804,1,8,0:0:0:0:
92,144,38147,1,0,0:0:0:0:
200,120,38319,1,8,0:0:0:0:
72,140,38490,1,0,0:0:0:0:
112,136,38662,1,4,0:0:0:0:
144,88,39004,1,8,0:0:0:0:
200,104,39347,1,0,0:0:0:0:
104,136,39519,1,0,0:0:0:0:
200,104,39690,1,8,0:0:0:0:
104,144,39862,1,8,0:0:0:0:
104,132,40033,1,0,0:0:0:0:
184,204,40376,1,8,0:0:0:0:
184,204,40547,1,8,0:0:0:0:
124,148,40719,1,0,0:0:0:0:
104,144,40890,1,0,0:0:0:0:
196,120,41062,1,8,0:0:0:0:
124,148,41404,1,0,0:0:0:0:
176,160,41747,1,8,0:0:0:0:
176,160,41919,1,0,0:0:0:0:
124,148,42090,1,8,0:0:0:0:
108,124,42262,1,8,0:0:0:0:
152,156,42433,1,0,0:0:0:0:
124,148,42776,1,8,0:0:0:0:
128,152,42947,1,8,0:0:0:0:
124,148,43119,1,0,0:0:0:0:
140,112,43290,1,0,0:0:0:0:
124,148,43462,1,8,0:0:0:0:
152,112,43633,1,0,0:0:0:0:
168,128,43719,1,0,0:0:0:0:
136,104,43804,1,0,0:0:0:0:
240,92,43976,1,0,0:0:0:0:
124,148,44147,1,12,0:0:0:0:
144,168,44490,1,8,0:0:0:0:
88,136,44833,1,0,0:0:0:0:
128,88,45004,1,0,0:0:0:0:
92,132,45176,1,8,0:0:0:0:
76,140,45347,1,8,0:0:0:0:
32,148,45433,1,8,0:0:0:0:
92,144,45518,1,8,0:0:0:0:
116,96,45690,1,0,0:0:0:0:
48,152,45861,1,0,0:0:0:0:
16,148,46033,1,8,0:0:0:0:
92,144,46375,1,0,0:0:0:0:
136,144,46547,1,8,0:0:0:0:
104,128,46718,1,8,0:0:0:0:
92,144,46890,1,0,0:0:0:0:
80,156,47233,1,8,0:0:0:0:
92,144,47575,1,0,0:0:0:0:
80,152,47747,1,0,0:0:0:0:
92,144,47918,1,8,0:0:0:0:
48,132,48090,1,0,0:0:0:0:
48,136,48175,1,0,0:0:0:0:
92,144,48261,1,0,0:0:0:0:
60,148,48433,1,0,0:0:0:0:
200,120,48604,1,8,0:0:0:0:
200,120,48775,1,8,0:0:0:0:
92,144,49118,1,0,0:0:0:0:
200,120,49290,5,8,0:0:0:0:
72,140,49461,1,0,0:0:0:0:
112,136,49633,1,4,0:0:0:0:
112,160,50319,1,0,0:0:0:0:
228,120,50662,1,8,0:0:0:0:
184,136,50833,1,8,0:0:0:0:
168,148,51004,1,0,0:0:0:0:
232,120,51347,1,8,0:0:0:0:
228,120,51519,1,8,0:0:0:0:
208,120,51690,1,0,0:0:0:0:
76,136,51862,1,0,0:0:0:0:
184,116,52033,1,8,0:0:0:0:
188,132,52376,1,12,0:0:0:0:
200,124,52719,1,0,0:0:0:0:
204,128,52890,1,0,0:0:0:0:
188,132,53062,1,12,0:0:0:0:
192,120,53404,1,8,0:0:0:0:
120,116,53576,1,8,0:0:0:0:
80,160,53747,1,0,0:0:0:0:
200,100,53919,1,8,0:0:0:0:
204,112,54004,1,8,0:0:0:0:
96,156,54090,1,8,0:0:0:0:
208,152,54262,1,8,0:0:0:0:
100,160,54433,1,0,0:0:0:0:
224,136,54604,1,0,0:0:0:0:
224,112,54690,1,0,0:0:0:0:
224,112,54776,1,0,0:0:0:0:
176,224,54947,1,0,0:0:0:0:
108,160,55119,1,12,0:0:0:0:
224,136,55462,1,0,0:0:0:0:
144,128,55633,1,12,0:0:0:0:
248,148,55976,1,8,0:0:0:0:
128,120,56147,1,12,0:0:0:0:
224,136,56490,1,0,0:0:0:0:
176,120,56662,1,12,0:0:0:0:
192,84,58204,1,8,0:0:0:0:
176,92,59575,1,0,0:0:0:0:
164,120,60946,1,8,0:0:0:0:
192,120,62318,1,0,0:0:0:0:
172,104,63004,1,8,0:0:0:0:
164,128,63346,1,0,0:0:0:0:
352,160,63518,1,8,0:0:0:0:
184,120,63689,1,0,0:0:0:0:
116,144,64032,1,0,0:0:0:0:
184,120,64375,1,8,0:0:0:0:
172,172,64718,1,8,0:0:0:0:
184,120,65061,1,0,0:0:0:0:
128,104,65746,1,8,0:0:0:0:
168,168,66089,1,0,0:0:0:0:
208,124,66432,1,8,0:0:0:0:
144,96,66604,1,8,0:0:0:0:
32,136,66775,1,0,0:0:0:0:
72,148,67118,1,8,0:0:0:0:
72,148,67461,1,8,0:0:0:0:
72,148,67804,1,4,0:0:0:0:
224,104,68489,5,0,0:0:0:0:
140,120,68832,1,8,0:0:0:0:
80,148,69175,1,0,0:0:0:0:
176,184,69346,1,0,0:0:0:0:
144,108,69518,1,8,0:0:0:0:
84,156,69689,1,0,0:0:0:0:
16,120,69861,1,8,0:0:0:0:
180,184,69946,1,8,0:0:0:0:
164,188,70032,1,8,0:0:0:0:
224,108,70204,1,0,0:0:0:0:
72,152,70375,1,8,0:0:0:0:
52,100,70546,1,4,0:0:0:0:
232,96,70889,1,0,0:0:0:0:
232,96,71061,1,0,0:0:0:0:
52,100,71232,1,0,0:0:0:0:
104,88,71575,1,0,0:0:0:0:
180,212,71746,1,0,0:0:0:0:
52,100,71918,1,8,0:0:0:0:
128,128,72261,1,8,0:0:0:0:
128,128,72432,1,0,0:0:0:0:
52,100,72604,1,8,0:0:0:0:
212,124,72689,1,8,0:0:0:0:
212,120,72775,1,8,0:0:0:0:
216,112,72946,1,8,0:0:0:0:
216,112,73118,1,0,0:0:0:0:
52,100,73289,1,4,0:0:0:0:
152,128,73975,1,0,0:0:0:0:
152,172,74318,1,8,0:0:0:0:
152,172,74489,1,8,0:0:0:0:
240,172,74661,1,0,0:0:0:0:
168,136,75004,1,8,0:0:0:0:
140,132,75346,1,8,0:0:0:0:
272,200,75518,1,0,0:0:0:0:
140,132,75689,1,8,0:0:0:0:
272,200,75861,1,8,0:0:0:0:
140,132,76032,1,0,0:0:0:0:
212,184,76375,1,8,0:0:0:0:
140,132,76718,1,0,0:0:0:0:
308,152,77061,1,8,0:0:0:0:
336,160,77232,1,0,0:0:0:0:
140,132,77404,1,8,0:0:0:0:
112,120,77746,1,8,0:0:0:0:
140,132,78089,1,0,0:0:0:0:
336,160,78261,1,0,0:0:0:0:
140,132,78432,1,8,0:0:0:0:
112,120,78604,1,8,0:0:0:0:
140,132,78775,1,0,0:0:0:0:
212,156,79118,1,8,0:0:0:0:
116,136,79461,1,0,0:0:0:0:
248,156,79632,1,0,0:0:0:0:
264,148,79804,1,8,0:0:0:0:
140,132,80146,1,0,0:0:0:0:
128,136,80489,1,0,0:0:0:0:
128,136,80661,1,8,0:0:0:0:
164,180,80832,1,0,0:0:0:0:
284,160,81004,1,0,0:0:0:0:
164,180,81175,1,8,0:0:0:0:
164,180,81518,1,0,0:0:0:0:
272,148,81861,1,8,0:0:0:0:
164,180,82204,1,8,0:0:0:0:
284,148,82375,1,0,0:0:0:0:
100,136,82546,1,8,0:0:0:0:
164,180,82889,1,0,0:0:0:0:
100,136,83232,1,8,0:0:0:0:
100,136,83404,1,0,0:0:0:0:
164,180,83575,1,8,0:0:0:0:
272,180,83746,1,0,0:0:0:0:
164,180,83918,1,8,0:0:0:0:
280,176,84004,1,8,0:0:0:0:
280,176,84089,1,8,0:0:0:0:
164,180,84261,5,0,0:0:0:0:
232,264,84604,1,8,0:0:0:0:
152,128,84946,1,8,0:0:0:0:
272,248,85118,1,0,0:0:0:0:
152,172,85289,1,8,0:0:0:0:
152,172,85460,1,8,0:0:0:0:
240,172,85632,1,0,0:0:0:0:
168,136,85975,1,8,0:0:0:0:
140,132,86317,1,0,0:0:0:0:
272,200,86489,1,0,0:0:0:0:
140,132,86660,1,8,0:0:0:0:
272,200,86832,1,8,0:0:0:0:
140,132,87004,5,0,0:0:0:0:
212,184,87346,1,8,0:0:0:0:
140,132,87689,1,0,0:0:0:0:
272,248,87861,1,0,0:0:0:0:
308,152,88032,1,8,0:0:0:0:
336,160,88203,1,0,0:0:0:0:
140,132,88375,1,8,0:0:0:0:
112,120,88717,1,8,0:0:0:0:
140,132,89060,1,8,0:0:0:0:
336,160,89232,1,0,0:0:0:0:
140,132,89403,1,8,0:0:0:0:
112,120,89575,1,8,0:0:0:0:
140,132,89746,1,0,0:0:0:0:
212,156,90089,1,8,0:0:0:0:
116,136,90432,1,8,0:0:0:0:
248,156,90604,1,8,0:0:0:0:
264,148,90775,1,0,0:0:0:0:
176,148,90946,1,0,0:0:0:0:
140,132,91117,1,8,0:0:0:0:
312,180,91461,1,8,0:0:0:0:
164,180,91803,1,0,0:0:0:0:
284,160,91975,1,0,0:0:0:0:
164,180,92146,1,8,0:0:0:0:
196,152,92318,1,8,0:0:0:0:
164,180,92489,1,0,0:0:0:0:
272,148,92832,5,8,0:0:0:0:
164,180,93175,1,8,0:0:0:0:
284,148,93346,1,0,0:0:0:0:
100,136,93518,1,8,0:0:0:0:
164,180,93861,1,0,0:0:0:0:
208,96,94032,1,0,0:0:0:0:
208,96,94204,1,8,0:0:0:0:
272,176,94375,1,0,0:0:0:0:
272,176,94546,1,0,0:0:0:0:
272,176,94632,1,0,0:0:0:0:
272,176,94718,1,0,0:0:0:0:
164,124,94889,1,8,0:0:0:0:
164,124,95232,1,4,0:0:0:0:
148,128,95404,1,4,0:0:0:0:
256,192,96261,1,0,0:0:0:0:
128,128,96432,1,12,0:0:0:0:
132,120,96775,1,12,0:0:0:0:
192,104,97289,1,0,0:0:0:0:
256,132,97461,1,0,0:0:0:0:
192,104,97632,1,8,0:0:0:0:
192,104,97975,1,4,0:0:0:0:
172,104,98146,1,4,0:0:0:0:
256,132,99004,1,0,0:0:0:0:
188,116,99175,1,12,0:0:0:0:
188,116,99518,1,12,0:0:0:0:
232,132,99861,1,8,0:0:0:0:
248,100,100204,1,0,0:0:0:0:
120,132,100375,1,0,0:0:0:0:
188,112,100718,1,4,0:0:0:0:
176,132,101232,1,0,0:0:0:0:
252,168,101404,1,8,0:0:0:0:
380,164,102089,1,0,0:0:0:0:
184,148,102261,1,8,0:0:0:0:
160,120,102604,1,0,0:0:0:0:
188,136,102775,1,8,0:0:0:0:
188,136,103118,1,8,0:0:0:0:
108,152,103461,1,0,0:0:0:0:
180,168,103804,1,0,0:0:0:0:
180,168,103975,1,0,0:0:0:0:
108,144,104146,1,0,0:0:0:0:
240,176,104318,1,0,0:0:0:0:
196,156,104489,1,0,0:0:0:0:
96,176,104575,1,0,0:0:0:0:
240,176,104661,1,0,0:0:0:0:
108,144,104832,1,8,0:0:0:0:
108,144,105175,1,8,0:0:0:0:
196,156,105346,1,8,0:0:0:0:
216,172,105432,1,8,0:0:0:0:
212,168,105518,1,8,0:0:0:0:
244,164,105689,1,8,0:0:0:0:
108,144,105861,1,0,0:0:0:0:
260,160,105946,1,0,0:0:0:0:
280,160,106032,1,0,0:0:0:0:
176,76,106204,1,12,0:0:0:0:
144,168,106546,1,8,0:0:0:0:
88,136,106889,1,0,0:0:0:0:
128,88,107061,1,0,0:0:0:0:
92,132,107232,1,8,0:0:0:0:
76,140,107404,1,0,0:0:0:0:
32,148,107489,1,0,0:0:0:0:
92,144,107575,1,0,0:0:0:0:
116,96,107746,1,0,0:0:0:0:
48,152,107918,1,8,0:0:0:0:
16,148,108089,1,0,0:0:0:0:
92,144,108432,1,0,0:0:0:0:
136,144,108604,1,8,0:0:0:0:
104,128,108775,1,8,0:0:0:0:
92,144,108946,1,0,0:0:0:0:
80,156,109289,1,8,0:0:0:0:
92,144,109632,1,0,0:0:0:0:
80,152,109804,1,0,0:0:0:0:
92,144,109975,1,8,0:0:0:0:
48,132,110146,1,8,0:0:0:0:
48,136,110232,1,8,0:0:0:0:
92,144,110318,1,8,0:0:0:0:
60,148,110489,1,0,0:0:0:0:
200,120,110661,1,8,0:0:0:0:
200,120,110832,1,8,0:0:0:0:
92,144,111175,1,0,0:0:0:0:
200,120,111346,1,8,0:0:0:0:
72,140,111518,1,0,0:0:0:0:
112,136,111689,1,4,0:0:0:0:
144,88,112032,1,8,0:0:0:0:
200,104,112375,1,0,0:0:0:0:
104,136,112546,1,0,0:0:0:0:
200,104,112718,1,8,0:0:0:0:
104,144,112889,1,8,0:0:0:0:
104,132,113061,1,0,0:0:0:0:
184,204,113404,1,8,0:0:0:0:
184,204,113575,1,8,0:0:0:0:
124,148,113746,1,0,0:0:0:0:
104,144,113918,1,0,0:0:0:0:
196,120,114089,1,8,0:0:0:0:
124,148,114432,1,0,0:0:0:0:
176,160,114775,1,8,0:0:0:0:
176,160,114946,1,0,0:0:0:0:
124,148,115118,1,8,0:0:0:0:
108,124,115289,1,8,0:0:0:0:
152,156,115461,1,0,0:0:0:0:
124,148,115804,1,8,0:0:0:0:
128,152,115975,1,8,0:0:0:0:
124,148,116146,1,0,0:0:0:0:
140,112,116318,1,0,0:0:0:0:
124,148,116489,1,8,0:0:0:0:
152,112,116661,1,0,0:0:0:0:
168,128,116746,1,0,0:0:0:0:
136,104,116832,1,0,0:0:0:0:
240,92,117004,1,0,0:0:0:0:
124,148,117175,1,12,0:0:0:0:
144,168,117518,1,8,0:0:0:0:
88,136,117861,1,0,0:0:0:0:
128,88,118032,1,0,0:0:0:0:
92,132,118204,1,8,0:0:0:0:
76,140,118375,1,8,0:0:0:0:
32,148,118461,1,8,0:0:0:0:
92,144,118546,1,8,0:0:0:0:
116,96,118718,1,0,0:0:0:0:
48,152,118889,1,0,0:0:0:0:
16,148,119061,1,8,0:0:0:0:
92,144,119404,1,0,0:0:0:0:
136,144,119575,1,8,0:0:0:0:
104,128,119746,1,8,0:0:0:0:
92,144,119918,1,0,0:0:0:0:
80,156,120261,1,8,0:0:0:0:
92,144,120604,1,0,0:0:0:0:
80,152,120775,1,0,0:0:0:0:
92,144,120946,1,8,0:0:0:0:
48,132,121118,1,0,0:0:0:0:
48,136,121204,1,0,0:0:0:0:
92,144,121289,1,0,0:0:0:0:
60,148,121461,1,0,0:0:0:0:
200,120,121632,1,8,0:0:0:0:
200,120,121804,1,8,0:0:0:0:
92,144,122146,1,0,0:0:0:0:
200,120,122318,5,8,0:0:0:0:
72,140,122489,1,0,0:0:0:0:
112,136,122661,1,4,0:0:0:0:
112,160,123346,1,0,0:0:0:0:
228,120,123689,1,8,0:0:0:0:
184,136,123861,1,8,0:0:0:0:
168,148,124032,1,0,0:0:0:0:
232,120,124375,1,8,0:0:0:0:
228,120,124546,1,8,0:0:0:0:
208,120,124718,1,0,0:0:0:0:
76,136,124889,1,0,0:0:0:0:
184,116,125061,1,8,0:0:0:0:
188,132,125404,1,12,0:0:0:0:
200,124,125746,1,0,0:0:0:0:
204,128,125918,1,0,0:0:0:0:
188,132,126089,1,12,0:0:0:0:
192,120,126432,1,8,0:0:0:0:
120,116,126604,1,8,0:0:0:0:
80,160,126775,1,0,0:0:0:0:
200,100,126946,1,8,0:0:0:0:
204,112,127032,1,8,0:0:0:0:
96,156,127118,1,8,0:0:0:0:
208,152,127289,1,8,0:0:0:0:
100,160,127461,1,0,0:0:0:0:
224,112,127632,1,0,0:0:0:0:
224,136,127718,1,0,0:0:0:0:
224,112,127804,1,0,0:0:0:0:
36,164,127975,1,0,0:0:0:0:
108,160,128146,1,12,0:0:0:0:
224,136,128489,1,0,0:0:0:0:
144,128,128661,1,12,0:0:0:0:
248,148,129004,1,8,0:0:0:0:
128,120,129175,1,12,0:0:0:0:
224,136,129518,1,0,0:0:0:0:
176,120,129689,1,12,0:0:0:0:
184,136,131231,5,8,0:0:0:0:
124,144,133974,5,8,0:0:0:0:
104,144,134660,1,8,0:0:0:0:
132,140,135346,1,0,0:0:0:0:
152,120,136032,1,0,0:0:0:0:
132,140,136717,1,8,0:0:0:0:
20,120,137403,1,8,0:0:0:0:
72,140,138089,1,0,0:0:0:0:
20,120,138432,1,8,0:0:0:0:
72,140,138774,1,0,0:0:0:0:
80,84,139117,1,0,0:0:0:0:
72,140,139460,1,8,0:0:0:0:
80,84,140146,1,8,0:0:0:0:
80,84,140832,1,0,0:0:0:0:
168,72,141517,1,0,0:0:0:0:
136,144,142203,1,8,0:0:0:0:
80,164,142717,1,8,0:0:0:0:
176,136,142889,1,8,0:0:0:0:
228,136,143574,1,0,0:0:0:0:
112,168,144089,1,0,0:0:0:0:
136,144,144260,1,8,0:0:0:0:
240,120,144603,1,0,0:0:0:0:
136,144,144946,1,12,0:0:0:0:
240,120,146317,1,8,0:0:0:0:
188,148,147689,1,8,0:0:0:0:
240,136,149060,1,8,0:0:0:0:
232,76,150089,1,0,0:0:0:0:
108,172,150260,1,0,0:0:0:0:
172,148,150432,1,8,0:0:0:0:
36,180,150774,1,0,0:0:0:0:
68,112,150946,1,8,0:0:0:0:
36,180,151289,1,0,0:0:0:0:
172,128,151460,1,8,0:0:0:0:
36,180,151803,1,0,0:0:0:0:
68,112,151974,1,8,0:0:0:0:
36,180,152317,1,0,0:0:0:0:
168,136,152489,1,8,0:0:0:0:
96,188,152660,1,0,0:0:0:0:
68,112,152832,1,8,0:0:0:0:
96,188,152917,1,8,0:0:0:0:
96,192,153003,1,8,0:0:0:0:
168,140,153174,1,0,0:0:0:0:
8,244,153517,1,0,0:0:0:0:
8,244,153689,1,0,0:0:0:0:
176,144,153860,1,0,0:0:0:0:
72,104,154203,1,0,0:0:0:0:
8,244,154374,1,0,0:0:0:0:
176,152,154546,1,8,0:0:0:0:
176,152,154889,1,8,0:0:0:0:
72,108,155060,1,8,0:0:0:0:
176,152,155232,1,0,0:0:0:0:
104,224,155403,1,8,0:0:0:0:
128,224,155574,1,0,0:0:0:0:
128,224,155660,1,0,0:0:0:0:
128,224,155746,1,0,0:0:0:0:
176,152,155917,1,4,0:0:0:0:
104,120,156260,1,8,0:0:0:0:
28,116,156603,1,0,0:0:0:0:
112,128,156774,1,0,0:0:0:0:
100,156,156946,1,8,0:0:0:0:
96,160,157117,1,0,0:0:0:0:
140,136,157289,1,8,0:0:0:0:
16,120,157632,1,0,0:0:0:0:
140,136,157803,1,8,0:0:0:0:
48,152,157974,1,0,0:0:0:0:
140,136,158317,1,8,0:0:0:0:
140,136,158660,1,0,0:0:0:0:
336,148,159003,1,0,0:0:0:0:
336,148,159174,1,0,0:0:0:0:
140,136,159346,1,8,0:0:0:0:
24,88,159689,1,0,0:0:0:0:
140,136,160032,1,8,0:0:0:0:
48,120,160374,1,8,0:0:0:0:
80,156,160546,1,0,0:0:0:0:
140,136,160717,1,8,0:0:0:0:
140,136,161060,1,8,0:0:0:0:
140,136,161403,1,0,0:0:0:0:
364,152,161746,1,0,0:0:0:0:
364,152,161917,1,0,0:0:0:0:
88,136,162089,1,0,0:0:0:0:
364,152,162260,1,0,0:0:0:0:
88,136,162432,1,8,0:0:0:0:
200,120,162774,1,0,0:0:0:0:
88,128,163117,1,8,0:0:0:0:
56,160,163289,1,8,0:0:0:0:
128,116,163460,1,8,0:0:0:0:
364,152,163632,1,8,0:0:0:0:
88,128,163803,1,0,0:0:0:0:
192,144,164146,1,8,0:0:0:0:
104,168,164489,1,0,0:0:0:0:
120,152,164660,1,8,0:0:0:0:
192,144,164832,1,8,0:0:0:0:
88,128,165174,1,8,0:0:0:0:
192,144,165517,1,0,0:0:0:0:
228,156,165860,1,8,0:0:0:0:
100,108,166032,1,8,0:0:0:0:
228,156,166203,1,0,0:0:0:0:
88,160,166317,1,0,0:0:0:0:
88,160,166432,1,0,0:0:0:0:
100,108,166546,1,0,0:0:0:0:
152,160,166889,1,4,0:0:0:0:
124,164,167403,1,0,0:0:0:0:
136,68,167574,1,8,0:0:0:0:
20,148,167917,1,8,0:0:0:0:
108,128,168260,1,0,0:0:0:0:
136,108,168432,1,8,0:0:0:0:
136,72,168774,1,0,0:0:0:0:
136,108,168946,1,8,0:0:0:0:
64,164,169289,1,0,0:0:0:0:
136,108,169632,1,0,0:0:0:0:
64,164,170146,1,0,0:0:0:0:
60,124,170317,1,8,0:0:0:0:
100,132,170660,1,8,0:0:0:0:
64,164,171003,1,0,0:0:0:0:
136,104,171174,1,8,0:0:0:0:
56,136,171517,1,0,0:0:0:0:
136,104,171689,1,8,0:0:0:0:
184,152,171860,1,0,0:0:0:0:
116,144,172032,1,8,0:0:0:0:
88,176,172117,1,8,0:0:0:0:
156,172,172203,1,8,0:0:0:0:
136,104,172374,1,0,0:0:0:0:
8,164,172717,1,8,0:0:0:0:
32,160,172889,1,0,0:0:0:0:
152,104,173060,1,8,0:0:0:0:
152,104,173403,1,8,0:0:0:0:
248,136,173574,1,8,0:0:0:0:
184,164,173746,1,0,0:0:0:0:
88,168,174089,1,8,0:0:0:0:
256,140,174260,1,0,0:0:0:0:
184,160,174432,1,0,0:0:0:0:
136,156,174517,1,0,0:0:0:0:
124,160,174603,1,0,0:0:0:0:
88,168,174774,1,0,0:0:0:0:
184,160,175117,1,8,0:0:0:0:
304,148,175460,1,0,0:0:0:0:
136,88,175632,1,8,0:0:0:0:
304,148,175974,1,0,0:0:0:0:
132,124,176146,1,8,0:0:0:0:
180,160,176489,1,0,0:0:0:0:
24,156,176660,1,8,0:0:0:0:
140,160,177003,1,0,0:0:0:0:
132,124,177174,1,8,0:0:0:0:
44,176,177517,1,0,0:0:0:0:
504,92,177603,1,0,0:0:0:0:
44,176,177689,1,0,0:0:0:0:
176,92,177860,1,0,0:0:0:0:
124,184,178203,1,0,0:0:0:0:
424,152,178374,1,0,0:0:0:0:
56,100,178546,1,8,0:0:0:0:
272,68,178632,1,8,0:0:0:0:
124,212,178717,1,8,0:0:0:0:
92,108,178889,1,0,0:0:0:0:
88,188,179060,1,0,0:0:0:0:
176,144,179232,1,4,0:0:0:0:
168,180,180603,1,8,0:0:0:0:
248,152,181974,1,8,0:0:0:0:
152,108,182660,1,8,0:0:0:0:
248,152,183346,1,8,0:0:0:0:
148,172,184374,1,0,0:0:0:0:
244,144,184717,1,0,0:0:0:0:
64,144,185403,1,0,0:0:0:0:
88,216,185574,1,0,0:0:0:0:
152,180,185746,1,0,0:0:0:0:
204,116,186089,1,8,0:0:0:0:
96,144,186774,1,8,0:0:0:0:
80,148,187117,1,8,0:0:0:0:
208,92,187460,1,0,0:0:0:0:
28,144,187803,1,0,0:0:0:0:
64,156,187974,1,0,0:0:0:0:
208,92,188146,1,8,0:0:0:0:
48,100,188489,1,8,0:0:0:0:
208,92,188832,1,0,0:0:0:0:
240,184,189174,1,0,0:0:0:0:
268,184,189346,1,8,0:0:0:0:
212,88,189517,1,0,0:0:0:0:
48,100,189860,1,0,0:0:0:0:
216,152,190032,1,0,0:0:0:0:
220,88,190203,1,8,0:0:0:0:
88,104,190546,1,8,0:0:0:0:
88,104,190717,1,8,0:0:0:0:
168,104,190889,1,8,0:0:0:0:
172,160,191060,1,8,0:0:0:0:
168,104,191232,1,8,0:0:0:0:
172,160,191317,1,8,0:0:0:0:
172,160,191403,1,8,0:0:0:0:
192,136,191574,1,0,0:0:0:0:
200,152,192089,1,0,0:0:0:0:
172,104,192260,1,12,0:0:0:0:
200,152,192603,1,8,0:0:0:0:
88,108,192946,1,4,0:0:0:0:
64,192,193289,1,0,0:0:0:0:
232,148,193460,1,12,0:0:0:0:
88,108,193803,1,12,0:0:0:0:
232,148,194146,1,12,0:0:0:0:
280,148,194660,1,8,0:0:0:0:
92,144,195003,1,0,0:0:0:0:
80,152,195175,1,0,0:0:0:0:
92,144,195346,1,8,0:0:0:0:
48,132,195518,1,0,0:0:0:0:
48,136,195603,1,0,0:0:0:0:
92,144,195689,1,0,0:0:0:0:
60,148,195861,1,0,0:0:0:0:
200,120,196032,1,8,0:0:0:0:
200,120,196203,1,8,0:0:0:0:
92,144,196546,1,0,0:0:0:0:
200,120,196718,5,8,0:0:0:0:
72,140,196889,1,0,0:0:0:0:
112,136,197061,1,4,0:0:0:0:
112,160,197747,1,0,0:0:0:0:
228,120,198090,1,8,0:0:0:0:
184,136,198261,1,8,0:0:0:0:
168,148,198432,1,0,0:0:0:0:
152,164,198603,1,8,0:0:0:0:
172,160,198689,1,8,0:0:0:0:
232,120,198775,1,8,0:0:0:0:
228,120,198947,1,8,0:0:0:0:
208,120,199118,1,0,0:0:0:0:
76,136,199290,1,0,0:0:0:0:
184,116,199461,1,8,0:0:0:0:
188,132,199804,1,12,0:0:0:0:
200,124,200147,1,0,0:0:0:0:
204,128,200318,1,0,0:0:0:0:
188,132,200490,1,12,0:0:0:0:
192,120,200832,1,8,0:0:0:0:
120,116,201004,1,8,0:0:0:0:
80,160,201175,1,0,0:0:0:0:
200,100,201347,1,8,0:0:0:0:
204,112,201432,1,8,0:0:0:0:
96,156,201518,1,8,0:0:0:0:
208,152,201689,1,8,0:0:0:0:
100,160,201860,1,0,0:0:0:0:
224,112,202032,1,0,0:0:0:0:
224,136,202117,1,0,0:0:0:0:
224,112,202204,1,0,0:0:0:0:
36,164,202375,1,0,0:0:0:0:
108,160,202547,1,12,0:0:0:0:
224,136,202890,1,0,0:0:0:0:
144,128,203061,1,12,0:0:0:0:
248,148,203404,1,8,0:0:0:0:
128,120,203575,1,12,0:0:0:0:
224,136,203918,5,0,0:0:0:0:
176,120,204090,1,12,0:0:0:0:
232,108,204946,1,0,0:0:0:0:
112,180,205032,1,0,0:0:0:0:
120,176,205117,1,0,0:0:0:0:
264,144,205289,5,8,0:0:0:0:
264,144,205632,1,0,0:0:0:0:
104,172,205974,1,8,0:0:0:0:
104,172,206146,1,0,0:0:0:0:
264,132,206317,1,0,0:0:0:0:
108,172,206660,1,8,0:0:0:0:
108,172,206832,1,0,0:0:0:0:
240,152,207003,1,8,0:0:0:0:
204,156,207174,1,0,0:0:0:0:
24,172,207346,1,8,0:0:0:0:
240,152,207517,1,8,0:0:0:0:
268,132,207689,1,0,0:0:0:0:
152,144,208032,1,0,0:0:0:0:
268,132,208374,1,8,0:0:0:0:
184,132,208717,1,8,0:0:0:0:
128,192,208889,1,0,0:0:0:0:
268,132,209060,1,8,0:0:0:0:
48,100,209403,1,0,0:0:0:0:
152,136,209574,1,0,0:0:0:0:
76,68,209746,1,8,0:0:0:0:
268,132,210089,1,8,0:0:0:0:
76,68,210260,1,0,0:0:0:0:
152,136,210432,1,0,0:0:0:0:
76,120,210603,1,8,0:0:0:0:
336,216,210775,1,8,0:0:0:0:
340,212,210861,1,8,0:0:0:0:
156,120,210946,1,8,0:0:0:0:
268,132,211117,1,4,0:0:0:0:
68,160,211803,1,0,0:0:0:0:
48,140,212146,1,8,0:0:0:0:
128,160,212317,1,0,0:0:0:0:
272,124,212489,1,8,0:0:0:0:
128,160,212832,1,8,0:0:0:0:
136,156,213003,1,8,0:0:0:0:
272,124,213174,1,0,0:0:0:0:
196,76,213346,1,0,0:0:0:0:
80,140,213517,1,8,0:0:0:0:
272,124,213860,1,0,0:0:0:0:
144,160,214546,1,8,0:0:0:0:
272,112,214889,1,0,0:0:0:0:
88,196,215060,1,8,0:0:0:0:
272,112,215232,1,0,0:0:0:0:
52,116,215574,1,0,0:0:0:0:
284,96,215746,1,0,0:0:0:0:
276,120,215917,1,8,0:0:0:0:
88,196,216089,1,8,0:0:0:0:
148,200,216260,1,0,0:0:0:0:
168,200,216346,1,0,0:0:0:0:
160,208,216432,1,0,0:0:0:0:
276,120,216603,1,8,0:0:0:0:
96,160,217289,1,0,0:0:0:0:
136,112,217632,1,8,0:0:0:0:
56,148,217803,1,8,0:0:0:0:
52,308,217974,1,0,0:0:0:0:
96,160,218317,1,8,0:0:0:0:
108,212,218660,1,0,0:0:0:0:
72,124,218832,1,8,0:0:0:0:
84,168,219003,1,0,0:0:0:0:
160,168,219174,1,0,0:0:0:0:
116,216,219346,1,8,0:0:0:0:
224,160,219689,1,8,0:0:0:0:
124,212,220032,1,8,0:0:0:0:
160,168,220203,1,0,0:0:0:0:
260,148,220374,1,8,0:0:0:0:
208,104,220546,1,8,0:0:0:0:
124,212,220717,1,0,0:0:0:0:
296,144,221060,1,8,0:0:0:0:
168,160,221232,1,0,0:0:0:0:
124,212,221403,1,8,0:0:0:0:
256,212,221574,1,0,0:0:0:0:
256,212,221746,1,0,0:0:0:0:
192,176,221832,1,0,0:0:0:0:
192,176,221917,1,0,0:0:0:0:
124,212,222089,1,4,0:0:0:0:
68,160,222774,1,0,0:0:0:0:
48,140,223117,1,8,0:0:0:0:
128,160,223288,1,0,0:0:0:0:
272,124,223460,1,8,0:0:0:0:
128,160,223803,1,8,0:0:0:0:
136,156,223974,1,8,0:0:0:0:
272,124,224145,1,0,0:0:0:0:
196,76,224317,1,0,0:0:0:0:
80,140,224488,1,8,0:0:0:0:
272,124,224831,1,0,0:0:0:0:
144,160,225517,1,8,0:0:0:0:
272,112,225860,1,0,0:0:0:0:
88,196,226031,1,8,0:0:0:0:
272,112,226203,1,0,0:0:0:0:
52,116,226545,1,0,0:0:0:0:
284,96,226717,1,0,0:0:0:0:
276,120,226888,1,8,0:0:0:0:
88,196,227060,1,8,0:0:0:0:
148,200,227231,1,0,0:0:0:0:
168,200,227317,1,0,0:0:0:0:
160,208,227403,1,0,0:0:0:0:
276,120,227574,1,8,0:0:0:0:
96,160,228260,1,0,0:0:0:0:
136,112,228603,1,8,0:0:0:0:
56,148,228774,1,8,0:0:0:0:
52,308,228945,1,0,0:0:0:0:
96,160,229288,1,8,0:0:0:0:
56,168,229632,1,0,0:0:0:0:
36,180,229803,1,0,0:0:0:0:
36,180,229974,1,8,0:0:0:0:
36,180,230146,1,0,0:0:0:0:
96,104,230317,1,8,0:0:0:0:
144,96,230660,1,0,0:0:0:0:
144,96,230832,1,0,0:0:0:0:
72,148,231003,5,8,0:0:0:0:
72,148,231346,1,0,0:0:0:0:
72,148,231517,1,0,0:0:0:0:
152,144,231689,1,8,0:0:0:0:
192,124,231860,1,8,0:0:0:0:
128,96,232032,1,0,0:0:0:0:
128,96,232374,1,0,0:0:0:0:
56,192,232489,1,0,0:0:0:0:
56,192,232603,1,0,0:0:0:0:
128,96,232717,1,0,0:0:0:0:
164,160,233060,1,12,0:0:0:0:
296,176,233746,1,8,0:0:0:0:
76,176,234432,1,0,0:0:0:0:
128,172,234603,1,8,0:0:0:0:
168,168,234946,1,0,0:0:0:0:
132,124,235117,1,8,0:0:0:0:
104,152,235289,1,0,0:0:0:0:
116,160,235632,1,8,0:0:0:0:
164,160,235803,1,4,0:0:0:0:
168,188,236489,1,8,0:0:0:0:
240,124,237003,1,0,0:0:0:0:
168,160,237174,1,8,0:0:0:0:
160,148,237517,1,0,0:0:0:0:
160,184,237689,1,0,0:0:0:0:
160,148,237860,1,8,0:0:0:0:
172,152,238546,1,8,0:0:0:0:
204,120,239917,1,0,0:0:0:0:
236,136,241117,1,0,0:0:0:0:
104,168,241289,1,8,0:0:0:0:
252,144,241632,1,8,0:0:0:0:
152,128,241974,1,8,0:0:0:0:
172,160,242146,1,8,0:0:0:0:
172,160,242317,1,8,0:0:0:0:
152,128,242660,1,8,0:0:0:0:
248,240,242832,1,8,0:0:0:0:
140,160,243003,1,8,0:0:0:0:
172,160,243174,1,8,0:0:0:0:
140,160,243346,1,8,0:0:0:0:
240,112,243517,1,8,0:0:0:0:
140,160,243689,1,8,0:0:0:0:
240,112,243860,1,8,0:0:0:0:
164,152,244374,1,4,0:0:0:0:
280,160,246003,1,8,0:0:0:0:
280,160,246089,1,8,0:0:0:0:
280,160,246174,1,8,0:0:0:0:
240,120,246260,1,8,0:0:0:0:
