osu file format v14

[General]
AudioFilename: audio.mp3
AudioLeadIn: 0
PreviewTime: 106041
Countdown: 0
SampleSet: Soft
StackLeniency: 0.3
Mode: 0
LetterboxInBreaks: 0
WidescreenStoryboard: 0

[Editor]
Bookmarks: 78612,102955,150269,192098,207526,209583,220897,226726,249782
DistanceSpacing: 1.5
BeatDivisor: 4
GridSize: 4
TimelineZoom: 1.3

[Metadata]
Title:Kiss no Hitotsu de
TitleUnicode:キスのひとつで
Artist:Sasaki Sayaka
ArtistUnicode:佐咲紗花
Creator:Left
Version:Yamicchi's Hard
Source:ちいさな彼女の小夜曲
Tags:chiisana kanojo no serenade ending Kalibe Akitoshi Garden Yamicchi SnowNiNo_
BeatmapID:1408524
BeatmapSetID:613158

[Difficulty]
HPDrainRate:5.5
CircleSize:3.8
OverallDifficulty:6
ApproachRate:7.8
SliderMultiplier:1.5
SliderTickRate:1

[Events]
//Background and Video events
0,0,"bg1.jpg",0,0
//Break Periods
2,133898,144090
2,180726,185233
//Storyboard Layer 0 (Background)
//Storyboard Layer 1 (Fail)
//Storyboard Layer 2 (Pass)
//Storyboard Layer 3 (Foreground)
//Storyboard Sound Samples

[TimingPoints]
185,342.857142857143,4,2,1,35,1,0
870,-125,4,2,1,35,0,0
22127,-100,4,2,1,55,0,0
27613,-125,4,2,1,55,0,0
30356,-100,4,2,1,55,0,0
31727,-100,4,2,1,55,0,0
32242,-100,4,2,1,55,0,0
33099,-100,4,2,1,75,0,1
56585,-125,4,2,1,75,0,1
58127,342.857142857143,4,2,1,45,1,0
59498,-125,4,2,1,45,0,0
66355,-100,4,2,1,45,0,0
70469,-100,4,2,1,55,0,0
100641,-125,4,2,1,55,0,0
103212,-100,4,2,1,55,0,0
106127,-100,4,2,1,75,0,1
129441,-125,4,2,1,75,0,1
131155,-125,4,2,1,75,0,0
133898,342.857142857143,4,2,1,45,1,0
144869,-166.666666666667,4,2,1,45,0,0
150012,-100,4,2,1,45,0,0
150355,-100,4,2,1,65,0,0
166812,-125,4,2,1,65,0,0
172298,-100,4,2,1,65,0,0
179155,-125,4,2,1,65,0,0
186012,-125,4,2,1,45,0,0
190126,-100,4,2,1,65,0,0
191498,-125,4,2,1,65,0,0
192183,-100,4,2,1,65,0,0
194069,-100,4,2,1,75,0,1
204012,-125,4,2,1,75,0,1
205040,-100,4,2,1,75,0,1
205555,342.857142857143,4,2,1,68,1,0
232297,-125,4,2,1,68,0,0
238383,-100,4,2,1,5,0,0
238469,-100,4,2,1,68,0,0
238555,-100,4,2,1,5,0,0
239840,-100,4,2,1,68,0,0
239926,-100,4,2,1,5,0,0
241040,-100,4,2,1,68,0,0
244297,342.857142857143,4,2,1,80,1,0
244297,-200,4,2,1,80,0,0
244382,-133.333333333333,4,2,1,5,0,0

[Colours]
Combo1 : 208,255,183
Combo2 : 255,244,208
Combo3 : 154,221,254

[HitObjects]
336,52,185,5,2,0:3:0:0:
136,112,870,2,0,P|144:152|148:192,1,60,2|0,0:0|0:0,0:0:0:0:
122,245,1213,2,0,P|114:285|110:325,1,60,0|2,0:0|0:0,0:0:0:0:
168,360,1556,2,0,P|224:336|292:344,1,120
360,332,2070,1,2,0:0:0:0:
360,332,2242,2,0,P|393:282|399:223,1,120,0|0,0:0|0:0,0:0:0:0:
384,148,2756,1,2,0:0:0:0:
384,148,2927,5,2,0:0:0:0:
168,40,3442,1,0,0:0:0:0:
168,40,3613,2,0,P|136:44|96:44,2,60,2|0|0,0:0|0:0|0:0,0:0:0:0:
248,12,4127,2,0,L|240:140,1,120,2|0,0:0|0:0,0:0:0:0:
88,236,4813,2,0,L|80:116,1,120,2|2,0:0|0:0,0:0:0:0:
236,216,5499,1,0,0:0:0:0:
236,216,5670,5,2,0:0:0:0:
48,364,6185,1,0,0:0:0:0:
48,364,6356,2,0,P|88:356|120:356,1,60,2|0,0:0|0:0,0:0:0:0:
160,296,6699,2,0,P|186:326|202:354,1,60,0|2,0:0|0:0,0:0:0:0:
272,368,7042,2,0,P|300:328|324:256,1,120
400,248,7556,2,0,P|440:292|466:345,2,120,2|2|0,0:0|0:0|0:0,0:0:0:0:
351,188,8413,5,2,0:0:0:0:
72,212,8927,1,0,0:0:0:0:
72,212,9099,2,0,P|64:176|64:148,2,60,2|2|0,0:0|0:0|0:0,0:0:0:0:
132,264,9613,2,0,L|260:256,1,120,2|2,0:0|0:0,0:0:0:0:
392,380,10299,2,0,L|264:372,1,120,2|2,0:0|0:0,0:0:0:0:
404,244,10985,1,0,0:0:0:0:
404,244,11156,5,4,0:0:0:0:
452,72,11842,2,0,L|384:64,1,60,2|0,0:0|0:0,0:0:0:0:
320,96,12185,2,0,L|252:88,1,60,0|0,0:0|0:0,0:0:0:0:
200,40,12527,2,0,P|216:88|216:168,1,120,2|2,0:0|0:0,0:0:0:0:
156,208,13042,1,0,0:0:0:0:
156,208,13213,2,0,P|140:256|140:336,1,120,0|2,0:0|0:0,0:0:0:0:
200,376,13727,1,0,0:0:0:0:
200,376,13899,5,0,0:0:0:0:
404,296,14413,1,2,0:0:0:0:
404,296,14585,2,0,P|416:328|416:360,2,60,2|0|0,0:0|0:0|0:0,0:0:0:0:
344,232,15099,2,0,L|204:212,1,120,2|0,0:0|0:0,0:0:0:0:
392,132,15785,2,0,L|532:112,1,120,2|2,0:0|0:0,0:0:0:0:
404,296,16470,1,0,0:0:0:0:
404,296,16642,5,2,0:0:0:0:
180,236,17327,2,0,P|188:272|184:304,1,60,2|0,0:0|0:0,0:0:0:0:
110,314,17670,2,0,P|90:282|82:251,1,60,2|0,0:0|0:0,0:0:0:0:
116,188,18013,2,0,P|172:157|230:172,1,120,2|0,0:0|0:0,0:0:0:0:
287,215,18527,2,0,P|345:226|396:196,2,120,2|0|2,0:0|0:0|0:0,0:0:0:0:
224,168,19385,5,0,0:0:0:0:
424,56,19899,1,0,0:0:0:0:
424,56,20070,2,0,B|420:104|420:104|424:128|424:128|420:176,1,120,2|2,0:0|0:0,0:0:0:0:
456,248,20585,6,0,L|492:244,2,30,0|0|2,0:0|0:0|1:2,0:0:0:0:
376,248,20927,2,0,P|384:282|411:314,2,60,0|0|0,3:0|0:0|0:0,0:0:0:0:
304,212,21442,2,0,P|270:220|238:247,1,60,2|0,0:0|0:0,0:0:0:0:
192,296,21785,2,0,L|96:288,1,90,2|0,0:0|0:0,0:0:0:0:
60,308,22127,6,0,P|52:264|52:220,1,75,4|2,1:2|0:0,0:0:0:0:
96,160,22470,2,0,P|140:151|184:151,1,75,0|2,1:0|0:0,0:0:0:0:
252,124,22813,2,0,P|240:196|240:288,1,150,0|2,1:0|1:2,0:0:0:0:
308,324,23327,1,0,0:0:0:0:
364,260,23499,6,0,P|408:252|452:252,1,75,2|0,1:0|0:0,0:0:0:0:
500,192,23842,2,0,P|461:169|420:154,1,75,2|0,1:0|0:0,0:0:0:0:
348,172,24185,2,0,P|304:192|196:192,1,150,2|2,1:0|1:2,0:0:0:0:
128,152,24699,1,0,0:0:0:0:
128,152,24785,1,0,0:0:0:0:
128,152,24870,6,0,L|120:64,1,75,2|0,1:2|0:0,0:0:0:0:
212,40,25213,1,0,1:0:0:0:
212,40,25385,2,0,L|204:128,1,75,2|2,0:1|1:2,0:0:0:0:
296,152,25727,2,0,L|288:64,1,75,2|2,0:1|1:2,0:0:0:0:
360,28,26070,1,2,0:1:0:0:
412,104,26242,6,0,P|460:108|504:108,1,75,2|0,1:2|0:0,0:0:0:0:
512,192,26585,2,0,P|476:203|440:213,1,75,0|0,1:0|0:0,0:0:0:0:
356,220,26927,1,2,1:2:0:0:
272,296,27099,2,0,L|276:336,5,37.5,0|8|8|8|4|4,0:0|0:3|0:3|0:3|0:3|0:3,0:0:0:0:
248,360,27613,6,0,B|200:360|160:316|160:316|136:256|76:208|16:212|-20:280|-8:336|28:368|104:368|160:316|160:316|193:264|241:243|317:260|340:331,1,720,2|2,0:3|0:0,0:0:0:0:
496,244,30185,5,0,0:0:0:0:
496,244,30270,1,0,0:0:0:0:
496,244,30356,2,0,L|500:164,1,75,6|0,1:2|1:0,0:0:0:0:
396,124,30699,2,0,L|400:204,1,75,0|0,1:0|1:0,0:0:0:0:
296,244,31042,1,10,1:2:0:0:
200,212,31213,1,8,1:2:0:0:
139,293,31385,1,10,1:2:0:0:
197,375,31556,1,8,1:2:0:0:
293,346,31727,6,0,B|332:336|332:336|448:348,1,150,0|2,0:0|0:0,0:0:0:0:
496,280,32242,2,0,P|512:204|496:128,1,150,2|8,0:0|0:0,0:0:0:0:
488,116,32670,1,8,0:3:0:0:
480,97,32756,2,0,L|440:93,3,37.5,4|4|0|0,0:3|0:3|1:0|1:0,0:0:0:0:
400,108,33099,6,0,P|376:72|368:32,1,75,6|0,1:2|0:0,0:0:0:0:
280,24,33442,2,0,P|253:50|238:84,1,75,10|0,0:0|0:0,0:0:0:0:
264,172,33785,2,0,L|272:256,1,75,2|0,1:0|0:0,0:0:0:0:
372,316,34127,2,0,L|380:232,1,75,10|0,0:1|0:0,0:0:0:0:
296,348,34470,2,0,B|356:344|356:344|388:352|388:352|444:348,1,150,6|10,1:0|0:0,0:0:0:0:
504,280,34985,2,0,B|512:244|512:244|504:192,1,75,2|4,0:1|1:0,0:0:0:0:
424,168,35327,2,0,B|416:204|416:204|424:256,1,75,2|10,0:1|0:0,0:0:0:0:
372,316,35670,1,2,0:1:0:0:
296,264,35842,6,0,B|256:252|224:268|224:268|192:284|144:268,1,150,4|10,1:0|0:0,0:0:0:0:
56,96,36527,2,0,P|92:80|144:76,1,75,2|0,1:0|0:0,0:0:0:0:
212,112,36870,2,0,P|248:128|300:132,1,75,10|0,0:1|0:0,0:0:0:0:
348,72,37213,2,0,L|288:236,1,150,6|10,1:0|0:0,0:0:0:0:
364,272,37727,2,0,P|408:288|448:292,1,75,2|4,0:1|1:0,0:0:0:0:
344,360,38070,2,0,P|300:376|260:380,1,75,2|10,0:1|0:0,0:0:0:0:
192,336,38413,1,2,0:1:0:0:
192,336,38499,1,0,0:1:0:0:
192,336,38585,6,0,P|116:328|40:344,2,150,4|8|0,1:0|0:0|1:0,0:0:0:0:
270,289,39442,1,0,0:0:0:0:
191,245,39613,2,0,P|184:208|192:164,1,75,10|0,0:1|0:0,0:0:0:0:
252,108,39956,2,0,L|328:112,1,75,2|0,1:2|0:0,0:0:0:0:
408,68,40299,1,10,0:0:0:0:
408,68,40470,2,0,P|412:144|356:200,1,150,2|2,0:1|0:0,0:0:0:0:
276,200,40985,2,0,L|201:196,1,75,10|0,0:1|0:0,0:0:0:0:
128,248,41327,6,0,P|128:285|131:322,1,75,2|0,1:2|0:0,0:0:0:0:
204,372,41670,1,10,0:0:0:0:
204,372,41842,2,0,P|252:352|356:364,1,150,2|2,0:1|0:0,0:0:0:0:
432,324,42356,2,0,P|472:330|523:312,1,75,10|0,0:1|0:0,0:0:0:0:
512,210,42699,5,2,1:0:0:0:
428,236,42870,1,10,0:1:0:0:
352,188,43042,1,8,0:3:0:0:
268,220,43213,2,0,L|272:264,2,37.5,0|0|2,1:0|1:0|1:0,0:0:0:0:
208,152,43556,1,8,0:3:0:0:
208,152,43642,1,8,0:3:0:0:
208,152,43727,2,0,L|204:114,3,37.5,4|4|0|0,0:3|0:3|1:0|1:0,0:0:0:0:
168,88,44070,6,0,P|128:80|76:100,1,75,6|0,1:2|0:0,0:0:0:0:
56,168,44413,2,0,P|96:176|148:156,1,75,10|0,0:0|0:0,0:0:0:0:
220,180,44756,2,0,P|212:228|208:272,1,75,2|0,1:0|0:0,0:0:0:0:
288,300,45099,2,0,P|325:294|362:291,1,75,10|0,0:1|0:0,0:0:0:0:
448,260,45442,2,0,P|472:188|436:108,1,150,6|10,1:0|0:0,0:0:0:0:
372,68,45956,2,0,L|284:76,1,75,2|4,0:1|1:0,0:0:0:0:
248,152,46299,2,0,L|160:144,1,75,2|10,0:1|0:0,0:0:0:0:
104,88,46642,1,2,0:1:0:0:
48,160,46813,6,0,B|56:196|56:196|28:248|40:308,1,150,4|10,1:0|0:0,0:0:0:0:
208,372,47499,2,0,B|244:364|244:364|292:368,1,75,2|0,1:0|0:0,0:0:0:0:
372,376,47842,2,0,B|409:379|409:379|445:371,1,75,10|0,0:1|0:0,0:0:0:0:
504,300,48185,2,0,B|508:248|508:248|496:204|496:204|500:152,1,150,6|10,1:0|0:0,0:0:0:0:
444,80,48699,2,0,P|396:84|360:104,1,75,2|4,0:1|1:0,0:0:0:0:
305,34,49042,2,0,P|284:77|283:118,1,75,2|10,0:1|0:0,0:0:0:0:
320,188,49385,1,2,1:0:0:0:
320,188,49470,1,4,0:3:0:0:
320,188,49556,6,0,B|356:200|396:184|396:184|436:168|500:196,2,150,4|8|0,1:0|0:0|1:0,0:0:0:0:
228,177,50413,1,0,0:0:0:0:
170,104,50585,2,0,P|144:136|136:176,1,75,10|0,0:1|0:0,0:0:0:0:
174,252,50927,2,0,P|180:292|184:336,1,75,2|0,1:2|0:0,0:0:0:0:
268,356,51270,1,10,0:0:0:0:
268,356,51442,2,0,P|277:319|284:282,2,75,2|0|2,0:1|1:0|0:0,0:0:0:0:
384,376,51956,2,0,P|380:338|374:301,1,75,10|0,0:1|0:0,0:0:0:0:
304,212,52299,6,0,P|385:204|468:200,1,150,2|10,1:2|0:1,0:0:0:0:
512,104,52813,1,2,0:0:0:0:
512,104,52985,2,0,P|431:89|349:77,1,150,0|8,1:0|0:3,0:0:0:0:
260,124,53499,1,4,0:3:0:0:
260,124,53585,1,0,1:0:0:0:
260,124,53670,2,0,P|244:84|240:48,1,75,2|10,1:2|0:1,0:0:0:0:
128,48,54013,1,10,0:1:0:0:
128,48,54185,2,0,P|104:92|92:208,2,150,4|2|0,0:3|1:0|0:0,0:0:0:0:
240,24,55042,6,0,B|336:32,1,75,10|0,0:1|0:0,0:0:0:0:
364,108,55385,1,2,0:0:0:0:
364,108,55556,2,0,B|268:116,1,75,10|0,0:1|0:0,0:0:0:0:
232,172,55899,1,2,0:0:0:0:
232,172,55985,1,0,0:0:0:0:
232,172,56070,2,0,P|224:212|228:252,1,75,10|0,0:1|0:0,0:0:0:0:
280,312,56413,1,2,0:0:0:0:
280,312,56585,6,0,B|336:336|392:304|392:304|452:272|508:308|508:308|492:372|420:396|352:348,1,420,4|2,0:0|0:0,0:0:0:0:
328,216,58127,5,2,0:0:0:0:
356,144,59498,6,0,P|424:44|388:200,1,480,2|2,0:0|0:3,0:0:0:0:
399,207,62241,6,0,B|352:184|296:212|296:212|268:200|268:200|216:228|156:200,1,240,4|8,0:0|0:0,0:0:0:0:
108,148,63098,2,0,P|88:184|88:224,2,60,0|0|0,0:0|0:0|0:0,0:0:0:0:
180,100,63612,1,0,0:0:0:0:
348,120,63955,1,0,0:0:0:0:
328,288,64298,1,8,0:0:0:0:
160,268,64641,1,0,0:0:0:0:
180,100,64984,6,0,B|227:77|283:105|283:105|311:93|311:93|363:121|423:93,1,240,0|8,0:0|0:0,0:0:0:0:
493,95,65841,2,0,P|487:65|471:41,2,60,0|0|0,0:0|0:0|0:0,0:0:0:0:
476,196,66355,5,2,1:2:0:0:
476,196,66527,2,0,P|440:260|428:356,1,150,8|4,0:0|0:3,0:0:0:0:
406,344,66955,1,4,0:3:0:0:
388,352,67041,2,0,P|304:360|352:244,1,262.5,2|0,0:0|0:0,0:0:0:0:
368,244,67727,5,6,0:2:0:0:
380,224,68412,1,2,0:2:0:0:
392,204,69098,2,0,P|400:168|388:116,1,75,2|0,1:2|1:0,0:0:0:0:
328,72,69441,1,8,1:2:0:0:
243,99,69612,1,8,1:2:0:0:
177,38,69784,2,0,L|128:44,2,37.5,8|8|8,0:0|0:0|0:0,0:0:0:0:
243,99,70127,1,2,1:2:0:0:
224,187,70298,1,8,0:0:0:0:
224,187,70384,1,0,0:0:0:0:
224,187,70469,6,0,P|204:260|240:328,1,150,4|2,0:0|1:2,0:0:0:0:
320,348,70984,1,0,1:0:0:0:
388,296,71155,2,0,P|428:288|468:288,1,75,2|0,1:2|1:0,0:0:0:0:
512,216,71498,2,0,P|477:194|439:181,1,75,2|0,1:2|1:0,0:0:0:0:
364,212,71841,6,0,P|360:172|384:120,1,75,10|8,1:2|1:2,0:0:0:0:
348,56,72184,2,0,P|322:28|288:14,1,75,10|8,1:2|1:2,0:0:0:0:
208,48,72527,2,0,L|168:44,3,37.5,2|0|0|0,1:2|0:0|0:0|0:0,0:0:0:0:
132,64,72869,2,0,L|92:60,3,37.5,10|8|4|0,0:0|0:3|0:3|1:0,0:0:0:0:
56,80,73212,6,0,B|68:124|68:124|56:236,1,150,4|8,1:2|0:0,0:0:0:0:
172,344,73898,2,0,L|256:336,1,75,0|0,1:0|1:0,0:0:0:0:
272,252,74241,2,0,L|356:244,1,75,8|0,0:0|0:0,0:0:0:0:
408,312,74584,2,0,P|436:256|396:168,1,150,2|8,1:0|0:0,0:0:0:0:
328,136,75098,2,0,P|320:92|320:52,2,75,0|2|0,0:0|1:0|1:0,0:0:0:0:
272,208,75612,1,8,0:0:0:0:
192,164,75784,1,0,0:0:0:0:
112,204,75955,6,0,B|76:228|76:228|48:292|108:352,1,150,0|8,1:0|0:0,0:0:0:0:
248,302,76641,2,0,P|264:342|264:374,2,75,0|0|8,1:0|1:0|0:0,0:0:0:0:
208,220,77155,1,2,0:0:0:0:
208,220,77327,2,0,P|304:204|368:196,1,150,2|8,1:0|0:0,0:0:0:0:
420,132,77841,1,2,0:0:0:0:
420,132,78013,2,0,P|328:99|266:80,1,150,2|8,1:0|0:0,0:0:0:0:
200,132,78527,1,2,0:0:0:0:
200,132,78612,1,0,0:0:0:0:
200,132,78698,6,0,P|128:156|52:104,1,150,0|8,1:0|0:0,0:0:0:0:
232,44,79384,2,0,L|308:36,1,75,0|0,1:0|1:0,0:0:0:0:
400,0,79727,2,0,L|408:76,1,75,8|0,0:0|0:0,0:0:0:0:
348,148,80069,2,0,L|184:168,1,150,2|8,1:0|0:0,0:0:0:0:
124,220,80584,2,0,P|112:260|116:308,1,75,0|2,0:0|1:0,0:0:0:0:
192,340,80927,2,0,P|204:300|200:252,1,75,0|8,1:0|0:0,0:0:0:0:
264,200,81269,1,0,0:0:0:0:
264,200,81441,6,0,P|320:244|408:228,1,150,0|8,1:0|0:0,0:0:0:0:
468,73,82127,2,0,P|431:71|396:84,1,75,0|0,1:0|1:0,0:0:0:0:
308,104,82469,2,0,P|272:116|235:114,1,75,10|0,0:1|0:0,0:0:0:0:
156,72,82812,2,0,P|84:56|56:128,1,150,0|10,1:0|0:1,0:0:0:0:
72,204,83327,2,0,P|116:200|152:188,1,75,0|2,0:0|1:2,0:0:0:0:
240,176,83669,1,0,1:0:0:0:
240,176,83755,1,0,1:0:0:0:
240,176,83841,2,0,P|248:204|252:232,3,37.5,4|8|8|8,0:3|0:3|0:0|0:0,0:0:0:0:
256,256,84184,6,0,P|252:300|244:344,1,75,4|0,1:2|0:0,0:0:0:0:
164,368,84527,2,0,P|158:330|154:293,1,75,8|0,0:0|0:0,0:0:0:0:
72,256,84869,2,0,P|66:293|62:330,2,75,0|2|8,1:0|1:0|0:0,0:0:0:0:
120,180,85384,2,0,B|204:156|188:196|276:172,1,150,0|0,0:0|1:0,0:0:0:0:
332,108,85898,1,10,0:1:0:0:
332,108,86069,2,0,P|352:148|360:196,1,75,0|0,0:0|1:0,0:0:0:0:
312,256,86412,2,0,P|292:296|284:344,1,75,2|8,1:0|0:0,0:0:0:0:
364,372,86755,6,0,P|416:344|508:348,2,150,2|0|0,0:1|0:0|0:0,0:0:0:0:
285,325,87612,1,0,0:0:0:0:
208,372,87784,1,0,1:0:0:0:
128,328,87955,2,0,P|84:328|48:336,1,75,8|2,0:0|0:1,0:0:0:0:
8,256,88298,2,0,B|0:176|0:176|12:96,1,150,0|8,1:0|0:0,0:0:0:0:
80,52,88812,2,0,P|116:40|160:40,1,75,0|2,0:0|1:0,0:0:0:0:
168,128,89155,2,0,P|132:140|88:140,1,75,0|10,1:0|0:1,0:0:0:0:
10,107,89498,1,0,0:0:0:0:
10,107,89669,6,0,P|28:168|44:256,1,150,4|8,1:2|0:0,0:0:0:0:
184,376,90355,2,0,P|228:372|284:360,1,75,0|2,0:0|1:0,0:0:0:0:
292,280,90698,2,0,P|255:273|217:270,1,75,8|2,0:0|1:0,0:0:0:0:
130,298,91041,2,0,P|142:224|163:152,1,150,0|10,1:0|0:1,0:0:0:0:
216,80,91555,2,0,P|256:104|360:88,1,150,0|0,0:0|1:0,0:0:0:0:
412,24,92069,1,10,0:1:0:0:
480,82,92241,1,0,0:0:0:0:
422,150,92412,6,0,P|412:192|408:240,1,75,0|0,1:0|0:0,0:0:0:0:
484,276,92755,2,0,P|494:234|498:186,1,75,8|0,0:0|0:0,0:0:0:0:
422,150,93098,2,0,B|366:158|366:158|334:150|334:150|262:158,1,150,2|8,1:0|0:0,0:0:0:0:
184,168,93612,1,0,0:0:0:0:
239,241,93784,5,2,1:0:0:0:
186,315,93955,2,0,L|200:356,2,37.5,0|0|8,1:0|1:0|0:0,0:0:0:0:
99,287,94298,2,0,L|68:320,2,37.5,2|0|0,1:0|0:0|0:0,0:0:0:0:
98,195,94641,1,0,0:0:0:0:
184,168,94812,2,0,L|301:155,1,112.5,10|0,0:1|1:0,0:0:0:0:
336,136,95155,6,0,L|424:128,1,75,6|10,1:2|0:1,0:0:0:0:
500,120,95498,1,0,1:0:0:0:
496,144,95841,1,0,1:0:0:0:
492,168,96184,1,0,1:0:0:0:
424,228,96355,6,0,L|432:316,1,75,2|0,0:1|1:0,0:0:0:0:
400,224,96698,2,0,L|406:298,1,75,10|0,0:1|1:0,0:0:0:0:
293,123,97212,2,0,L|286:48,2,75,0|0|0,1:0|0:0|1:0,0:0:0:0:
216,180,97727,1,4,0:3:0:0:
216,180,97812,1,0,0:0:0:0:
216,180,97898,6,0,P|212:228|224:256,1,75,4|10,1:2|0:1,0:0:0:0:
296,308,98241,1,0,1:0:0:0:
288,332,98584,2,0,L|213:339,2,75,0|0|0,1:0|0:0|1:0,0:0:0:0:
388,304,99098,6,0,P|414:271|421:220,1,75,10|0,0:1|1:0,0:0:0:0:
400,328,99441,2,0,P|426:295|433:244,1,75,10|0,0:1|1:0,0:0:0:0:
416,168,99784,1,8,0:3:0:0:
400,80,99955,2,0,P|410:44|433:15,2,75,0|2|2,0:0|0:0|0:0,0:0:0:0:
332,138,100469,1,0,0:0:0:0:
244,116,100641,6,0,B|180:120|144:36|144:36|164:124|104:168|104:168|40:236|76:344|184:340|196:272|176:236|176:236|212:208|256:228|256:228|300:248|336:232,1,720
392,164,102869,2,0,L|388:124,2,30,0|0|0,1:0|1:0|1:0,1:0:0:0:
488,208,103212,1,4,1:3:0:0:
488,208,103298,1,0,1:0:0:0:
488,208,103384,6,0,L|476:308,1,75,4|0,1:2|0:0,0:0:0:0:
392,340,103727,2,0,L|380:240,1,75,0|0,1:0|1:0,0:0:0:0:
308,216,104069,1,8,1:0:0:0:
220,208,104241,1,8,1:0:0:0:
169,280,104412,1,8,1:0:0:0:
81,272,104584,1,8,1:0:0:0:
43,191,104755,6,0,P|36:152|44:104,1,75,0|8,0:0|0:3,0:0:0:0:
116,56,105098,1,8,0:0:0:0:
116,56,105269,2,0,P|153:69|190:100,1,75,4|6,0:3|1:2,0:0:0:0:
240,168,105612,2,0,L|280:160,5,37.5,8|8|4|4|0|0,0:3|0:3|0:3|0:3|1:0|1:0,0:0:0:0:
316,136,106127,6,0,L|312:228,1,75,4|0,1:2|0:0,0:0:0:0:
400,232,106469,2,0,L|404:140,1,75,10|0,0:0|0:0,0:0:0:0:
376,72,106812,2,0,P|336:52|284:56,1,75,2|0,1:1|0:0,0:0:0:0:
232,100,107155,2,0,P|192:120|140:116,1,75,10|0,0:1|0:0,0:0:0:0:
104,52,107498,2,0,L|116:216,1,150,6|10,1:0|0:0,0:0:0:0:
60,272,108012,2,0,P|45:308|51:364,1,75,2|4,0:1|1:0,0:0:0:0:
136,360,108355,2,0,P|150:323|144:267,1,75,2|10,0:1|0:0,0:0:0:0:
114,201,108698,1,2,0:1:0:0:
200,168,108869,6,0,P|240:188|352:172,1,150,4|10,1:0|0:0,0:0:0:0:
472,52,109555,2,0,P|484:92|492:136,1,75,2|0,1:0|0:0,0:0:0:0:
448,204,109898,2,0,P|436:244|428:288,1,75,10|0,0:1|0:0,0:0:0:0:
492,344,110241,2,0,P|428:368|348:324,1,150,6|10,1:0|0:0,0:0:0:0:
324,252,110755,2,0,P|331:215|342:179,1,75,2|4,0:1|1:0,0:0:0:0:
385,100,111098,2,0,P|377:63|366:27,1,75,2|10,0:1|0:0,0:0:0:0:
276,24,111441,1,2,0:1:0:0:
276,24,111527,1,0,0:0:0:0:
276,24,111612,6,0,B|204:64|120:36,2,150,4|8|0,1:0|0:0|1:0,0:0:0:0:
364,12,112469,1,0,0:0:0:0:
385,100,112641,2,0,B|393:140|393:140|389:180,1,75,10|0,0:1|0:0,0:0:0:0:
332,244,112984,2,0,P|288:240|252:240,1,75,0|0,1:0|0:0,0:0:0:0:
188,296,113327,1,10,0:0:0:0:
188,296,113498,2,0,P|168:248|216:160,1,150,2|2,0:1|0:0,0:0:0:0:
288,128,114012,2,0,P|325:128|362:132,1,75,10|0,0:1|0:0,0:0:0:0:
430,73,114355,6,0,P|450:117|450:149,1,75,0|0,1:0|0:0,0:0:0:0:
398,216,114698,1,10,0:2:0:0:
398,216,114869,2,0,B|384:260|400:292|400:292|416:324|404:364,1,150,2|2,0:1|0:0,0:0:0:0:
320,332,115384,2,0,P|284:328|244:336,1,75,10|0,0:1|0:0,0:0:0:0:
152,368,115727,6,0,P|112:352|32:332,1,112.5,4|8,1:2|0:0,0:0:0:0:
0,328,116069,2,0,P|32:296|56:264,1,75,8|4,0:3|0:3,0:0:0:0:
80,188,116412,1,2,1:2:0:0:
24,120,116584,2,0,P|16:92|16:72,5,37.5,8|8|4|4|0|0,0:3|0:3|0:3|0:3|1:0|1:0,0:0:0:0:
40,48,117098,6,0,B|80:56|80:56|124:48,1,75,4|0,1:2|0:0,0:0:0:0:
200,76,117441,2,0,B|240:68|240:68|284:76,1,75,10|0,0:0|0:0,0:0:0:0:
356,36,117784,2,0,P|364:78|348:126,1,75,2|0,1:0|0:0,0:0:0:0:
430,161,118127,2,0,P|397:188|348:199,1,75,10|0,0:1|0:0,0:0:0:0:
276,156,118469,2,0,L|288:320,1,150,6|10,1:0|0:0,0:0:0:0:
192,336,118984,2,0,L|196:256,1,75,2|4,0:1|1:0,0:0:0:0:
104,216,119327,2,0,L|108:296,1,75,2|10,0:1|0:0,0:0:0:0:
192,336,119669,1,2,0:1:0:0:
286,305,119841,6,0,B|342:301|342:301|381:313|381:313|438:310,1,150,4|10,1:0|0:0,0:0:0:0:
488,136,120527,2,0,P|496:88|488:56,1,75,2|0,1:0|0:0,0:0:0:0:
408,24,120869,2,0,P|400:72|408:104,1,75,10|0,0:1|0:0,0:0:0:0:
488,136,121212,2,0,B|432:128|432:128|328:136,1,150,2|8,1:0|0:0,0:0:0:0:
256,96,121727,2,0,P|248:64|240:0,1,75,2|8,1:0|0:3,0:0:0:0:
152,8,122069,2,0,P|129:38|110:70,1,75,2|8,1:0|0:3,0:0:0:0:
152,152,122412,1,4,0:3:0:0:
152,152,122498,1,8,0:3:0:0:
152,152,122584,6,0,P|80:184|0:164,2,150,12|10|2,0:0|0:1|1:0,0:0:0:0:
216,88,123441,1,0,0:0:0:0:
296,124,123612,2,0,P|308:160|300:204,1,75,10|0,0:1|0:0,0:0:0:0:
240,260,123955,2,0,L|152:248,1,75,2|0,1:2|0:0,0:0:0:0:
128,344,124298,1,10,0:1:0:0:
128,344,124469,2,0,L|288:336,1,150,0|0,0:0|0:0,0:0:0:0:
364,364,124984,2,0,P|368:324|352:284,1,75,10|0,0:1|0:0,0:0:0:0:
272,220,125327,6,0,P|191:212|108:208,1,150,0|10,1:0|0:1,0:0:0:0:
64,112,125841,1,2,0:0:0:0:
64,112,126013,2,0,P|145:97|227:85,1,150,2|10,1:2|0:1,0:0:0:0:
312,136,126527,1,4,0:3:0:0:
312,136,126612,1,4,0:3:0:0:
312,136,126698,2,0,P|360:140|404:140,1,75,2|0,1:0|1:0,0:0:0:0:
476,72,127041,1,10,0:1:0:0:
476,72,127212,2,0,B|492:120|492:120|480:228,2,150,8|2|0,0:3|1:0|1:2,0:0:0:0:
376,24,128069,6,0,L|296:32,1,75,10|0,0:1|0:1,0:0:0:0:
196,8,128412,1,8,0:1:0:0:
196,8,128584,2,0,L|204:88,1,75,2|4,1:0|0:3,0:0:0:0:
256,152,128927,1,8,0:1:0:0:
256,152,129012,1,8,0:0:0:0:
256,152,129099,2,0,L|248:232,1,75,2|0,1:0|0:0,0:0:0:0:
216,296,129441,1,2,1:2:0:0:
216,296,129612,6,0,B|186:280|171:255|172:224|172:224|80:124|-64:188|-64:376|80:404|168:344,1,540,6|2,1:2|0:3,0:0:0:0:
120,248,144869,6,0,B|184:208|248:248|248:248|320:288|376:248|376:248|368:200|312:184,1,359.999989013672,4|0,1:2|0:0,0:0:0:0:
319,186,147269,1,0,0:0:0:0:
319,186,147440,1,0,0:0:0:0:
243,242,147612,6,0,B|210:187|218:115|298:67|370:107|370:107|373:168|318:185,1,359.999989013672
24,48,149669,1,0,0:0:0:0:
70,214,150012,2,0,L|144:204,1,75,0|0,1:0|0:0,0:0:0:0:
172,200,150269,1,4,0:3:0:0:
200,196,150355,6,0,P|172:128|200:48,1,150,14|0,0:2|1:0,0:0:0:0:
284,56,150869,2,0,P|312:124|284:204,1,150,10|0,0:1|1:0,0:0:0:0:
246,273,151383,2,0,P|332:292|408:296,1,150,10|0,0:1|1:0,0:0:0:0:
439,172,151898,2,0,P|364:177|291:194,1,150,10|0,0:1|1:0,0:0:0:0:
192,212,152412,1,10,0:1:0:0:
116,276,152583,2,0,L|120:320,5,37.5,0|4|8|8|4|0,1:0|0:3|0:3|0:3|0:3|1:0,0:0:0:0:
144,352,153098,6,0,L|248:348,1,75,2|0,1:2|1:0,0:0:0:0:
292,296,153440,2,0,L|296:400,1,75,2|0,1:0|1:0,0:0:0:0:
372,324,153783,2,0,L|476:320,1,75,2|8,1:0|1:2,0:0:0:0:
508,256,154126,2,0,L|505:181,1,75,10|8,1:0|1:2,0:0:0:0:
432,128,154469,6,0,B|392:144|352:128|352:128|312:112|264:128,1,150,2|8,1:0|0:3,0:0:0:0:
216,57,154983,2,0,P|191:126|224:192,1,150,0|0,1:0|1:0,0:0:0:0:
304,240,155498,1,0,1:0:0:0:
325,330,155669,1,8,0:3:0:0:
325,330,155755,1,8,0:3:0:0:
325,330,155840,6,0,B|376:344|376:344|496:328,2,150,4|10|0,1:2|0:0|1:0,0:0:0:0:
236,303,156698,1,0,1:0:0:0:
168,366,156869,1,8,0:0:0:0:
168,366,157040,1,0,0:0:0:0:
79,339,157212,2,0,P|72:280|32:192,1,150,2|8,1:0|0:0,0:0:0:0:
80,120,157726,2,0,P|154:125|224:153,1,150,2|0,0:1|1:0,0:0:0:0:
280,224,158240,2,0,L|288:320,1,75,10|0,0:1|0:0,0:0:0:0:
368,336,158583,6,0,P|392:272|344:176,1,150,2|8,1:2|0:0,0:0:0:0:
288,384,159269,1,0,0:0:0:0:
288,384,159440,1,0,1:0:0:0:
208,340,159612,2,0,L|128:344,1,75,10|0,0:0|0:0,0:0:0:0:
52,304,159955,2,0,P|40:268|44:212,1,75,2|0,1:0|1:0,0:0:0:0:
84,152,160298,2,0,P|120:140|176:144,1,75,8|0,0:0|0:0,0:0:0:0:
240,168,160640,2,0,L|248:248,2,75,2|0|8,1:0|1:0|0:0,0:0:0:0:
288,92,161155,1,0,0:0:0:0:
288,92,161240,1,0,0:0:0:0:
288,92,161326,6,0,P|356:60|432:80,1,150,2|8,1:2|0:0,0:0:0:0:
512,248,162012,2,0,P|444:280|368:260,1,150,2|8,1:2|0:0,0:0:0:0:
240,168,162698,2,0,B|256:248|256:248|244:324,1,150,2|8,1:0|0:0,0:0:0:0:
68,312,163384,2,0,B|52:232|52:232|64:156,1,150,2|8,1:0|0:0,0:0:0:0:
188,92,164069,6,0,P|236:80|272:80,2,75,2|0|8,1:0|0:0|0:0,0:0:0:0:
150,176,164583,1,2,0:0:0:0:
150,176,164755,2,0,P|102:164|66:164,1,75,2|2,1:0|1:2,0:0:0:0:
4,216,165098,1,12,0:0:0:0:
32,300,165269,1,0,0:0:0:0:
32,300,165440,6,0,B|72:288|112:304|112:304|152:320|208:304,1,150,2|2,1:0|1:0,0:0:0:0:
264,272,165955,1,0,1:0:0:0:
264,272,166126,2,0,P|270:331|237:384,2,100,8|4|0,0:0|0:3|1:0,0:0:0:0:
240,232,166698,1,0,1:0:0:0:
240,232,166812,6,0,B|232:176|232:176|248:112|248:112|240:48,1,180,6|2,1:2|1:2,0:0:0:0:
164,18,167498,2,0,P|116:26|181:88,1,180,8|2,0:0|0:2,0:0:0:0:
240,54,168183,1,0,1:0:0:0:
240,54,168355,2,0,L|368:44,1,120,10|0,0:1|1:0,0:0:0:0:
428,92,168869,2,0,P|416:128|412:156,1,60,10|0,0:1|0:0,0:0:0:0:
480,200,169212,2,0,P|492:236|496:264,1,60,2|0,0:2|0:0,0:0:0:0:
424,304,169555,6,0,P|340:272|264:320,1,180,2|0,1:2|1:0,0:0:0:0:
184,304,170240,2,0,L|192:372,2,60,10|0|0,0:0|0:0|0:0,0:0:0:0:
140,232,170755,1,2,0:0:0:0:
188,164,170926,1,0,1:0:0:0:
188,164,171098,2,0,P|93:163|63:197,1,120,10|0,0:1|1:0,0:0:0:0:
60,257,171612,2,0,L|68:325,1,60,10|0,0:1|0:0,0:0:0:0:
136,368,171955,2,0,L|180:364,3,30,10|8|8|8,0:0|0:0|0:0|0:0,0:0:0:0:
204,340,172298,6,0,P|260:348|364:352,1,150,12|10,1:2|0:0,0:0:0:0:
384,131,172983,2,0,P|360:171|360:219,1,75,2|0,1:0|0:0,0:0:0:0:
420,268,173326,2,0,P|444:228|444:180,1,75,10|0,0:1|0:0,0:0:0:0:
384,131,173669,2,0,L|304:128,1,75,2|0,1:0|0:0,0:0:0:0:
252,200,174012,2,0,L|172:197,1,75,10|0,0:1|0:0,0:0:0:0:
112,136,174355,1,2,0:1:0:0:
52,200,174526,1,0,0:0:0:0:
52,200,174612,1,8,0:3:0:0:
52,200,174698,2,0,P|36:236|40:284,1,75,8|2,0:0|1:2,0:0:0:0:
108,324,175040,6,0,B|160:316|160:316|204:332|204:332|260:324,1,150,10|0,0:1|1:0,0:0:0:0:
332,372,175555,2,0,P|344:316|272:232,1,150,10|0,0:1|1:0,0:0:0:0:
220,192,176069,2,0,B|272:184|272:184|316:200|316:200|372:192,1,150,10|0,0:1|1:0,0:0:0:0:
444,240,176584,2,0,P|456:184|384:100,1,150,10|0,0:1|1:0,0:0:0:0:
320,84,177098,1,10,0:1:0:0:
232,100,177269,2,0,L|228:60,5,37.5,0|4|8|8|8|4,1:0|0:3|0:3|0:0|0:3|0:3,0:0:0:0:
200,28,177783,6,0,P|160:20|112:16,1,75,6|0,1:2|1:0,0:0:0:0:
48,64,178126,1,2,1:0:0:0:
48,64,178298,1,8,1:0:0:0:
108,132,178469,1,10,1:0:0:0:
108,132,178641,1,8,1:0:0:0:
64,212,178812,1,10,1:0:0:0:
64,212,178984,1,10,1:0:0:0:
124,280,179155,6,0,B|180:296|220:244|220:244|248:320|340:328|396:288|408:188|352:136|284:136|240:180,1,480,4|2,0:0|0:3,0:0:0:0:
68,60,186012,5,6,1:2:0:0:
76,80,186355,1,2,1:2:0:0:
192,200,186698,5,2,1:2:0:0:
200,180,187040,1,2,1:2:0:0:
316,60,187383,5,2,1:2:0:0:
324,80,187725,1,2,1:2:0:0:
440,200,188069,5,2,1:2:0:0:
448,180,188411,1,2,1:2:0:0:
316,60,188755,6,0,L|332:208,1,120,2|2,1:2|1:2,0:0:0:0:
224,236,189269,2,0,L|236:148,2,60,0|2|0,0:0|1:2|0:2,0:0:0:0:
340,260,189783,1,2,1:2:0:0:
256,344,189955,1,0,0:0:0:0:
256,344,190040,1,4,0:3:0:0:
256,344,190126,6,0,L|176:332,1,75,8|8,1:2|1:2,0:0:0:0:
36,352,190469,2,0,L|110:363,1,75,8|8,1:2|1:2,0:0:0:0:
192,256,190812,2,0,L|200:208,3,37.5,10|0|10|8,1:2|0:0|1:2|1:2,0:0:0:0:
188,176,191155,2,0,L|196:128,3,37.5,8|8|8|8,1:2|1:2|1:2|1:2,0:0:0:0:
184,96,191498,6,0,L|376:80,1,180,2|0,0:0|1:0,0:0:0:0:
400,104,192098,5,4,0:3:0:0:
400,104,192183,2,0,P|428:108|448:116,3,37.5,4|0|0|0,1:0|0:0|0:0|0:0,0:0:0:0:
472,136,192526,2,0,P|482:162|485:183,3,37.5,8|8|4|0,0:0|0:3|0:3|1:0,0:0:0:0:
480,216,192869,6,0,P|436:280|420:368,1,150,2|2,1:0|1:2,0:0:0:0:
352,288,193383,1,10,1:0:0:0:
176,360,193726,1,10,1:0:0:0:
36,248,194069,6,0,B|32:199|32:199|48:152|48:152|43:75,1,150,6|0,1:2|0:0,0:0:0:0:
104,32,194583,2,0,P|144:24|192:32,1,75,10|2,0:0|0:0,0:0:0:0:
248,88,194926,2,0,L|240:172,1,75,2|0,1:0|0:0,0:0:0:0:
332,168,195269,2,0,L|339:93,1,75,10|0,0:1|0:0,0:0:0:0:
412,40,195612,2,0,P|452:60|492:164,1,150,6|10,1:0|0:0,0:0:0:0:
460,236,196126,2,0,L|385:228,1,75,2|4,0:1|1:0,0:0:0:0:
308,272,196469,2,0,L|300:346,1,75,2|10,0:1|0:0,0:0:0:0:
212,372,196812,1,2,1:0:0:0:
212,372,196898,1,4,0:3:0:0:
212,372,196983,6,0,P|200:320|192:212,2,150,4|10|0,1:0|0:0|1:0,0:0:0:0:
299,346,197840,1,2,0:0:0:0:
384,372,198012,2,0,P|432:364|475:360,1,75,10|0,0:1|0:0,0:0:0:0:
504,284,198355,2,0,B|508:248|508:248|500:204,1,75,2|0,1:2|0:0,0:0:0:0:
444,140,198698,1,8,0:0:0:0:
444,140,198869,2,0,B|412:124|372:136|372:136|332:148|292:132,1,150,2|0,0:1|0:0,0:0:0:0:
228,75,199383,2,0,P|208:115|208:151,1,75,10|0,0:1|0:0,0:0:0:0:
244,228,199726,6,0,L|416:216,1,150,2|10,1:2|0:1,0:0:0:0:
452,312,200240,1,2,0:0:0:0:
452,312,200412,2,0,L|441:162,1,150,2|8,1:0|0:0,0:0:0:0:
392,80,200926,1,4,0:3:0:0:
392,80,201012,1,0,1:0:0:0:
392,80,201098,2,0,P|360:68|312:68,1,75,2|10,1:2|0:1,0:0:0:0:
232,108,201440,1,0,0:0:0:0:
232,108,201612,2,0,B|196:124|160:108|160:108|124:92|84:108,2,150,8|2|0,3:0|1:0|1:2,0:0:0:0:
328,188,202469,6,0,P|342:226|343:274,1,75,10|0,0:1|0:0,0:0:0:0:
320,344,202812,1,2,0:0:0:0:
320,344,202983,2,0,P|272:336|220:332,1,75,10|0,0:1|0:0,0:0:0:0:
164,344,203326,1,2,0:0:0:0:
164,344,203412,1,0,0:0:0:0:
164,344,203498,2,0,P|116:352|64:356,1,75,10|0,0:1|0:0,0:0:0:0:
12,324,203840,1,2,0:0:0:0:
12,324,204012,6,0,B|36:244|112:224|112:224|72:144|132:64,1,300,4|2,0:0|1:2,0:0:0:0:
144,52,204955,1,4,0:3:0:0:
144,52,205040,2,0,L|184:56,5,37.5,4|8|10|8|4|0,0:3|0:3|0:0|0:3|0:3|1:0,0:0:0:0:
224,56,205555,6,0,P|208:124|196:228,1,150,6|8,1:2|0:0,0:0:0:0:
256,272,206069,1,2,0:1:0:0:
316,208,206240,2,0,P|356:200|400:196,1,75,2|0,1:2|0:0,0:0:0:0:
403,298,206583,2,0,P|328:288|255:271,1,150,10|0,0:1|0:0,0:0:0:0:
164,280,207097,2,0,P|156:316|152:353,1,75,2|2,0:1|1:2,0:0:0:0:
64,372,207440,1,0,0:0:0:0:
64,372,207526,1,8,0:0:0:0:
64,372,207612,2,0,P|40:342|19:311,1,75,2|0,1:2|0:0,0:0:0:0:
24,220,207955,2,0,P|36:184|24:96,1,112.5,10|0,0:1|0:0,0:0:0:0:
8,72,208297,6,0,L|164:56,1,150,2|10,1:2|0:0,0:0:0:0:
252,104,208812,1,2,0:1:0:0:
336,40,208983,2,0,P|356:88|356:120,1,75,2|0,1:2|0:0,0:0:0:0:
299,198,209326,1,8,0:0:0:0:
403,204,209497,1,8,0:3:0:0:
403,204,209583,1,4,0:3:0:0:
403,204,209669,6,0,L|412:296,1,75,2|2,1:0|1:2,0:0:0:0:
324,340,210012,2,0,L|333:248,1,75,2|2,1:0|1:2,0:0:0:0:
288,168,210355,1,10,0:1:0:0:
208,232,210526,2,0,L|212:280,2,37.5,2|4|8,1:2|0:3|0:3,0:0:0:0:
132,160,210869,1,4,0:3:0:0:
132,160,210955,1,0,1:0:0:0:
132,160,211040,6,0,P|104:224|140:312,1,150,6|8,1:2|0:0,0:0:0:0:
216,320,211555,1,0,0:0:0:0:
300,292,211726,2,0,P|328:344|336:376,1,75,2|0,1:2|0:0,0:0:0:0:
424,368,212069,2,0,P|448:339|465:306,1,75,10|0,0:0|0:0,0:0:0:0:
432,224,212412,2,0,P|416:164|452:80,1,150,2|8,1:0|0:0,0:0:0:0:
384,20,212926,2,0,L|304:28,1,75,2|2,0:1|1:2,0:0:0:0:
260,104,213269,2,0,L|180:96,1,75,2|10,0:1|0:0,0:0:0:0:
128,28,213612,1,2,0:1:0:0:
128,28,213783,6,0,B|140:88|140:88|128:192,1,150,2|10,1:2|0:1,0:0:0:0:
120,268,214297,1,0,0:0:0:0:
204,304,214469,2,0,P|212:268|196:216,1,75,2|0,1:2|0:0,0:0:0:0:
218,141,214812,2,0,P|210:105|226:53,1,75,10|0,0:1|0:0,0:0:0:0:
300,32,215155,2,0,P|324:112|296:180,1,150,2|10,1:0|0:0,0:0:0:0:
288,260,215669,2,0,L|372:252,1,75,2|2,0:1|1:2,0:0:0:0:
404,356,216012,2,0,L|320:348,1,75,2|8,0:1|0:0,0:0:0:0:
240,344,216355,1,8,0:0:0:0:
240,344,216440,1,8,0:0:0:0:
240,344,216526,6,0,P|188:348|152:360,2,75,2|0|8,1:2|0:0|0:0,0:0:0:0:
329,348,217040,1,2,0:1:0:0:
329,348,217212,2,0,P|351:300|359:263,1,75,0|0,1:0|0:0,0:0:0:0:
320,196,217555,1,10,0:1:0:0:
320,196,217726,2,0,P|297:148|289:111,1,75,2|0,0:0|1:0,0:0:0:0:
344,52,218069,1,2,0:1:0:0:
344,52,218240,2,0,P|396:56|432:68,1,75,8|2,0:0|0:0,0:0:0:0:
456,144,218583,2,0,P|426:187|398:212,1,75,0|0,1:2|0:0,0:0:0:0:
359,276,218926,1,10,0:0:0:0:
320,196,219097,1,0,0:0:0:0:
232,220,219269,6,0,L|244:384,3,150,2|10|2|10,1:0|0:1|1:0|0:1,0:0:0:0:
160,332,220469,1,2,0:0:0:0:
160,332,220555,1,0,0:0:0:0:
160,332,220640,1,2,1:2:0:0:
92,276,220812,2,0,L|52:280,2,37.5,0|8|2,0:0|0:0|1:2,0:0:0:0:
148,208,221155,1,2,0:0:0:0:
216,264,221326,2,0,P|236:217|210:145,1,112.5,2|8,1:2|0:3,0:0:0:0:
196,124,221669,2,0,L|108:132,1,75,4|0,0:3|1:0,0:0:0:0:
276,76,222012,6,0,P|288:36|292:4,2,75,4|0|10,1:2|0:0|0:1,0:0:0:0:
277,166,222526,1,0,0:0:0:0:
277,166,222697,2,0,P|320:176|356:176,1,75,2|0,1:1|0:0,0:0:0:0:
436,208,223040,1,10,0:1:0:0:
436,208,223212,2,0,P|453:241|463:277,1,75,0|2,0:0|1:0,0:0:0:0:
416,352,223555,1,0,0:0:0:0:
416,352,223727,2,0,P|378:350|342:341,1,75,8|0,0:0|0:0,0:0:0:0:
260,316,224069,2,0,P|223:307|186:306,1,75,2|0,1:0|0:0,0:0:0:0:
100,300,224412,2,0,P|74:272|54:240,1,75,8|0,1:0|0:0,0:0:0:0:
88,128,224755,6,0,L|4:136,2,75,2|0|8,1:2|0:0|0:0,0:0:0:0:
176,140,225269,1,0,0:0:0:0:
176,140,225440,2,0,L|168:56,1,75,0|2,1:0|0:0,0:0:0:0:
260,60,225783,1,8,0:0:0:0:
260,60,225954,2,0,L|268:144,1,75,0|2,0:0|1:0,0:0:0:0:
352,100,226297,1,2,0:0:0:0:
352,100,226469,2,0,L|426:92,1,75,10|2,0:1|0:0,0:0:0:0:
472,88,226726,1,0,0:0:0:0:
472,88,226812,2,0,P|496:136|480:232,1,150,2|10,1:0|0:1,0:0:0:0:
412,288,227326,1,4,0:3:0:0:
412,288,227412,1,0,1:0:0:0:
412,288,227497,6,0,L|328:280,2,75,4|2|10,1:2|0:0|0:1,0:0:0:0:
372,368,228012,1,2,0:0:0:0:
372,368,228183,2,0,L|288:376,1,75,0|0,1:0|0:0,0:0:0:0:
252,272,228526,1,10,0:1:0:0:
252,272,228697,2,0,L|168:264,1,75,0|0,0:0|1:0,0:0:0:0:
212,352,229041,1,2,0:0:0:0:
212,352,229212,2,0,L|128:360,1,75,10|0,0:1|0:0,0:0:0:0:
92,256,229555,2,0,L|8:248,2,75,0|2|8,1:0|0:0|0:0,0:0:0:0:
144,180,230069,1,0,0:0:0:0:
255,197,230240,6,0,L|251:289,1,75,2|2,1:0|0:0,0:0:0:0:
348,316,230583,1,8,0:0:0:0:
346,213,230755,2,0,L|384:216,2,37.5,2|0|2,0:0|0:0|1:0,0:0:0:0:
489,299,231097,2,0,L|452:297,5,37.5,10|8|8|4|4|0,0:0|0:0|0:3|0:3|0:3|1:0,0:0:0:0:
416,260,231612,2,0,B|424:208|424:208|408:160|408:160|424:116|424:116|404:72|404:72|408:32,1,225,2|0,1:2|0:0,0:0:0:0:
368,24,232212,1,0,0:0:0:0:
368,24,232297,6,0,B|314:4|267:24|267:24|221:44|155:26,1,210,10|0,0:1|0:0,0:0:0:0:
120,40,232983,6,0,L|128:224,1,180,6|2,1:2|0:0,0:0:0:0:
56,280,233669,1,10,0:0:0:0:
56,280,233840,1,0,1:2:0:0:
224,352,234183,1,0,0:0:0:0:
224,352,234355,6,0,L|220:276,1,60,2|8,1:2|0:0,0:0:0:0:
296,128,234869,1,0,0:0:0:0:
296,128,235040,2,0,L|299:187,1,60,10|0,0:0|1:0,0:0:0:0:
392,344,235555,1,0,0:0:0:0:
392,344,235726,6,0,L|384:160,1,180,2|0,1:2|1:0,0:0:0:0:
456,104,236412,1,10,0:0:0:0:
456,104,236583,1,0,1:0:0:0:
292,28,236926,1,0,0:0:0:0:
292,28,237097,6,0,L|295:87,1,60,2|8,1:2|0:0,0:0:0:0:
240,156,237440,1,0,0:0:0:0:
313,216,237612,1,0,0:0:0:0:
313,216,237697,1,0,0:0:0:0:
313,216,237783,2,0,P|352:200|320:304,1,240,10|2,0:0|0:3,0:0:0:0:
336,311,239840,5,2,0:0:0:0:
336,311,241040,1,2,1:2:0:0:
336,311,241126,1,0,1:0:0:0:
336,311,241212,6,0,L|256:308,1,75,6|0,1:2|1:0,0:0:0:0:
196,216,241555,2,0,L|276:213,1,75,2|0,1:2|0:0,0:0:0:0:
336,121,241897,2,0,L|256:118,1,75,2|0,1:2|1:0,0:0:0:0:
196,26,242240,2,0,L|276:23,1,75,2|8,1:2|1:0,0:0:0:0:
336,121,242583,5,10,1:2:0:0:
336,121,242755,1,8,1:0:0:0:
270,213,242926,1,10,1:2:0:0:
270,213,243097,1,8,1:0:0:0:
362,278,243269,1,10,1:2:0:0:
362,278,243440,1,8,1:0:0:0:
428,186,243612,1,10,1:2:0:0:
428,186,243784,1,8,1:0:0:0:
158,231,244297,5,4,0:0:0:0:
256,192,244382,12,0,249439,0:0:0:0:
