osu file format v14

[General]
AudioFilename: audio.mp3
AudioLeadIn: 0
PreviewTime: 106041
Countdown: 0
SampleSet: Soft
StackLeniency: 0.6
Mode: 0
LetterboxInBreaks: 0
WidescreenStoryboard: 0

[Editor]
Bookmarks: 73212
DistanceSpacing: 0.9
BeatDivisor: 4
GridSize: 16
TimelineZoom: 1.7

[Metadata]
Title:Kiss no Hitotsu de
TitleUnicode:キスのひとつで
Artist:Sasaki Sayaka
ArtistUnicode:佐咲紗花
Creator:Left
Version:Serenade
Source:ちいさな彼女の小夜曲
Tags:chiisana kanojo no serenade ending Kalibe Akitoshi Garden Yamicchi SnowNiNo_
BeatmapID:1293772
BeatmapSetID:613158

[Difficulty]
HPDrainRate:5.5
CircleSize:4
OverallDifficulty:9
ApproachRate:9.5
SliderMultiplier:1.7
SliderTickRate:1

[Events]
//Background and Video events
0,0,"bg2.jpg",0,0
//Break Periods
2,62441,65755
2,180726,184898
//Storyboard Layer 0 (Background)
//Storyboard Layer 1 (Fail)
//Storyboard Layer 2 (Pass)
//Storyboard Layer 3 (Foreground)
//Storyboard Sound Samples

[TimingPoints]
185,342.857142857143,4,2,1,45,1,0
185,-200,4,2,1,45,0,0
11499,-142.857142857143,4,2,1,45,0,0
20756,-125,4,2,1,55,0,0
21785,-166.666666666667,4,2,1,55,0,0
22127,-111.111111111111,4,2,1,60,0,0
22813,-200,4,2,1,60,0,0
23156,-111.111111111111,4,2,1,60,0,0
26927,-83.3333333333333,4,2,1,60,0,0
27613,-200,4,2,1,45,0,0
30356,-200,4,2,1,55,0,0
30699,-200,4,2,1,60,0,0
31042,-200,4,2,1,70,0,0
31385,-200,4,2,1,80,0,0
31899,-200,4,2,1,45,0,0
32585,-200,4,2,1,65,0,0
33099,-55.5555555555556,4,2,1,78,0,1
33356,-55.5555555555556,4,2,1,5,0,1
33442,-76.9230769230769,4,2,1,78,0,1
33699,-76.9230769230769,4,2,1,5,0,1
33785,-76.9230769230769,4,2,1,78,0,1
34042,-76.9230769230769,4,2,1,5,0,1
34127,-76.9230769230769,4,2,1,78,0,1
34470,-76.9230769230769,4,2,1,78,0,1
34985,-76.9230769230769,4,2,1,78,0,1
35242,-76.9230769230769,4,2,1,78,0,1
35327,-76.9230769230769,4,2,1,78,0,1
35756,-76.9230769230769,4,2,1,5,0,1
35842,-76.9230769230769,4,2,1,78,0,1
36099,-76.9230769230769,4,2,1,5,0,1
36185,-76.9230769230769,4,2,1,78,0,1
36442,-76.9230769230769,4,2,1,5,0,1
36527,-76.9230769230769,4,2,1,78,0,1
36785,-76.9230769230769,4,2,1,5,0,1
36870,-76.9230769230769,4,2,1,78,0,1
37727,-76.9230769230769,4,2,1,78,0,1
37813,-76.9230769230769,4,2,1,5,0,1
37899,-76.9230769230769,4,2,1,78,0,1
38070,-76.9230769230769,4,2,1,78,0,1
38585,-76.9230769230769,4,2,1,78,0,1
38842,-76.9230769230769,4,2,1,5,0,1
38927,-76.9230769230769,4,2,1,78,0,1
39956,-76.9230769230769,4,2,1,78,0,1
40213,-76.9230769230769,4,2,1,5,0,1
40299,-76.9230769230769,4,2,1,78,0,1
40470,-76.9230769230769,4,2,1,78,0,1
40813,-76.9230769230769,4,2,1,78,0,1
40899,-76.9230769230769,4,2,1,5,0,1
40985,-76.9230769230769,4,2,1,78,0,1
41327,-71.4285714285714,4,2,1,78,0,1
41585,-76.9230769230769,4,2,1,5,0,1
41670,-76.9230769230769,4,2,1,78,0,1
41842,-76.9230769230769,4,2,1,78,0,1
42185,-76.9230769230769,4,2,1,78,0,1
42270,-76.9230769230769,4,2,1,5,0,1
42356,-105.263157894737,4,2,1,78,0,1
42613,-105.263157894737,4,2,1,5,0,1
42699,-62.5,4,2,1,78,0,1
42785,-62.5,4,2,1,5,0,1
42870,-62.5,4,2,1,78,0,1
42956,-62.5,4,2,1,5,0,1
43042,-62.5,4,2,1,78,0,1
44070,-55.5555555555556,4,2,1,78,0,1
44327,-55.5555555555556,4,2,1,5,0,1
44413,-76.9230769230769,4,2,1,78,0,1
44585,-76.9230769230769,4,2,1,78,0,1
44670,-76.9230769230769,4,2,1,5,0,1
44756,-76.9230769230769,4,2,1,78,0,1
45013,-76.9230769230769,4,2,1,5,0,1
45099,-76.9230769230769,4,2,1,78,0,1
45442,-76.9230769230769,4,2,1,78,0,1
45956,-76.9230769230769,4,2,1,78,0,1
46213,-76.9230769230769,4,2,1,5,0,1
46299,-76.9230769230769,4,2,1,78,0,1
46642,-76.9230769230769,4,2,1,78,0,1
46727,-76.9230769230769,4,2,1,5,0,1
46813,-76.9230769230769,4,2,1,78,0,1
47070,-76.9230769230769,4,2,1,5,0,1
47156,-76.9230769230769,4,2,1,78,0,1
47413,-76.9230769230769,4,2,1,5,0,1
47499,-76.9230769230769,4,2,1,78,0,1
47756,-76.9230769230769,4,2,1,5,0,1
47842,-76.9230769230769,4,2,1,78,0,1
48699,-76.9230769230769,4,2,1,78,0,1
48785,-76.9230769230769,4,2,1,5,0,1
48870,-76.9230769230769,4,2,1,78,0,1
49042,-76.9230769230769,4,2,1,78,0,1
49127,-76.9230769230769,4,2,1,5,0,1
49213,-76.9230769230769,4,2,1,78,0,1
49556,-76.9230769230769,4,2,1,78,0,1
50927,-76.9230769230769,4,2,1,78,0,1
51185,-76.9230769230769,4,2,1,5,0,1
51270,-76.9230769230769,4,2,1,78,0,1
51442,-76.9230769230769,4,2,1,78,0,1
51527,-76.9230769230769,4,2,1,5,0,1
51613,-76.9230769230769,4,2,1,78,0,1
51870,-76.9230769230769,4,2,1,5,0,1
51956,-76.9230769230769,4,2,1,78,0,1
52299,-58.8235294117647,4,2,1,78,0,1
52556,-58.8235294117647,4,2,1,5,0,1
52642,-133.333333333333,4,2,1,78,0,1
52727,-133.333333333333,4,2,1,5,0,1
52813,-133.333333333333,4,2,1,78,0,1
52899,-133.333333333333,4,2,1,5,0,1
52985,-52.6315789473684,4,2,1,78,0,1
53242,-52.6315789473684,4,2,1,5,0,1
53327,-133.333333333333,4,2,1,78,0,1
54356,-133.333333333333,4,2,1,78,0,1
55042,-66.6666666666667,4,2,1,73,0,1
55385,-66.6666666666667,4,2,1,60,0,1
55899,-66.6666666666667,4,2,1,48,0,1
56413,-66.6666666666667,4,2,1,35,0,1
56585,-66.6666666666667,4,2,1,35,0,0
58127,342.857142857143,4,2,1,45,1,0
58127,-400,4,2,1,45,0,0
66355,-200,4,2,1,65,0,0
67041,-200,4,2,1,65,0,0
67469,-76.9230769230769,4,2,1,5,0,0
67555,-50,4,2,1,65,0,0
69784,-95.2380952380952,4,2,1,65,0,0
71155,-95.2380952380952,4,2,1,68,0,0
71498,-95.2380952380952,4,2,1,71,0,0
71841,-95.2380952380952,4,2,1,74,0,0
73212,-95.2380952380952,4,2,1,65,0,0
77755,-95.2380952380952,4,2,1,5,0,0
77841,-95.2380952380952,4,2,1,65,0,0
78441,-95.2380952380952,4,2,1,5,0,0
78527,-95.2380952380952,4,2,1,65,0,0
82555,-95.2380952380952,4,2,1,5,0,0
82641,-95.2380952380952,4,2,1,65,0,0
82727,-95.2380952380952,4,2,1,5,0,0
82812,-95.2380952380952,4,2,1,65,0,0
83584,-95.2380952380952,4,2,1,5,0,0
83669,-95.2380952380952,4,2,1,65,0,0
85127,-95.2380952380952,4,2,1,5,0,0
85212,-95.2380952380952,4,2,1,65,0,0
88212,-95.2380952380952,4,2,1,5,0,0
88298,-95.2380952380952,4,2,1,65,0,0
90612,-95.2380952380952,4,2,1,5,0,0
90698,-95.2380952380952,4,2,1,65,0,0
90955,-95.2380952380952,4,2,1,5,0,0
91041,-95.2380952380952,4,2,1,65,0,0
93184,-95.2380952380952,4,2,1,5,0,0
93269,-95.2380952380952,4,2,1,65,0,0
93355,-95.2380952380952,4,2,1,5,0,0
93441,-95.2380952380952,4,2,1,65,0,0
95155,-105.263157894737,4,2,1,70,0,0
100641,-200,4,2,1,45,0,0
103384,-105.263157894737,4,2,1,55,0,0
103641,-105.263157894737,4,2,1,5,0,0
103727,-105.263157894737,4,2,1,55,0,0
104069,-105.263157894737,4,2,1,65,0,0
104412,-105.263157894737,4,2,1,78,0,0
104755,-76.9230769230769,4,2,1,78,0,0
105012,-76.9230769230769,4,2,1,5,0,0
105098,-76.9230769230769,4,2,1,78,0,0
105355,-76.9230769230769,4,2,1,5,0,0
105441,-76.9230769230769,4,2,1,78,0,0
105527,-76.9230769230769,4,2,1,5,0,0
105612,-76.9230769230769,4,2,1,78,0,0
106127,-55.5555555555556,4,2,1,78,0,1
106384,-55.5555555555556,4,2,1,5,0,1
106469,-76.9230769230769,4,2,1,78,0,1
106641,-76.9230769230769,4,2,1,78,0,1
106727,-76.9230769230769,4,2,1,5,0,1
106812,-76.9230769230769,4,2,1,78,0,1
107069,-76.9230769230769,4,2,1,5,0,1
107155,-76.9230769230769,4,2,1,78,0,1
108012,-76.9230769230769,4,2,1,78,0,1
108269,-76.9230769230769,4,2,1,5,0,1
108355,-76.9230769230769,4,2,1,78,0,1
108784,-76.9230769230769,4,2,1,5,0,1
108869,-76.9230769230769,4,2,1,78,0,1
109127,-76.9230769230769,4,2,1,5,0,1
109212,-76.9230769230769,4,2,1,78,0,1
109469,-76.9230769230769,4,2,1,5,0,1
109555,-76.9230769230769,4,2,1,78,0,1
109812,-76.9230769230769,4,2,1,5,0,1
109898,-76.9230769230769,4,2,1,78,0,1
110755,-76.9230769230769,4,2,1,78,0,1
110841,-76.9230769230769,4,2,1,5,0,1
110927,-76.9230769230769,4,2,1,78,0,1
111098,-76.9230769230769,4,2,1,78,0,1
111612,-76.9230769230769,4,2,1,78,0,1
111869,-76.9230769230769,4,2,1,5,0,1
111955,-76.9230769230769,4,2,1,78,0,1
112984,-76.9230769230769,4,2,1,78,0,1
113241,-76.9230769230769,4,2,1,5,0,1
113327,-76.9230769230769,4,2,1,78,0,1
113498,-76.9230769230769,4,2,1,78,0,1
113927,-76.9230769230769,4,2,1,5,0,1
114012,-76.9230769230769,4,2,1,78,0,1
114355,-76.9230769230769,4,2,1,78,0,1
114612,-76.9230769230769,4,2,1,5,0,1
114698,-76.9230769230769,4,2,1,78,0,1
114869,-76.9230769230769,4,2,1,78,0,1
115298,-76.9230769230769,4,2,1,5,0,1
115384,-105.263157894737,4,2,1,78,0,1
115641,-105.263157894737,4,2,1,5,0,1
115727,-58.8235294117647,4,2,1,78,0,1
116155,-58.8235294117647,4,2,1,5,0,1
116241,-58.8235294117647,4,2,1,78,0,1
116327,-58.8235294117647,4,2,1,5,0,1
116412,-133.333333333333,4,2,1,78,0,1
116498,-58.8235294117647,4,2,1,5,0,1
116584,-58.8235294117647,4,2,1,78,0,1
117098,-55.5555555555556,4,2,1,78,0,1
117355,-55.5555555555556,4,2,1,5,0,1
117441,-76.9230769230769,4,2,1,78,0,1
117612,-76.9230769230769,4,2,1,78,0,1
117698,-76.9230769230769,4,2,1,5,0,1
117784,-76.9230769230769,4,2,1,78,0,1
118041,-76.9230769230769,4,2,1,5,0,1
118127,-76.9230769230769,4,2,1,78,0,1
118984,-76.9230769230769,4,2,1,78,0,1
119241,-76.9230769230769,4,2,1,5,0,1
119327,-76.9230769230769,4,2,1,78,0,1
119755,-76.9230769230769,4,2,1,5,0,1
119841,-76.9230769230769,4,2,1,78,0,1
120098,-76.9230769230769,4,2,1,5,0,1
120184,-76.9230769230769,4,2,1,78,0,1
120441,-76.9230769230769,4,2,1,5,0,1
120527,-76.9230769230769,4,2,1,78,0,1
120784,-76.9230769230769,4,2,1,5,0,1
120869,-76.9230769230769,4,2,1,78,0,1
121212,-76.9230769230769,4,2,1,78,0,1
122584,-86.9565217391304,4,2,1,78,0,1
123955,-76.9230769230769,4,2,1,78,0,1
124212,-76.9230769230769,4,2,1,5,0,1
124298,-76.9230769230769,4,2,1,78,0,1
125327,-58.8235294117647,4,2,1,78,0,1
125584,-58.8235294117647,4,2,1,5,0,1
125669,-133.333333333333,4,2,1,78,0,1
125755,-133.333333333333,4,2,1,5,0,1
125841,-133.333333333333,4,2,1,78,0,1
125927,-133.333333333333,4,2,1,5,0,1
126012,-50,4,2,1,78,0,1
126698,-71.4285714285714,4,2,1,78,0,1
126784,-71.4285714285714,4,2,1,5,0,1
126869,-71.4285714285714,4,2,1,78,0,1
126955,-71.4285714285714,4,2,1,5,0,1
127041,-71.4285714285714,4,2,1,78,0,1
127127,-71.4285714285714,4,2,1,5,0,1
127212,-71.4285714285714,4,2,1,78,0,1
128069,-71.4285714285714,4,2,1,73,0,1
128412,-71.4285714285714,4,2,1,60,0,1
128927,-71.4285714285714,4,2,1,35,0,1
129441,-71.4285714285714,4,2,1,35,0,1
129612,-71.4285714285714,4,2,1,35,0,0
131155,-71.4285714285714,4,2,1,35,0,0
133898,342.857142857143,4,2,1,45,1,0
133898,-200,4,2,1,45,0,0
144869,-300,4,2,1,38,0,0
150012,-133.333333333333,4,2,1,45,0,0
150355,-83.3333333333333,4,2,1,55,0,0
150440,-83.3333333333333,4,2,1,5,0,0
150526,-83.3333333333333,4,2,1,55,0,0
150869,-83.3333333333333,4,2,1,60,0,0
150955,-83.3333333333333,4,2,1,5,0,0
151040,-83.3333333333333,4,2,1,60,0,0
151383,-83.3333333333333,4,2,1,65,0,0
151469,-83.3333333333333,4,2,1,5,0,0
151555,-83.3333333333333,4,2,1,65,0,0
151898,-83.3333333333333,4,2,1,70,0,0
151983,-83.3333333333333,4,2,1,5,0,0
152069,-83.3333333333333,4,2,1,70,0,0
152412,-83.3333333333333,4,2,1,75,0,0
152498,-83.3333333333333,4,2,1,5,0,0
152583,-83.3333333333333,4,2,1,75,0,0
153098,-83.3333333333333,4,2,1,65,0,0
153440,-83.3333333333333,4,2,1,70,0,0
153783,-83.3333333333333,4,2,1,75,0,0
154126,-83.3333333333333,4,2,1,80,0,0
155840,-66.6666666666667,4,2,1,73,0,0
156098,-66.6666666666667,4,2,1,5,0,0
156183,-90.9090909090909,4,2,1,73,0,0
156355,-90.9090909090909,4,2,1,73,0,0
157212,-142.857142857143,4,2,1,73,0,0
158240,-90.9090909090909,4,2,1,73,0,0
163383,-66.6666666666667,4,2,1,73,0,0
164069,-52.6315789473684,4,2,1,73,0,0
164583,-90.9090909090909,4,2,1,73,0,0
164840,-90.9090909090909,4,2,1,5,0,0
164926,-90.9090909090909,4,2,1,73,0,0
165012,-90.9090909090909,4,2,1,5,0,0
165098,-58.8235294117647,4,2,1,73,0,0
165440,-111.111111111111,4,2,1,73,0,0
165526,-111.111111111111,4,2,1,5,0,0
165612,-111.111111111111,4,2,1,73,0,0
165698,-111.111111111111,4,2,1,5,0,0
165783,-111.111111111111,4,2,1,73,0,0
171869,-111.111111111111,4,2,1,5,0,0
171955,-90.9090909090909,4,2,1,73,0,0
173326,-76.9230769230769,4,2,1,73,0,0
173669,-62.5,4,2,1,73,0,0
174012,-52.6315789473684,4,2,1,73,0,0
174355,-50,4,2,1,73,0,0
174955,-50,4,2,1,5,0,0
175040,-50,4,2,1,80,0,1
177783,-50,4,2,1,87,0,1
178812,-50,4,2,1,90,0,1
178898,-50,4,2,1,5,0,1
178983,-50,4,2,1,90,0,1
179069,-50,4,2,1,5,0,1
179155,-200,4,2,1,90,0,1
179498,-200,4,2,1,77,0,1
179840,-200,4,2,1,74,0,1
180183,-200,4,2,1,70,0,1
180526,-200,4,2,1,60,0,0
185498,-133.333333333333,4,2,1,55,0,0
185926,-133.333333333333,4,2,1,5,0,0
186012,-111.111111111111,4,2,1,60,0,0
186698,-83.3333333333333,4,2,1,60,0,0
186955,-83.3333333333333,4,2,1,5,0,0
187040,-111.111111111111,4,2,1,60,0,0
187383,-66.6666666666667,4,2,1,60,0,0
187640,-66.6666666666667,4,2,1,5,0,0
187726,-111.111111111111,4,2,1,60,0,0
188069,-55.5555555555556,4,2,1,60,0,0
188326,-55.5555555555556,4,2,1,5,0,0
188412,-111.111111111111,4,2,1,60,0,0
190126,-111.111111111111,4,2,1,78,0,1
190469,-111.111111111111,4,2,1,85,0,1
190812,-66.6666666666667,4,2,1,90,0,1
190898,-66.6666666666667,4,2,1,5,0,1
190983,-66.6666666666667,4,2,1,90,0,1
191498,-600,4,2,1,35,0,0
191926,-600,4,2,1,5,0,0
192012,-83.3333333333333,4,2,1,78,0,0
192183,-57.1428571428571,4,2,1,78,0,1
192440,-57.1428571428571,4,2,1,5,0,1
192526,-57.1428571428571,4,2,1,78,0,1
192869,-54.054054054054,4,2,1,78,0,1
193383,-62.5,4,2,1,83,0,1
193469,-62.5,4,2,1,5,0,1
193726,-62.5,4,2,1,83,0,0
193812,-62.5,4,2,1,5,0,0
194069,-50,4,2,1,80,0,1
194326,-50,4,2,1,5,0,1
194412,-50,4,2,1,80,0,1
194583,-76.9230769230769,4,2,1,80,0,1
194840,-76.9230769230769,4,2,1,5,0,1
194926,-76.9230769230769,4,2,1,80,0,1
195183,-76.9230769230769,4,2,1,5,0,1
195269,-76.9230769230769,4,2,1,80,0,1
196126,-76.9230769230769,4,2,1,80,0,1
196383,-76.9230769230769,4,2,1,5,0,1
196469,-76.9230769230769,4,2,1,80,0,1
196983,-76.9230769230769,4,2,1,80,0,1
198355,-76.9230769230769,4,2,1,80,0,1
198612,-76.9230769230769,4,2,1,5,0,1
198698,-76.9230769230769,4,2,1,80,0,1
199298,-76.9230769230769,4,2,1,5,0,1
199383,-76.9230769230769,4,2,1,80,0,1
199726,-58.8235294117647,4,2,1,80,0,1
199983,-58.8235294117647,4,2,1,5,0,1
200069,-133.333333333333,4,2,1,80,0,1
200155,-133.333333333333,4,2,1,5,0,1
200240,-133.333333333333,4,2,1,80,0,1
200326,-133.333333333333,4,2,1,5,0,1
200412,-50,4,2,1,80,0,1
200583,-133.333333333333,4,2,1,80,0,1
200669,-133.333333333333,4,2,1,5,0,1
200755,-133.333333333333,4,2,1,80,0,1
201783,-133.333333333333,4,2,1,80,0,1
202469,-66.6666666666667,4,2,1,75,0,1
202812,-66.6666666666667,4,2,1,63,0,1
203326,-66.6666666666667,4,2,1,40,0,1
204012,-166.666666666667,4,2,1,40,0,0
204869,-166.666666666667,4,2,1,55,0,0
205555,342.857142857143,4,2,1,68,1,0
205555,-95.2380952380952,4,2,1,68,0,0
206155,-95.2380952380952,4,2,1,5,0,0
206240,-95.2380952380952,4,2,1,68,0,0
206669,-95.2380952380952,4,2,1,5,0,0
206755,-95.2380952380952,4,2,1,68,0,0
207183,-95.2380952380952,4,2,1,5,0,0
207269,-95.2380952380952,4,2,1,68,0,0
208040,-95.2380952380952,4,2,1,5,0,0
208126,-95.2380952380952,4,2,1,68,0,0
208297,-83.3333333333333,4,2,1,68,0,0
208897,-83.3333333333333,4,2,1,5,0,0
208983,-83.3333333333333,4,2,1,68,0,0
209497,-83.3333333333333,4,2,1,70,0,0
209755,-83.3333333333333,4,2,1,5,0,0
209840,-83.3333333333333,4,2,1,70,0,0
209926,-83.3333333333333,4,2,1,5,0,0
210012,-83.3333333333333,4,2,1,70,0,0
210097,-83.3333333333333,4,2,1,5,0,0
210183,-83.3333333333333,4,2,1,70,0,0
210269,-83.3333333333333,4,2,1,5,0,0
210355,-83.3333333333333,4,2,1,70,0,0
210440,-83.3333333333333,4,2,1,5,0,0
210526,-83.3333333333333,4,2,1,70,0,0
211040,-89.2857142857143,4,2,1,70,0,0
213183,-89.2857142857143,4,2,1,5,0,0
213269,-89.2857142857143,4,2,1,70,0,0
213355,-89.2857142857143,4,2,1,5,0,0
213440,-89.2857142857143,4,2,1,70,0,0
214212,-89.2857142857143,4,2,1,5,0,0
214297,-89.2857142857143,4,2,1,70,0,0
214383,-89.2857142857143,4,2,1,5,0,0
214469,-89.2857142857143,4,2,1,70,0,0
217640,-89.2857142857143,4,2,1,5,0,0
217726,-89.2857142857143,4,2,1,70,0,0
217812,-89.2857142857143,4,2,1,5,0,0
217897,-89.2857142857143,4,2,1,70,0,0
219612,-100,4,2,1,65,0,0
219955,-113.636363636364,4,2,1,60,0,0
220297,-131.578947368421,4,2,1,55,0,0
220640,-89.2857142857143,4,2,1,70,0,0
221069,-89.2857142857143,4,2,1,5,0,0
221155,-89.2857142857143,4,2,1,70,0,0
221240,-89.2857142857143,4,2,1,5,0,0
221326,-89.2857142857143,4,2,1,70,0,0
221412,-89.2857142857143,4,2,1,5,0,0
221497,-89.2857142857143,4,2,1,70,0,0
222269,-89.2857142857143,4,2,1,5,0,0
222355,-89.2857142857143,4,2,1,70,0,0
226297,-76.9230769230769,4,2,1,70,0,0
226640,-67.5675675675676,4,2,1,70,0,0
226983,-60.2409638554217,4,2,1,70,0,0
227326,-89.2857142857143,4,2,1,70,0,0
227926,-89.2857142857143,4,2,1,5,0,0
228012,-89.2857142857143,4,2,1,70,0,0
232983,-111.111111111111,4,2,1,65,0,0
236412,-83.3333333333333,4,2,1,65,0,0
237097,-66.6666666666667,4,2,1,65,0,0
237783,-60.6060606060606,4,2,1,65,0,0
238469,-60.6060606060606,4,2,1,55,0,0
239840,-60.6060606060606,4,2,1,38,0,0
241040,-60.6060606060606,4,2,1,55,0,0
241555,-60.6060606060606,4,2,1,60,0,0
241897,-60.6060606060606,4,2,1,65,0,0
242240,-60.6060606060606,4,2,1,70,0,0
242583,-60.6060606060606,4,2,1,75,0,0
242926,-60.6060606060606,4,2,1,80,0,0
243269,-60.6060606060606,4,2,1,85,0,0
243612,-60.6060606060606,4,2,1,90,0,0
244297,342.857142857143,4,2,1,80,1,0
244297,-200,4,2,1,80,0,0
247039,-200,4,2,1,70,0,0
247382,-200,4,2,1,60,0,0
247725,-200,4,2,1,50,0,0
248068,-200,4,2,1,40,0,0
248411,-200,4,2,1,30,0,0
248754,-200,4,2,1,20,0,0
249097,-200,4,2,1,10,0,0
249439,-200,4,2,1,5,0,0

[Colours]
Combo1 : 66,66,255
Combo2 : 255,244,208
Combo3 : 190,234,254
Combo4 : 255,108,38
Combo5 : 255,226,26
Combo6 : 74,165,255

[HitObjects]
223,132,185,5,2,0:3:0:0:
223,132,870,1,2,0:0:0:0:
287,183,1042,2,0,L|277:239,1,42.5,2|0,0:0|0:0,0:0:0:0:
163,281,1385,1,2,0:0:0:0:
221,335,1556,2,0,L|198:195,1,127.5,2|0,0:0|0:0,0:0:0:0:
279,224,2242,2,0,L|297:89,1,127.5,2|0,0:0|0:0,0:0:0:0:
215,116,2927,1,2,0:0:0:0:
215,116,3442,5,0,0:0:0:0:
285,56,3613,2,0,L|298:110,1,42.5,2|0,0:0|0:0,0:0:0:0:
426,224,3956,2,0,L|432:171,1,42.5,2|0,0:0|0:0,0:0:0:0:
458,102,4299,2,0,P|410:154|358:139,1,127.5,2|0,0:0|0:0,0:0:0:0:
277,105,4985,2,0,L|297:234,1,127.5,2|0,0:0|0:0,0:0:0:0:
373,250,5670,1,2,0:0:0:0:
373,250,6185,69,0,0:0:0:0:
241,289,6356,1,2,0:0:0:0:
241,289,6527,2,0,L|188:279,1,42.5,2|0,0:0|0:0,0:0:0:0:
294,225,6870,5,2,0:0:0:0:
142,334,7042,2,0,L|10:348,1,127.5,2|0,0:0|0:0,0:0:0:0:
83,213,7727,2,0,P|163:225|181:264,1,127.5,2|0,0:0|0:0,0:0:0:0:
142,334,8413,1,2,0:0:0:0:
142,334,8927,69,0,0:0:0:0:
97,266,9099,2,0,L|105:225,2,42.5,2|2|0,0:0|0:0|0:0,0:0:0:0:
142,334,9613,1,0,0:0:0:0:
68,150,9785,2,0,P|103:215|190:181,2,170,2|2|4,0:0|0:0|0:0,0:0:0:0:
68,150,11499,6,0,L|142:141,1,59.4999981842042,2|0,0:0|0:0,0:0:0:0:
149,65,11842,1,2,0:0:0:0:
200,181,12013,2,0,L|210:115,1,59.4999981842042,2|0,0:0|0:0,0:0:0:0:
149,65,12356,1,0,0:0:0:0:
200,181,12527,70,0,L|331:170,1,118.999996368408,2|0,0:0|0:0,0:0:0:0:
318,171,13042,1,0,0:0:0:0:
265,227,13213,2,0,L|405:216,1,118.999996368408,2|0,0:0|0:0,0:0:0:0:
383,217,13727,1,0,0:0:0:0:
329,273,13899,1,2,0:0:0:0:
329,273,14242,6,0,L|343:351,1,59.4999981842042,2|0,0:0|0:0,0:0:0:0:
179,331,14585,1,2,0:0:0:0:
247,379,14756,2,0,L|259:316,1,59.4999981842042,2|0,0:0|0:0,0:0:0:0:
281,203,15099,1,0,0:0:0:0:
179,331,15270,70,0,P|124:340|68:286,1,118.999996368408,2|0,0:0|0:0,0:0:0:0:
182,196,15785,1,0,0:0:0:0:
142,261,15956,2,0,P|105:217|122:148,1,118.999996368408,2|0,0:0|0:0,0:0:0:0:
261,189,16470,1,0,0:0:0:0:
182,196,16642,1,2,0:0:0:0:
182,196,16985,6,0,L|172:117,1,59.4999981842042,2|0,0:0|0:0,0:0:0:0:
158,36,17327,1,2,0:0:0:0:
106,96,17499,2,0,L|27:85,1,59.4999981842042,2|0,0:0|0:0,0:0:0:0:
132,171,17842,69,0,0:0:0:0:
186,113,18013,2,0,L|312:101,1,118.999996368408,2|0,0:0|0:0,0:0:0:0:
253,156,18527,1,0,0:0:0:0:
253,156,18699,2,0,B|383:144,1,118.999996368408,2|0,0:0|0:0,0:0:0:0:
319,201,19213,1,0,0:0:0:0:
319,201,19385,1,2,0:0:0:0:
464,310,19899,5,0,0:0:0:0:
376,295,20070,1,2,0:0:0:0:
380,324,20413,69,2,0:0:0:0:
459,283,20585,2,0,L|453:229,1,29.7499990921021
325,93,20756,53,2,1:2:0:0:
480,138,20927,1,10,0:0:0:0:
408,184,21270,6,0,B|370:199|337:178|337:178|306:160|266:178,1,136,2|0,0:0|0:0,0:0:0:0:
277,173,21785,2,0,L|270:238,1,50.9999984436036,2|0,0:0|0:0,0:0:0:0:
80,32,22127,69,4,1:2:0:0:
139,158,22299,1,2,0:0:0:0:
139,158,22385,1,0,0:0:0:0:
139,158,22470,2,0,L|152:53,1,76.4999976654053,0|0,1:0|0:0,0:0:0:0:
139,158,22813,6,0,L|128:249,1,85,2|0,1:2|1:0,0:0:0:0:
30,328,23327,69,0,0:0:0:0:
45,317,23413,1,0,0:0:0:0:
64,313,23499,1,2,1:2:0:0:
151,364,23670,1,0,0:0:0:0:
217,302,23842,5,2,1:2:0:0:
288,330,24013,1,0,0:0:0:0:
330,294,24185,69,2,1:2:0:0:
361,308,24356,1,0,0:0:0:0:
361,308,24527,6,0,P|375:266|359:212,1,76.4999976654053,2|0,1:2|0:0,0:0:0:0:
320,135,24785,1,0,0:0:0:0:
320,135,24870,2,0,B|297:165|297:165|318:170|347:158|347:158|394:145|423:178,1,152.999995330811,2|0,1:2|1:0,0:0:0:0:
224,197,25385,69,0,0:0:0:0:
217,177,25470,1,0,0:0:0:0:
218,159,25556,1,2,1:2:0:0:
114,180,25727,5,0,0:0:0:0:
121,147,25812,1,0,0:0:0:0:
145,121,25898,1,2,1:2:0:0:
28,81,26070,69,0,0:0:0:0:
62,44,26155,1,0,0:0:0:0:
110,46,26242,5,2,1:2:0:0:
145,121,26413,1,0,0:0:0:0:
218,159,26585,1,0,1:0:0:0:
311,101,26756,69,0,0:0:0:0:
337,106,26842,1,0,0:0:0:0:
357,117,26927,2,0,B|364:40|364:40|353:57|321:74,1,101.999996887207,2|0,1:2|0:0,0:0:0:0:
300,182,27185,5,8,0:3:0:0:
301,195,27270,1,8,0:3:0:0:
303,208,27356,1,8,0:3:0:0:
305,222,27442,1,4,0:3:0:0:
307,235,27527,1,4,0:3:0:0:
309,249,27613,1,4,1:0:0:0:
55,33,27956,5,2,0:0:0:0:
47,73,28127,1,0,0:0:0:0:
86,180,28299,1,2,0:0:0:0:
94,141,28642,5,2,0:0:0:0:
86,180,28813,1,0,0:0:0:0:
137,280,28985,1,2,0:0:0:0:
146,238,29156,2,0,L|133:298,1,42.5,0|2,0:0|0:0,0:0:0:0:
190,345,29499,1,0,0:0:0:0:
86,180,29670,1,2,0:0:0:0:
86,180,30013,69,2,0:0:0:0:
190,345,30185,1,0,0:0:0:0:
198,319,30270,1,0,0:0:0:0:
196,291,30356,53,6,1:2:0:0:
114,304,30527,1,0,1:0:0:0:
59,224,30699,5,0,1:0:0:0:
275,266,30870,1,0,1:0:0:0:
198,319,31042,69,10,1:2:0:0:
173,100,31213,1,8,1:2:0:0:
415,69,31385,5,10,1:2:0:0:
380,345,31556,1,8,1:2:0:0:
198,319,31899,5,2,0:0:0:0:
195,305,32070,1,2,0:0:0:0:
192,290,32242,2,0,L|200:252,2,21.25,2|0|0,0:0|0:0|0:0,0:0:0:0:
143,204,32585,5,8,0:0:0:0:
182,188,32670,1,8,0:3:0:0:
223,194,32756,1,4,0:3:0:0:
260,215,32842,1,4,0:3:0:0:
302,223,32927,1,0,1:0:0:0:
341,207,33013,1,0,1:0:0:0:
295,139,33099,6,0,P|409:158|378:281,1,229.499992996216,6|0,1:2|0:0,0:0:0:0:
413,272,33442,2,0,B|295:247,1,110.499994941712,10|0,0:0|0:0,0:0:0:0:
42,339,33785,6,2,P|123:353|171:274,1,165.749992412568,2|0,1:1|0:0,0:1:0:0:
97,100,34127,2,0,P|46:95|-3:141,1,110.499994941712,10|0,0:1|0:0,0:0:0:0:
93,278,34385,1,0,0:0:0:0:
93,278,34470,70,0,L|61:155,1,110.499994941712,6|0,1:0|0:0,0:0:0:0:
26,325,34813,5,10,0:0:0:0:
147,86,34985,1,2,0:1:0:0:
147,86,35070,1,0,0:0:0:0:
147,86,35156,2,0,L|138:171,1,55.2499974708558,4|0,1:0|0:0,0:0:0:0:
130,218,35327,1,2,0:1:0:0:
68,41,35499,1,10,0:0:0:0:
257,173,35670,2,0,L|197:194,1,55.2499974708558,2|0,0:1|0:0,0:0:0:0:
73,355,35842,70,0,L|48:222,1,110.499994941712,4|0,1:0|0:0,0:0:0:0:
269,63,36185,2,0,L|256:180,1,110.499994941712,10|0,0:0|0:0,0:0:0:0:
408,318,36527,6,2,B|513:297|513:297|485:290|464:250,1,165.749992412568,2|0,1:1|0:0,0:1:0:0:
356,251,36870,2,0,P|325:305|343:368,1,110.499994941712,10|0,0:1|0:0,0:0:0:0:
417,195,37127,1,0,0:0:0:0:
417,195,37213,70,0,L|391:58,1,110.499994941712,6|0,1:0|0:0,0:0:0:0:
479,249,37556,1,10,0:0:0:0:
329,38,37727,2,0,P|317:64|322:112,1,55.2499974708558,2|0,0:1|0:0,0:0:0:0:
238,234,37899,5,4,1:0:0:0:
263,155,38070,1,2,1:0:0:0:
236,76,38242,1,8,0:0:0:0:
426,213,38413,69,8,0:3:0:0:
388,286,38499,1,4,0:3:0:0:
403,365,38585,2,0,B|371:388|318:363|318:363|266:330|213:373,1,165.749992412568,4|0,1:0|0:0,0:0:0:0:
235,369,38927,1,8,0:0:0:0:
138,232,39099,5,2,0:1:0:0:
138,232,39185,1,0,0:0:0:0:
138,232,39270,2,0,L|159:344,1,110.499994941712,0|0,1:0|0:0,0:0:0:0:
252,33,39613,2,2,L|234:157,1,110.499994941712,10|0,0:1|0:0,0:1:0:0:
236,142,39870,1,0,0:0:0:0:
236,142,39956,70,0,P|289:77|364:116,1,165.749992412568,2|0,1:2|0:0,0:0:0:0:
430,256,40299,1,10,0:0:0:0:
430,256,40470,2,0,L|418:315,2,55.2499974708558,2|0|0,0:1|0:0|1:0,0:0:0:0:
387,182,40813,1,2,0:0:0:0:
230,333,40985,2,2,L|347:320,1,110.499994941712,10|0,0:1|0:0,0:1:0:0:
339,320,41242,1,0,0:0:0:0:
339,320,41327,6,0,P|293:239|198:291,1,178.499994552612,2|0,1:2|0:0,0:0:0:0:
71,315,41670,1,10,0:0:0:0:
71,315,41842,2,0,L|88:388,2,55.2499974708558,2|0|0,0:1|0:0|1:0,0:0:0:0:
105,239,42185,1,2,0:0:0:0:
324,290,42356,70,0,P|369:254|325:223,1,121.124996765614,10|0,0:1|0:0,0:0:0:0:
324,290,42699,6,0,L|333:216,1,68,6|0,1:2|0:0,0:0:0:0:
352,41,42870,2,0,L|342:123,1,68,10|0,0:1|0:0,0:0:0:0:
385,336,43042,1,8,0:3:0:0:
339,369,43127,1,4,0:3:0:0:
299,367,43213,1,0,1:0:0:0:
275,352,43299,1,0,1:0:0:0:
263,339,43385,1,2,1:0:0:0:
257,329,43470,1,0,1:0:0:0:
324,298,43556,69,8,0:3:0:0:
284,261,43642,1,8,0:3:0:0:
230,261,43727,1,4,0:3:0:0:
190,297,43813,1,4,0:3:0:0:
148,330,43899,1,0,1:0:0:0:
94,323,43985,1,0,1:0:0:0:
64,278,44070,6,0,B|75:208|75:208|64:163|64:163|74:92|74:92|118:173,1,229.499992996216,6|0,1:2|0:0,0:0:0:0:
88,141,44413,2,0,P|137:179|205:151,1,110.499994941712,10|0,0:0|0:0,0:0:0:0:
310,51,44756,70,2,P|259:104|292:194,1,165.749992412568,2|0,1:1|0:0,0:1:0:0:
488,218,45099,2,0,P|518:177|505:114,1,110.499994941712,10|0,0:1|0:0,0:0:0:0:
335,127,45356,1,0,0:0:0:0:
335,127,45442,6,0,L|472:167,1,110.499994941712,6|0,1:0|0:0,0:0:0:0:
373,346,45785,1,10,0:0:0:0:
344,214,45956,1,2,0:1:0:0:
344,214,46042,1,0,0:0:0:0:
344,214,46127,2,0,L|359:294,1,55.2499974708558,4|0,1:0|0:0,0:0:0:0:
294,366,46299,1,2,0:1:0:0:
431,287,46470,1,10,0:0:0:0:
260,143,46642,2,0,L|271:53,1,55.2499974708558,2|0,0:1|0:0,0:0:0:0:
343,50,46813,70,0,B|350:112|350:112|337:156|337:156|345:223,1,165.749992412568,4|0,1:0|0:0,0:0:0:0:
337,228,47156,2,0,P|403:225|429:153,1,110.499994941712,10|0,0:0|0:0,0:0:0:0:
226,339,47499,6,2,P|209:301|81:316,1,165.749992412568,2|0,1:1|0:0,0:1:0:0:
0,221,47842,2,0,P|53:224|93:188,1,110.499994941712,10|0,0:1|0:0,0:0:0:0:
157,84,48099,1,0,0:0:0:0:
157,84,48185,70,0,L|175:200,1,110.499994941712,6|0,1:0|0:0,0:0:0:0:
329,142,48527,1,10,0:0:0:0:
228,302,48699,6,0,L|239:232,1,55.2499974708558,2|0,0:1|0:0,0:0:0:0:
252,170,48870,1,2,1:2:0:0:
306,337,49042,70,0,L|317:267,1,55.2499974708558,2|0,0:1|0:0,0:0:0:0:
329,142,49213,1,10,0:0:0:0:
382,368,49385,6,0,L|394:293,1,55.2499974708558,2|4,1:0|0:3,0:0:0:0:
412,115,49556,69,4,1:0:0:0:
252,170,49727,1,0,0:0:0:0:
107,221,49899,1,8,0:0:0:0:
330,182,50070,5,2,0:1:0:0:
252,170,50242,1,0,1:0:0:0:
174,161,50413,1,0,0:0:0:0:
209,334,50585,70,2,B|250:330|250:330|278:336|278:336|325:329,1,110.499994941712,10|0,0:1|0:0,0:1:0:0:
309,207,50842,1,0,0:0:0:0:
309,207,50927,6,0,P|234:188|189:280,1,165.749992412568,2|0,1:2|0:0,0:0:0:0:
397,313,51270,69,10,0:0:0:0:
397,313,51442,2,0,L|408:245,1,55.2499974708558,2|0,0:1|1:0,0:0:0:0:
409,237,51613,1,0,1:0:0:0:
322,281,51785,1,2,0:0:0:0:
491,235,51956,2,0,L|469:367,1,110.499994941712,10|0,0:1|0:0,0:0:0:0:
252,322,52213,1,0,0:0:0:0:
241,306,52299,6,0,B|234:226|234:226|248:172|248:172|236:64,1,216.750004134178,6|0,1:2|0:0,0:0:0:0:
239,91,52642,70,0,L|201:101,1,31.8750012159348,10|0,0:1|0:0,0:0:0:0:
101,125,52813,2,0,L|139:116,1,31.8750012159348,2|0,0:0|0:0,0:0:0:0:
428,170,52985,6,0,P|353:136|332:297,1,242.249993531227,4|0,1:2|0:0,0:0:0:0:
213,308,53327,69,8,0:3:0:0:
212,290,53413,1,4,0:3:0:0:
209,273,53499,1,4,0:3:0:0:
205,257,53585,1,0,1:0:0:0:
199,242,53670,1,2,1:2:0:0:
137,345,53842,5,10,0:1:0:0:
319,178,54013,1,10,0:1:0:0:
300,221,54098,1,8,0:3:0:0:
290,268,54185,1,4,0:3:0:0:
292,312,54270,1,0,1:0:0:0:
309,356,54356,2,0,L|358:364,1,31.8750012159348,8|0,0:0|0:0,0:0:0:0:
465,142,54527,69,4,0:3:0:0:
403,97,54613,1,8,0:3:0:0:
330,83,54698,1,8,0:3:0:0:
253,99,54784,1,8,0:0:0:0:
190,142,54869,1,8,0:0:0:0:
154,208,54955,1,8,0:0:0:0:
147,284,55042,21,12,0:0:0:0:
133,82,55213,1,0,0:0:0:0:
233,208,55385,5,2,0:0:0:0:
233,208,55470,1,0,0:0:0:0:
233,208,55556,1,12,0:0:0:0:
78,220,55727,1,0,0:0:0:0:
181,146,55899,69,2,0:0:0:0:
181,146,55984,1,0,0:0:0:0:
181,146,56070,1,12,0:0:0:0:
193,276,56242,1,0,0:0:0:0:
136,215,56413,21,2,0:0:0:0:
136,215,56585,1,4,0:0:0:0:
256,192,56670,12,2,57785,0:0:0:0:
76,123,58127,6,0,P|119:101|215:162,2,170,2|2|2,0:0|0:0|0:3,0:0:0:0:
76,123,62241,1,4,0:0:0:0:
298,71,66355,37,2,1:2:0:0:
298,71,66527,2,0,P|321:104|314:156,1,85,8|4,0:0|0:3,0:0:0:0:
211,224,66955,1,4,0:3:0:0:
211,224,67041,6,0,P|188:264|193:310,1,85,2|0,0:0|0:0,0:0:0:0:
323,301,67555,70,0,P|324:258|302:224,1,85,2|0,0:0|0:0,0:0:0:0:
214,71,67727,1,6,0:2:0:0:
214,71,68412,1,2,0:2:0:0:
218,89,69098,5,2,1:2:0:0:
214,71,69269,1,0,1:0:0:0:
234,165,69441,69,8,1:2:0:0:
214,71,69612,1,8,1:2:0:0:
257,254,69784,6,0,L|274:325,2,44.6249986381531,8|8|8,0:0|0:0|0:0,0:0:0:0:
214,71,70127,1,2,1:2:0:0:
214,71,70298,2,0,L|233:149,1,44.6249986381531,8|0,0:0|0:0,0:0:0:0:
286,370,70469,69,4,0:0:0:0:
286,370,70812,1,2,1:2:0:0:
342,312,70984,1,0,1:0:0:0:
264,291,71155,5,2,1:2:0:0:
320,233,71327,1,0,1:0:0:0:
242,216,71498,69,2,1:2:0:0:
300,156,71669,1,0,1:0:0:0:
342,312,71841,5,10,1:2:0:0:
187,274,72012,1,8,1:2:0:0:
300,156,72184,69,10,1:2:0:0:
153,116,72355,1,8,1:2:0:0:
486,165,72527,5,2,1:2:0:0:
512,109,72612,1,0,0:0:0:0:
497,62,72698,1,0,0:0:0:0:
469,40,72784,1,0,0:0:0:0:
441,32,72869,1,10,0:0:0:0:
421,33,72955,1,4,0:3:0:0:
410,37,73041,1,0,1:0:0:0:
402,41,73127,1,0,1:0:0:0:
438,108,73212,70,0,B|384:117|384:117|342:89|342:89|316:125|247:114,1,178.499994552612,4|8,1:2|0:0,0:0:0:0:
200,61,73727,2,0,P|244:35|293:47,1,89.2499972763062,0|0,0:0|1:0,0:0:0:0:
155,210,74070,1,0,1:0:0:0:
155,210,74242,2,0,P|108:214|64:182,1,89.2499972763062,8|0,0:0|0:0,0:0:0:0:
62,66,74584,5,2,1:0:0:0:
98,57,74756,1,0,1:0:0:0:
138,47,74927,2,0,P|129:94|127:142,1,89.2499972763062,8|0,0:0|0:0,0:0:0:0:
204,247,75269,69,2,1:0:0:0:
117,227,75442,1,0,1:0:0:0:
30,207,75613,2,0,P|39:255|41:302,1,89.2499972763062,8|0,0:0|0:0,0:0:0:0:
169,322,75955,6,0,B|217:342|255:315|255:315|300:270|368:314,1,178.499994552612,2|8,1:2|0:0,0:0:0:0:
409,336,76470,1,0,0:0:0:0:
479,204,76642,1,0,1:0:0:0:
325,215,76813,1,0,1:0:0:0:
401,250,76985,1,8,0:0:0:0:
417,56,77156,1,2,0:0:0:0:
417,56,77327,69,2,1:0:0:0:
345,78,77499,1,0,1:0:0:0:
273,100,77670,2,0,P|282:131|289:181,1,44.6249986381531,8|0,0:0|0:0,0:0:0:0:
178,209,77842,1,2,0:0:0:0:
178,209,78013,5,2,1:0:0:0:
302,228,78185,1,0,1:0:0:0:
429,246,78356,2,0,P|422:275|421:309,1,44.6249986381531,8|0,0:0|0:0,0:0:0:0:
254,337,78527,1,2,0:0:0:0:
254,337,78613,1,0,0:0:0:0:
254,337,78699,70,0,B|233:297|252:253|252:253|277:204|244:152,1,178.499994552612,0|8,1:0|0:0,0:0:0:0:
195,105,79213,2,0,P|154:101|113:137,1,89.2499972763062,0|0,0:0|1:0,0:0:0:0:
174,180,79556,1,0,1:0:0:0:
226,31,79727,2,0,P|268:26|310:66,1,89.2499972763062,8|0,0:0|0:0,0:0:0:0:
354,136,79985,1,0,0:0:0:0:
363,149,80070,5,2,1:0:0:0:
268,167,80242,1,0,1:0:0:0:
172,182,80413,2,0,P|183:228|186:290,1,89.2499972763062,8|0,0:0|0:0,0:0:0:0:
82,319,80670,1,0,0:0:0:0:
76,336,80755,69,2,1:0:0:0:
197,357,80927,1,0,1:0:0:0:
319,370,81099,2,0,P|306:320|305:262,1,89.2499972763062,8|0,0:0|0:0,0:0:0:0:
406,78,81442,6,0,B|431:64|450:42|450:42|435:108|434:172,1,178.499994552612,0|8,1:0|0:0,0:0:0:0:
268,185,81956,1,0,0:0:0:0:
347,152,82127,1,0,1:0:0:0:
371,324,82299,1,0,1:0:0:0:
201,276,82470,2,0,L|281:272,1,44.6249986381531,10|0,0:1|0:0,0:0:0:0:
223,187,82642,2,0,L|303:183,1,44.6249986381531
327,271,82813,69,0,1:0:0:0:
348,182,82985,1,0,1:0:0:0:
414,270,83156,2,2,L|435:168,1,89.2499972763062,10|0,0:1|0:0,0:1:0:0:
307,19,83499,2,0,P|311:47|327:87,1,44.6249986381531,2|0,1:2|0:0,0:0:0:0:
361,139,83670,1,0,1:0:0:0:
325,149,83755,1,0,1:0:0:0:
289,143,83842,1,4,0:3:0:0:
257,123,83927,1,8,0:3:0:0:
226,103,84012,1,8,0:0:0:0:
190,99,84099,1,8,0:0:0:0:
154,110,84184,6,0,B|166:138|161:170|161:170|171:199|169:229|169:229|198:217|206:170,1,178.499994552612,4|8,1:2|0:0,0:0:0:0:
93,212,84699,1,0,0:0:0:0:
238,280,84870,1,0,1:0:0:0:
171,131,85042,2,0,P|164:155|162:191,1,44.6249986381531,2|0,1:0|0:0,0:0:0:0:
168,248,85213,1,8,0:0:0:0:
241,89,85385,1,0,0:0:0:0:
92,133,85556,69,2,1:2:0:0:
92,133,85727,1,0,1:0:0:0:
161,174,85899,2,0,L|265:163,1,89.2499972763062,10|0,0:1|0:0,0:0:0:0:
249,164,86156,1,0,0:0:0:0:
249,164,86242,1,0,1:0:0:0:
314,55,86412,2,0,P|305:81|306:106,1,44.6249986381531,2|0,1:0|0:0,0:0:0:0:
331,173,86584,1,8,0:0:0:0:
393,72,86755,6,0,P|384:98|385:123,1,44.6249986381531,2|0,0:1|0:0,0:0:0:0:
408,189,86927,1,0,1:0:0:0:
314,55,87098,2,0,P|264:53|223:98,1,89.2499972763062,2|8,0:0|0:0,0:0:0:0:
234,254,87442,2,0,P|275:277|323:263,1,89.2499972763062,2|0,0:0|1:0,0:0:0:0:
240,174,87785,1,0,1:0:0:0:
171,205,87956,1,8,0:0:0:0:
226,297,88127,2,0,P|234:270|231:240,1,44.6249986381531,2|0,0:1|0:0,0:0:0:0:
180,125,88299,69,0,1:0:0:0:
180,125,88470,1,0,1:0:0:0:
109,164,88641,2,0,L|5:156,1,89.2499972763062,8|0,0:0|0:0,0:0:0:0:
20,157,88899,1,0,0:0:0:0:
20,157,88985,1,2,1:0:0:0:
110,87,89156,1,0,1:0:0:0:
179,202,89327,1,10,0:1:0:0:
110,87,89499,1,0,0:0:0:0:
211,20,89670,6,0,B|254:-16|305:2|305:2|344:43|392:29,1,178.499994552612,4|8,1:2|0:0,0:0:0:0:
361,114,90185,2,0,P|318:112|275:74,1,89.2499972763062,2|0,0:0|1:0,0:0:0:0:
436,83,90527,2,0,P|443:117|435:153,1,44.6249986381531,2|0,1:0|0:0,0:0:0:0:
415,207,90699,1,8,0:0:0:0:
389,328,90870,2,0,P|382:297|392:259,1,44.6249986381531,2|0,0:1|0:0,0:0:0:0:
415,207,91042,69,0,1:0:0:0:
415,207,91213,1,0,1:0:0:0:
344,165,91384,2,2,L|235:177,1,89.2499972763062,10|0,0:1|0:0,0:1:0:0:
255,175,91642,1,0,0:0:0:0:
255,175,91727,1,0,1:0:0:0:
241,252,91899,1,0,1:0:0:0:
310,296,92070,1,10,0:1:0:0:
372,244,92242,1,0,0:0:0:0:
266,86,92413,6,0,L|252:190,1,89.2499972763062,0|0,1:0|0:0,0:0:0:0:
229,340,92756,2,0,L|243:236,1,89.2499972763062,8|0,0:0|0:0,0:0:0:0:
340,140,93098,70,0,L|331:203,1,44.6249986381531,2|0,1:0|0:0,0:0:0:0:
312,315,93270,2,0,L|321:252,1,44.6249986381531,0|0,1:0|0:0,0:0:0:0:
415,203,93442,1,8,0:0:0:0:
401,284,93612,1,0,0:0:0:0:
487,266,93785,5,2,1:0:0:0:
487,266,93956,1,0,1:0:0:0:
487,266,94042,1,0,1:0:0:0:
487,266,94127,1,8,0:0:0:0:
333,184,94299,2,0,P|303:184|272:194,1,44.6249986381531,2|0,1:0|0:0,0:0:0:0:
188,279,94470,69,2,1:2:0:0:
234,293,94556,1,4,0:3:0:0:
274,272,94642,1,8,0:3:0:0:
147,199,94813,1,10,0:1:0:0:
170,158,94899,1,8,0:3:0:0:
212,134,94985,1,4,0:3:0:0:
260,149,95070,1,0,1:0:0:0:
288,187,95156,5,6,1:2:0:0:
497,155,95327,1,10,0:1:0:0:
288,187,95499,1,0,1:0:0:0:
269,110,95842,69,0,1:0:0:0:
249,33,96185,5,0,1:0:0:0:
456,0,96356,1,2,0:1:0:0:
477,74,96527,69,0,1:0:0:0:
269,110,96699,1,10,0:1:0:0:
288,187,96869,6,0,P|330:207|379:183,1,80.7499978437424,0|0,1:0|0:0,0:0:0:0:
442,364,97213,1,0,1:0:0:0:
403,289,97385,1,0,0:0:0:0:
382,278,97470,1,0,0:0:0:0:
357,278,97556,1,0,1:0:0:0:
295,329,97727,1,4,0:3:0:0:
364,357,97898,69,4,1:2:0:0:
386,127,98070,1,10,0:1:0:0:
364,357,98242,1,0,1:0:0:0:
283,348,98585,5,0,1:0:0:0:
364,357,98756,1,0,1:0:0:0:
283,348,98927,69,0,1:0:0:0:
303,117,99099,1,10,0:1:0:0:
226,108,99270,5,0,1:0:0:0:
204,339,99442,1,10,0:1:0:0:
146,288,99613,69,0,1:0:0:0:
279,308,99785,2,0,P|216:260|138:302,1,161.499995687485,8|2,0:3|0:0,0:0:0:0:
202,368,100298,1,2,0:0:0:0:
203,353,100470,1,0,0:0:0:0:
204,339,100641,1,2,0:0:0:0:
186,46,100985,21,2,0:0:0:0:
183,82,101156,1,0,0:0:0:0:
253,180,101327,1,2,0:0:0:0:
256,144,101670,5,2,0:0:0:0:
253,180,101841,1,0,0:0:0:0:
324,283,102013,1,0,0:0:0:0:
328,240,102185,2,0,L|322:299,1,42.5,2|0,0:0|0:0,0:0:0:0:
389,352,102527,1,2,0:0:0:0:
253,180,102699,1,8,0:0:0:0:
183,244,102869,69,0,1:0:0:0:
146,248,102956,1,4,0:3:0:0:
122,226,103042,1,8,0:3:0:0:
116,204,103127,1,8,0:3:0:0:
121,186,103213,1,4,0:3:0:0:
132,176,103299,1,0,1:0:0:0:
142,171,103384,54,0,L|131:311,1,121.124996765614,4|0,1:2|0:0,0:0:0:0:
131,312,103727,5,0,1:0:0:0:
269,284,103899,1,0,1:0:0:0:
233,359,104069,69,8,1:0:0:0:
190,146,104242,1,8,1:0:0:0:
130,206,104413,5,8,1:0:0:0:
372,154,104584,2,0,P|395:158|434:177,2,40.3749989218712,8|0|0,1:0|0:0|0:0,0:0:0:0:
77,195,104927,70,0,P|108:199|162:225,1,55.2499974708558,8|0,0:3|0:0,0:0:0:0:
320,279,105099,1,8,0:0:0:0:
320,279,105185,1,8,0:3:0:0:
320,279,105270,2,0,P|289:286|256:298,1,55.2499974708558,4|0,0:3|0:0,0:0:0:0:
203,77,105442,6,0,P|216:104|220:157,1,55.2499974708558,6|0,1:2|0:0,0:0:0:0:
192,339,105613,1,8,0:3:0:0:
176,286,105698,1,8,0:3:0:0:
188,232,105784,1,4,0:3:0:0:
213,184,105870,1,4,0:3:0:0:
220,129,105955,1,0,1:0:0:0:
203,77,106041,1,0,1:0:0:0:
136,127,106127,38,0,P|220:158|263:20,1,229.499992996216,4|0,1:2|0:0,0:0:0:0:
276,39,106469,2,0,P|221:33|203:80,1,110.499994941712,10|0,0:0|0:0,0:0:0:0:
337,265,106813,6,2,B|359:158|359:158|338:193|282:192,1,165.749992412568,2|0,1:1|0:0,0:1:0:0:
276,312,107156,2,0,P|304:341|375:335,1,110.499994941712,10|0,0:1|0:0,0:0:0:0:
512,308,107412,1,0,0:0:0:0:
512,308,107498,70,0,P|450:268|399:288,1,110.499994941712,6|0,1:0|0:0,0:0:0:0:
276,312,107842,1,10,0:0:0:0:
371,164,108012,1,2,0:1:0:0:
371,164,108098,1,0,0:0:0:0:
371,164,108184,2,0,P|340:180|300:173,1,55.2499974708558,4|0,1:0|0:0,0:0:0:0:
243,172,108355,1,2,0:1:0:0:
437,217,108527,1,10,0:0:0:0:
286,106,108698,2,0,P|251:92|207:109,1,55.2499974708558,2|0,0:1|0:0,0:0:0:0:
152,198,108869,6,0,B|164:135|164:135|152:96|152:96|163:33,1,165.749992412568,4|0,1:0|0:0,0:0:0:0:
171,49,109212,2,0,P|129:86|67:75,1,110.499994941712,10|0,0:0|0:0,0:0:0:0:
282,240,109556,70,2,P|226:180|148:201,1,165.749992412568,2|0,1:1|0:0,0:1:0:0:
185,356,109899,2,0,B|212:324|212:324|203:254,1,110.499994941712,10|0,0:1|0:0,0:0:0:0:
299,139,110156,1,0,0:0:0:0:
299,139,110242,6,0,B|272:173|272:173|283:254,1,110.499994941712,6|0,1:0|0:0,0:0:0:0:
392,320,110585,1,10,0:0:0:0:
148,266,110755,2,0,L|223:252,1,55.2499974708558,2|0,0:1|0:0,0:0:0:0:
392,320,110927,69,0,1:0:0:0:
314,299,111098,1,2,1:0:0:0:
254,353,111269,1,8,0:0:0:0:
206,132,111441,5,8,0:3:0:0:
280,154,111527,1,4,0:3:0:0:
337,97,111613,2,0,B|373:82|417:105|417:105|465:134|521:98,1,165.749992412568,4|0,1:0|0:0,0:0:0:0:
503,95,111955,1,8,0:0:0:0:
387,281,112127,69,2,0:1:0:0:
387,281,112212,1,0,0:0:0:0:
387,281,112298,2,0,L|364:152,1,110.499994941712,2|0,1:2|0:0,0:0:0:0:
184,13,112642,2,2,L|166:124,1,110.499994941712,10|0,0:1|0:0,0:1:0:0:
150,203,112899,1,0,0:0:0:0:
150,203,112985,6,0,P|84:145|110:64,1,165.749992412568,2|0,1:2|0:0,0:0:0:0:
228,180,113327,1,10,0:0:0:0:
228,180,113498,2,0,L|293:161,2,55.2499974708558,2|0|0,0:1|0:0|1:0,0:0:0:0:
150,203,113841,1,2,0:0:0:0:
362,135,114012,2,2,L|349:244,1,110.499994941712,10|0,0:1|0:0,0:1:0:0:
277,281,114269,1,0,0:0:0:0:
277,281,114355,70,0,B|323:265|359:291|359:291|409:321|460:282,1,165.749992412568,0|0,1:2|0:0,0:0:0:0:
304,358,114698,1,10,0:2:0:0:
304,358,114869,2,0,L|219:383,2,55.2499974708558,2|0|0,0:1|0:2|1:0,0:0:0:0:
383,381,115212,1,2,0:0:0:0:
378,182,115385,6,2,L|355:330,1,121.124996765614,10|0,0:1|0:0,0:1:0:0:
79,137,115727,70,0,P|107:83|195:89,1,144.500002756119,4|0,1:2|0:0,0:0:0:0:
243,25,115985,1,8,0:0:0:0:
243,25,116070,2,0,P|263:57|262:94,1,72.2500013780594,8|0,0:3|0:0,0:0:0:0:
169,285,116242,2,0,P|150:261|153:213,1,72.2500013780594,4|0,0:3|0:0,0:0:0:0:
197,154,116412,6,0,L|238:162,1,31.8750012159348,2|0,1:2|0:0,0:0:0:0:
335,237,116584,1,8,0:3:0:0:
387,218,116669,1,8,0:3:0:0:
404,171,116756,1,4,0:3:0:0:
393,125,116842,1,4,0:3:0:0:
352,95,116927,1,0,1:0:0:0:
300,106,117013,1,0,1:0:0:0:
229,161,117098,70,0,B|161:166|161:166|121:148|121:148|55:153|55:153|119:203,1,229.499992996216,4|0,1:2|0:0,0:0:0:0:
109,190,117441,2,0,P|136:222|118:299,1,110.499994941712,10|0,0:0|0:0,0:0:0:0:
324,353,117784,6,2,B|334:284|334:284|325:256|325:256|338:152,1,165.749992412568,2|0,1:1|0:0,0:1:0:0:
254,201,118127,2,0,L|239:322,1,110.499994941712,10|0,0:1|0:0,0:0:0:0:
404,337,118384,1,0,0:0:0:0:
404,337,118469,70,0,B|422:218,1,110.499994941712,6|0,1:0|0:0,0:0:0:0:
263,93,118813,1,10,0:0:0:0:
406,149,118984,1,2,0:1:0:0:
406,149,119069,1,0,0:0:0:0:
406,149,119155,2,0,P|380:159|348:198,1,55.2499974708558,4|0,1:0|0:0,0:0:0:0:
320,245,119327,1,2,0:1:0:0:
488,161,119498,1,10,0:0:0:0:
354,131,119669,2,0,P|383:146|433:142,1,55.2499974708558,2|0,0:1|0:0,0:0:0:0:
486,242,119841,6,0,B|441:225|405:252|405:252|361:282|289:246,1,165.749992412568,4|0,1:0|0:0,0:0:0:0:
320,245,120184,2,0,P|260:248|229:303,1,110.499994941712,10|0,0:0|0:0,0:0:0:0:
97,129,120527,70,2,P|171:191|250:141,1,165.749992412568,2|0,1:1|0:0,0:1:0:0:
314,98,120869,2,0,L|303:212,1,110.499994941712,10|0,0:1|0:0,0:0:0:0:
303,207,121127,1,0,0:0:0:0:
303,207,121212,1,2,1:0:0:0:
246,49,121384,1,4,0:3:0:0:
446,133,121555,1,10,0:1:0:0:
314,289,121727,5,2,1:0:0:0:
305,250,121813,1,4,0:3:0:0:
303,207,121899,1,8,0:3:0:0:
300,313,122069,69,2,1:0:0:0:
279,253,122155,1,4,0:3:0:0:
279,190,122242,1,8,0:3:0:0:
285,334,122412,5,4,0:3:0:0:
254,258,122499,1,8,0:3:0:0:
255,177,122584,1,12,0:0:0:0:
255,177,122755,69,0,0:0:0:0:
279,190,122927,1,10,0:1:0:0:
317,258,123099,1,0,0:0:0:0:
291,344,123270,1,2,1:0:0:0:
195,383,123442,1,0,0:0:0:0:
92,319,123612,1,10,0:1:0:0:
109,180,123784,1,0,0:1:0:0:
109,180,123869,1,0,0:0:0:0:
109,180,123955,5,2,1:2:0:0:
229,197,124127,1,0,0:0:0:0:
323,171,124298,1,10,0:1:0:0:
400,184,124470,1,0,0:0:0:0:
448,170,124641,1,2,1:0:0:0:
477,179,124812,1,0,0:0:0:0:
492,175,124984,1,10,0:1:0:0:
499,178,125156,1,0,0:0:0:0:
300,332,125327,70,0,P|231:232|151:250,1,216.750004134178,4|0,1:2|0:0,0:0:0:0:
78,276,125670,2,0,L|72:229,1,31.8750012159348,10|0,0:1|0:0,0:0:0:0:
148,217,125842,2,0,L|153:261,1,31.8750012159348,2|0,0:0|0:0,0:0:0:0:
389,346,126012,6,0,B|404:266|404:266|392:180|392:180|410:79,1,255,4|0,1:2|0:0,0:0:0:0:
306,124,126355,1,10,0:1:0:0:
308,139,126442,1,8,0:3:0:0:
310,153,126527,1,4,0:3:0:0:
312,166,126613,1,4,0:3:0:0:
315,179,126698,70,0,L|237:191,1,59.4999981842042,2|0,1:0|0:0,0:0:0:0:
115,288,126869,2,0,B|103:259|103:259|108:215,1,59.4999981842042,4|0,0:3|0:0,0:0:0:0:
259,99,127042,2,0,L|181:111,1,59.4999981842042,10|0,0:1|0:0,0:0:0:0:
129,150,127213,2,0,B|117:121|117:121|122:77,1,59.4999981842042,8|4,0:3|0:3,0:0:0:0:
175,31,127385,1,10,0:2:0:0:
351,208,127555,5,4,0:3:0:0:
334,283,127641,1,8,0:3:0:0:
316,356,127727,1,8,0:3:0:0:
242,339,127813,1,8,0:2:0:0:
170,322,127899,1,8,0:2:0:0:
182,245,127985,1,8,0:2:0:0:
194,169,128069,5,12,0:0:0:0:
406,260,128242,1,0,0:1:0:0:
178,329,128413,5,8,0:1:0:0:
178,329,128499,1,8,0:0:0:0:
178,329,128585,1,4,1:2:0:0:
329,262,128756,1,4,0:3:0:0:
112,209,128927,69,8,0:1:0:0:
112,209,129013,1,8,0:0:0:0:
112,209,129098,1,4,1:2:0:0:
254,265,129269,1,2,1:2:0:0:
185,238,129441,21,2,1:2:0:0:
185,238,129613,1,6,1:2:0:0:
256,192,129699,12,2,131156,0:3:0:0:
443,66,133898,5,6,0:0:0:0:
446,81,134583,1,2,0:0:0:0:
450,97,135269,1,2,0:0:0:0:
450,97,135783,1,0,0:0:0:0:
446,81,135869,1,0,0:0:0:0:
443,66,135955,1,2,0:0:0:0:
385,152,136298,69,2,0:0:0:0:
385,152,136469,1,0,0:0:0:0:
215,59,136640,5,2,0:0:0:0:
146,99,137155,2,0,P|128:97|113:92,2,21.25
215,59,137498,69,2,0:0:0:0:
223,88,137669,1,0,0:0:0:0:
221,117,137840,1,0,0:0:0:0:
160,245,138012,5,2,0:0:0:0:
88,197,138183,1,0,0:0:0:0:
96,122,138355,1,0,0:0:0:0:
137,98,138526,1,0,0:0:0:0:
172,108,138698,1,2,0:0:0:0:
186,128,138869,1,0,0:0:0:0:
185,144,139040,1,0,0:0:0:0:
179,151,139212,1,0,0:0:0:0:
359,226,139383,69,2,0:0:0:0:
359,226,139898,2,0,L|364:190,1,21.25
300,148,140069,1,2,0:0:0:0:
371,101,140755,5,2,0:0:0:0:
310,21,141269,2,0,L|305:57,1,21.25
371,101,141440,1,2,0:0:0:0:
308,168,141783,1,2,0:0:0:0:
313,191,141955,1,0,0:0:0:0:
442,285,142126,69,2,0:0:0:0:
372,243,142298,1,0,0:0:0:0:
306,268,142469,1,0,0:0:0:0:
277,304,142640,1,0,0:0:0:0:
248,316,142812,1,2,0:0:0:0:
228,312,142983,1,0,0:0:0:0:
217,307,143155,1,0,0:0:0:0:
232,193,143326,5,2,0:0:0:0:
240,212,143412,1,0,0:0:0:0:
241,234,143498,1,8,0:0:0:0:
217,307,143669,1,2,0:0:0:0:
342,166,144012,1,8,0:3:0:0:
161,123,144355,1,2,0:0:0:0:
161,123,144526,1,0,0:0:0:0:
161,123,144698,1,0,0:0:0:0:
113,202,144869,70,0,B|162:229|216:199|216:199|275:163|329:191|329:191|252:145|286:51|377:67|391:133|391:133|420:63|508:66|529:154|474:186|444:198,1,680,4|2,1:2|0:0,0:0:0:0:
511,187,150012,2,0,P|473:199|443:194,1,63.7500024318696,0|0,1:0|0:0,0:0:0:0:
450,197,150269,1,4,0:3:0:0:
450,197,150355,54,0,L|439:140,1,50.9999984436036,14|0,0:2|0:0,0:0:0:0:
426,68,150526,1,0,1:0:0:0:
423,48,150698,1,0,1:0:0:0:
355,233,150869,6,0,L|344:176,1,50.9999984436036,10|0,0:1|0:0,0:0:0:0:
323,67,151040,1,0,1:0:0:0:
319,46,151212,1,0,1:0:0:0:
257,269,151383,70,0,L|246:212,1,50.9999984436036,10|0,0:1|0:0,0:0:0:0:
219,63,151555,1,0,1:0:0:0:
215,41,151726,1,0,1:0:0:0:
156,301,151898,6,0,L|145:244,1,50.9999984436036,10|0,0:1|0:0,0:0:0:0:
113,61,152069,1,0,1:0:0:0:
109,41,152240,1,0,1:0:0:0:
55,336,152412,70,0,L|44:279,1,50.9999984436036,10|0,0:1|0:0,0:0:0:0:
6,54,152583,1,0,1:0:0:0:
1,87,152669,1,4,0:3:0:0:
22,113,152755,1,8,0:3:0:0:
55,113,152840,1,8,0:3:0:0:
77,90,152926,1,4,0:3:0:0:
75,58,153012,1,0,1:0:0:0:
48,38,153098,53,2,1:2:0:0:
22,113,153269,1,0,1:0:0:0:
173,261,153440,5,2,1:0:0:0:
208,181,153612,1,0,1:0:0:0:
154,115,153783,69,2,1:0:0:0:
91,257,153955,1,8,1:2:0:0:
293,376,154126,5,10,1:0:0:0:
379,167,154298,1,8,1:2:0:0:
300,187,154469,69,2,1:0:0:0:
358,328,154640,1,8,0:3:0:0:
317,340,154726,1,8,0:3:0:0:
275,337,154812,1,8,0:3:0:0:
238,316,154898,1,4,0:3:0:0:
203,293,154983,1,0,1:0:0:0:
161,286,155069,1,0,1:0:0:0:
124,305,155155,1,8,0:3:0:0:
125,322,155240,1,4,0:3:0:0:
127,339,155326,1,4,0:3:0:0:
129,356,155412,1,0,1:0:0:0:
207,356,155498,5,0,1:0:0:0:
201,307,155583,1,4,0:3:0:0:
195,258,155669,1,8,0:3:0:0:
187,210,155755,1,8,0:3:0:0:
180,164,155840,2,0,B|223:184|266:155|266:155|322:115|380:160,1,191.250007295609,4|0,1:2|0:0,0:0:0:0:
372,159,156183,6,0,L|353:279,1,93.5000028533936,10|0,0:0|0:0,0:0:0:0:
343,330,156525,1,0,1:0:0:0:
281,278,156697,1,0,1:0:0:0:
203,261,156868,1,8,0:0:0:0:
128,281,157040,1,0,0:0:0:0:
214,40,157212,6,2,P|250:85|231:156,1,118.999996368408,2|8,1:1|0:0,0:1:0:0:
86,349,157726,70,2,P|50:304|69:233,1,118.999996368408,2|0,0:1|0:0,0:1:0:0:
123,197,158240,6,2,P|167:188|205:214,1,93.5000028533936,10|0,0:1|0:0,0:1:0:0:
205,214,158498,1,0,0:0:0:0:
205,214,158583,2,0,B|252:233|289:208|289:208|344:169|413:220,2,187.000005706787,2|8|2,1:2|0:0|1:2,0:0:0:0:
136,167,159440,1,0,1:0:0:0:
217,60,159612,2,0,P|246:97|241:144,1,93.5000028533936,10|0,0:0|0:0,0:0:0:0:
84,280,159955,69,2,1:0:0:0:
167,239,160126,1,0,1:0:0:0:
259,232,160298,2,0,P|248:190|241:127,1,93.5000028533936,8|0,0:0|0:0,0:0:0:0:
110,102,160641,5,2,1:0:0:0:
70,119,160812,1,0,1:0:0:0:
25,124,160984,2,0,P|40:179|43:229,1,93.5000028533936,8|0,0:0|0:0,0:0:0:0:
3,286,161241,1,0,0:0:0:0:
3,286,161326,70,0,P|72:218|161:255,1,187.000005706787,2|8,1:2|0:0,0:0:0:0:
93,304,161841,1,0,0:0:0:0:
35,145,162012,1,2,1:2:0:0:
3,286,162183,1,0,1:0:0:0:
149,241,162355,2,0,P|109:221|46:228,1,93.5000028533936,8|0,0:0|0:0,0:0:0:0:
69,58,162698,6,2,P|98:116|82:50,1,187.000005706787,2|8,1:1|0:0,0:1:0:0:
117,199,163212,1,0,0:0:0:0:
67,44,163383,70,2,P|117:120|86:36,1,255.000009727478,2|8,1:1|0:0,0:1:0:0:
54,39,164069,6,2,P|124:131|79:26,1,322.99999137497,2|8,1:1|0:0,0:1:0:0:
126,216,164583,69,2,0:0:0:0:
62,278,164755,2,0,P|43:244|36:218,1,46.7500014266968,2|0,1:0|0:0,0:0:0:0:
208,199,164926,2,0,P|206:240|198:262,1,46.7500014266968,2|0,1:2|0:0,0:0:0:0:
140,297,165098,6,0,B|140:249|112:218|112:218|130:187|130:187|90:160|88:55,1,216.750004134178,12|0,0:0|0:0,0:0:0:0:
138,32,165440,70,0,L|197:38,1,38.2499988327027,2|0,1:0|0:0,0:0:0:0:
241,89,165612,2,0,L|300:95,1,38.2499988327027,10|0,0:0|0:0,0:0:0:0:
351,57,165783,1,2,1:0:0:0:
351,57,165869,1,0,1:0:0:0:
351,57,165955,2,0,L|410:63,1,38.2499988327027,0|0,1:0|0:0,0:0:0:0:
284,107,166126,2,0,L|198:100,2,50.9999984436036,8|8|4,0:0|0:3|0:3,0:0:0:0:
184,24,166469,2,0,L|98:17,2,50.9999984436036,4|0|0,0:3|1:0|1:0,0:0:0:0:
87,89,166812,6,0,B|73:121|79:149|79:149|100:177|100:177|107:202|92:241,1,152.999995330811,6|0,1:2|0:0,0:0:0:0:
87,89,167326,1,2,1:2:0:0:
26,276,167498,2,0,P|83:315|174:259,1,152.999995330811,8|0,0:0|0:0,0:0:0:0:
97,210,168012,1,2,0:2:0:0:
95,231,168184,1,0,1:0:0:0:
167,167,168355,70,2,P|105:127|36:154,1,152.999995330811,10|2,0:1|1:2,0:1:0:0:
156,288,168869,1,10,0:1:0:0:
225,310,169041,1,0,0:0:0:0:
274,299,169212,1,2,0:2:0:0:
290,281,169384,1,0,0:0:0:0:
295,271,169555,6,0,B|290:217|305:161|305:161|290:181|264:198,1,152.999995330811,2|0,1:2|0:0,0:0:0:0:
215,244,170069,1,0,1:0:0:0:
339,87,170241,2,0,B|299:70|264:92|264:92|221:116|179:91,1,152.999995330811,10|0,0:0|0:0,0:0:0:0:
301,180,170755,1,2,0:0:0:0:
303,161,170926,1,0,1:0:0:0:
228,228,171098,70,2,P|307:265|365:238,1,152.999995330811,10|0,0:1|1:2,0:1:0:0:
359,67,171612,2,0,P|308:42|236:78,1,114.749996498108,10|0,0:1|0:0,0:0:0:0:
301,180,171955,5,10,0:0:0:0:
297,165,172040,1,8,0:0:0:0:
297,151,172126,1,8,0:0:0:0:
299,137,172212,1,8,0:0:0:0:
303,123,172298,2,0,P|253:139|206:133,1,93.5000028533936,12|0,1:2|0:0,0:0:0:0:
390,279,172640,2,0,P|434:263|494:271,1,93.5000028533936,10|0,0:0|0:0,0:0:0:0:
317,322,172983,69,2,1:0:0:0:
299,290,173098,2,0,P|300:259|328:209,1,62.3333352355958,2|0,0:0|0:0,0:0:0:0:
245,136,173326,5,10,0:1:0:0:
216,171,173440,2,0,P|212:204|245:266,1,73.6666632944744,2|0,0:0|0:0,0:0:0:0:
163,370,173669,69,2,1:0:0:0:
118,310,173784,2,0,P|123:250|147:217,1,90.6666666666667,2|0,0:0|0:0,0:0:0:0:
110,12,174012,5,10,0:1:0:0:
51,75,174126,2,0,P|44:131|85:194,1,107.666663791657,2|0,0:0|0:0,0:0:0:0:
288,93,174355,70,0,B|248:75|206:102|206:102|162:133|105:110,1,170,2|0,0:1|0:0,0:0:0:0:
126,116,174612,1,8,0:3:0:0:
126,116,174698,1,8,0:0:0:0:
259,341,174869,2,0,P|260:295|276:219,1,85,2|0,1:2|0:0,0:0:0:0:
367,68,175040,53,10,0:1:0:0:
203,151,175212,1,0,1:0:0:0:
203,151,175384,1,0,1:0:0:0:
396,163,175555,5,10,0:1:0:0:
171,56,175726,1,0,1:0:0:0:
171,56,175898,1,0,1:0:0:0:
412,33,176069,69,10,0:1:0:0:
143,194,176241,1,0,1:0:0:0:
143,194,176412,1,0,1:0:0:0:
455,205,176584,5,10,0:1:0:0:
101,27,176755,1,0,1:0:0:0:
101,27,176926,1,0,1:0:0:0:
469,8,177098,69,10,0:1:0:0:
180,184,177269,1,0,1:0:0:0:
227,170,177355,1,4,0:3:0:0:
276,178,177441,1,8,0:3:0:0:
318,203,177526,1,8,0:0:0:0:
360,229,177611,1,8,0:3:0:0:
409,236,177698,1,4,0:3:0:0:
456,221,177783,5,6,1:2:0:0:
202,314,177955,1,0,1:0:0:0:
483,221,178126,69,2,1:0:0:0:
127,136,178298,1,8,1:0:0:0:
512,222,178469,5,10,1:0:0:0:
95,353,178641,1,8,1:0:0:0:
267,33,178812,70,0,P|254:67|269:158,1,85,10|0,1:0|0:0,0:0:0:0:
314,192,178984,2,0,P|327:230|308:325,1,85,10|0,1:0|0:0,0:0:0:0:
271,350,179155,6,0,B|222:278|275:192|275:192|330:90|262:28,1,340,4|2,0:0|0:3,0:0:0:0:
153,146,185498,5,8,3:0:0:0:
241,160,185669,2,0,P|205:168|138:125,1,95.6250036478044,4|0,0:3|0:0,0:0:0:0:
159,167,186012,22,0,P|191:183|237:174,1,76.4999976654053,6|0,1:2|0:0,0:0:0:0:
294,125,186355,2,0,P|331:119|365:135,1,76.4999976654053,2|0,1:2|0:0,0:0:0:0:
432,195,186698,6,0,L|451:36,1,152.999995330811,2|0,1:2|0:0,0:0:0:0:
450,43,187040,2,0,P|422:74|423:120,1,76.4999976654053,2|0,1:2|0:0,0:0:0:0:
293,282,187383,70,0,L|308:83,1,191.250007295609,2|0,1:2|0:0,0:0:0:0:
307,91,187726,2,0,P|282:117|278:168,1,76.4999976654053,2|0,1:2|0:0,0:0:0:0:
150,366,188069,6,0,L|172:124,1,229.499992996216,2|0,1:2|0:0,0:0:0:0:
170,137,188412,2,0,P|144:166|145:228,1,76.4999976654053,2|0,1:2|0:0,0:0:0:0:
136,376,188755,69,2,1:2:0:0:
136,376,189098,1,2,1:2:0:0:
293,347,189269,1,0,0:0:0:0:
250,271,189440,1,2,1:2:0:0:
138,291,189612,1,0,0:2:0:0:
140,206,189783,2,0,L|217:193,1,76.4999976654053,2|0,1:2|0:0,0:0:0:0:
215,193,190040,1,4,0:3:0:0:
215,193,190126,21,8,1:2:0:0:
58,282,190298,1,8,1:2:0:0:
213,48,190469,1,8,1:2:0:0:
419,255,190641,1,8,1:2:0:0:
213,48,190812,6,0,L|221:128,1,63.7500024318696,10|0,1:2|0:0,0:0:0:0:
255,361,190984,1,10,1:2:0:0:
311,315,191069,1,8,1:2:0:0:
302,243,191155,1,8,1:2:0:0:
235,214,191241,1,8,1:2:0:0:
172,262,191326,1,8,1:2:0:0:
187,332,191412,1,8,1:2:0:0:
246,287,191498,38,0,L|250:249,1,35.4166666666667,2|0,0:0|1:0,0:0:0:0:
293,184,192012,22,0,L|285:136,2,33.9999989624024,0|4|4,1:0|0:3|0:3,0:0:0:0:
361,225,192183,2,0,B|306:251|255:217|255:217|201:171|127:215,1,223.125002127886,4|0,1:0|0:0,0:0:0:0:
89,252,192526,1,8,0:0:0:0:
78,231,192612,1,8,0:3:0:0:
72,207,192698,1,4,0:3:0:0:
72,185,192783,1,4,0:3:0:0:
127,124,192869,6,2,P|100:239|103:389,1,235.874999100208,2|8,1:1|0:0,0:1:0:0:
112,370,193212,1,2,1:0:0:0:
16,81,193383,6,0,P|28:110|38:194,1,68,10|0,1:0|0:0,0:0:0:0:
417,341,193726,6,0,P|424:287|448:245,1,68,10|0,1:0|0:0,0:0:0:0:
16,81,194069,38,0,B|79:69|128:119|128:119|188:180|286:140,1,255,6|0,1:2|0:0,0:0:0:0:
259,136,194412,1,2,0:0:0:0:
0,175,194583,6,0,P|26:163|72:165,1,55.2499974708558,10|0,0:1|0:0,0:0:0:0:
220,63,194755,2,0,P|187:58|156:36,1,55.2499974708558,2|0,0:1|0:0,0:0:0:0:
89,22,194926,2,0,P|145:91|109:188,1,165.749992412568,2|2,1:2|0:2,0:2:0:0:
112,332,195269,2,0,P|79:276|97:213,1,110.499994941712,10|0,0:1|0:0,0:0:0:0:
270,246,195526,1,0,0:0:0:0:
270,246,195612,70,0,L|134:268,1,110.499994941712,6|0,1:0|0:0,0:0:0:0:
313,317,195955,1,10,0:0:0:0:
80,181,196126,1,2,0:1:0:0:
80,181,196212,1,0,0:0:0:0:
80,181,196298,2,0,L|156:193,1,55.2499974708558,4|0,1:0|0:0,0:0:0:0:
208,158,196469,1,2,0:1:0:0:
22,244,196640,1,10,0:0:0:0:
219,292,196812,2,0,L|191:212,1,55.2499974708558,2|0,1:0|1:0,0:0:0:0:
164,56,196983,5,4,1:0:0:0:
134,189,197155,1,0,0:0:0:0:
102,321,197326,1,10,0:0:0:0:
109,113,197498,69,2,0:1:0:0:
134,189,197669,1,0,1:0:0:0:
160,262,197840,1,2,0:0:0:0:
354,229,198012,2,2,L|363:112,1,110.499994941712,10|0,0:1|0:0,0:1:0:0:
279,93,198269,1,0,0:0:0:0:
279,93,198355,6,0,B|322:108|359:87|359:87|400:58|452:83,1,165.749992412568,2|0,1:2|0:0,0:0:0:0:
273,178,198698,1,8,0:0:0:0:
273,178,198869,2,0,L|213:158,2,55.2499974708558,2|0|0,0:1|0:0|1:0,0:0:0:0:
351,206,199212,1,0,0:0:0:0:
137,139,199383,2,2,L|161:266,1,110.499994941712,10|0,0:1|0:0,0:1:0:0:
310,278,199640,1,0,0:0:0:0:
310,278,199726,70,0,P|211:273|84:368,1,216.750004134178,4|0,1:2|0:0,0:0:0:0:
49,239,200069,6,0,L|87:242,1,31.8750012159348,10|0,0:1|0:0,0:0:0:0:
189,250,200240,2,0,L|132:244,1,31.8750012159348,2|0,0:0|0:0,0:0:0:0:
24,47,200412,70,0,B|101:40|101:40|188:71|188:71|301:59,1,255,4|0,1:2|0:0,0:0:0:0:
342,131,200755,5,8,0:0:0:0:
343,110,200840,1,8,0:3:0:0:
348,91,200926,1,4,0:3:0:0:
357,75,201012,1,0,1:0:0:0:
369,64,201098,1,2,1:2:0:0:
272,61,201269,69,10,0:1:0:0:
400,301,201440,1,10,0:1:0:0:
436,263,201526,1,8,0:3:0:0:
451,215,201612,1,4,0:3:0:0:
448,167,201698,1,0,1:0:0:0:
425,127,201783,2,0,L|384:122,1,31.8750012159348,8|0,0:0|0:0,0:0:0:0:
114,241,201955,5,4,0:3:0:0:
88,160,202040,1,8,0:3:0:0:
138,89,202127,1,8,0:3:0:0:
222,84,202213,1,8,0:0:0:0:
280,148,202298,1,8,0:0:0:0:
265,232,202384,1,8,0:0:0:0:
191,276,202469,5,12,0:0:0:0:
236,37,202640,1,0,0:0:0:0:
370,200,202812,5,2,0:0:0:0:
370,200,202898,1,0,0:0:0:0:
370,200,202983,1,12,0:0:0:0:
191,276,203155,1,0,0:0:0:0:
220,122,203326,69,2,0:0:0:0:
220,122,203412,1,0,0:0:0:0:
220,122,203498,1,12,0:0:0:0:
325,173,203669,1,0,0:0:0:0:
246,200,203840,21,2,0:0:0:0:
246,200,204012,2,0,B|299:180|335:218|335:218|384:259|445:223,1,203.999993774414,4|0,0:0|0:0,0:0:0:0:
434,228,204869,5,2,1:2:0:0:
416,220,204955,1,4,0:3:0:0:
378,217,205041,1,4,0:3:0:0:
329,242,205126,1,8,0:3:0:0:
295,285,205212,1,10,0:0:0:0:
292,326,205298,1,8,0:3:0:0:
303,355,205384,1,4,0:3:0:0:
319,372,205469,1,0,1:0:0:0:
369,312,205555,38,0,B|381:201|381:201|360:240|300:249,1,178.499994552612,6|8,1:2|0:0,0:0:0:0:
453,168,206069,6,0,L|505:157,1,44.6249986381531,2|0,0:1|0:0,0:0:0:0:
432,81,206240,2,0,L|455:181,1,89.2499972763062,2|0,1:2|0:0,0:0:0:0:
319,133,206583,2,0,L|371:144,1,44.6249986381531,10|0,0:1|0:0,0:0:0:0:
298,220,206755,2,0,L|321:120,1,89.2499972763062,2|0,0:0|0:0,0:0:0:0:
185,171,207097,2,0,L|237:160,1,44.6249986381531,2|0,0:1|0:0,0:0:0:0:
164,84,207269,2,0,L|187:184,1,89.2499972763062,2|0,1:2|0:0,0:0:0:0:
133,239,207526,1,8,0:0:0:0:
133,239,207612,70,0,P|88:249|45:220,1,89.2499972763062,2|0,1:2|0:0,0:0:0:0:
231,301,207954,2,0,P|265:288|306:297,1,44.6249986381531,10|0,0:1|0:0,0:0:0:0:
369,337,208125,1,0,0:0:0:0:
343,350,208211,1,0,0:0:0:0:
314,355,208297,6,0,B|288:301|312:254|312:254|331:200|304:150,1,203.999993774414,6|10,1:2|0:0,0:0:0:0:
129,61,208811,2,0,P|118:92|124:139,1,50.9999984436036,2|0,0:1|0:0,0:0:0:0:
187,150,208983,1,2,1:2:0:0:
198,130,209154,1,0,0:0:0:0:
198,111,209325,1,8,0:0:0:0:
89,241,209497,69,8,0:3:0:0:
89,241,209583,1,4,0:3:0:0:
89,241,209669,2,0,P|80:268|78:294,1,50.9999984436036,6|0,1:2|0:0,0:0:0:0:
150,329,209840,2,0,P|157:309|161:271,1,50.9999984436036,2|0,1:2|0:0,0:0:0:0:
0,289,210012,6,0,P|8:331|28:354,1,50.9999984436036,2|0,1:0|0:0,0:0:0:0:
242,282,210183,2,0,P|237:250|217:216,1,50.9999984436036,2|0,1:2|0:0,0:0:0:0:
60,106,210355,70,0,L|83:185,1,50.9999984436036,10|0,0:1|0:0,0:0:0:0:
202,363,210526,1,2,1:2:0:0:
243,369,210611,1,4,0:3:0:0:
285,361,210698,1,8,0:3:0:0:
320,336,210784,1,4,0:3:0:0:
354,312,210869,1,4,0:3:0:0:
395,304,210955,1,0,1:0:0:0:
437,313,211040,6,0,P|426:265|430:210,1,95.2000011621094,6|0,1:2|0:0,0:0:0:0:
214,81,211384,2,0,P|225:129|221:184,1,95.2000011621094,8|0,0:0|0:0,0:0:0:0:
223,174,211641,1,0,0:0:0:0:
223,174,211726,1,2,1:2:0:0:
144,132,211898,1,0,0:0:0:0:
304,118,212069,2,0,P|346:128|401:158,1,95.2000011621094,10|0,0:0|0:0,0:0:0:0:
161,314,212412,70,0,L|148:209,1,95.2000011621094,2|0,1:0|0:0,0:0:0:0:
149,219,212755,1,10,0:0:0:0:
299,330,212926,1,2,0:1:0:0:
299,330,213012,1,0,0:0:0:0:
299,330,213098,2,0,L|227:320,1,47.6000005810547,2|0,1:2|0:0,0:0:0:0:
285,237,213269,2,0,L|213:227,1,47.6000005810547,2|0,0:1|0:0,0:0:0:0:
161,314,213440,1,10,0:0:0:0:
149,219,213612,1,2,0:1:0:0:
266,66,213784,5,2,1:2:0:0:
281,157,213955,1,0,0:0:0:0:
346,71,214126,2,0,L|418:81,1,47.6000005810547,10|0,0:1|0:0,0:0:0:0:
359,163,214297,2,0,L|431:173,1,47.6000005810547
487,91,214469,2,0,L|374:74,1,95.2000011621094,2|0,1:2|0:0,0:0:0:0:
500,183,214812,2,0,L|387:166,1,95.2000011621094,10|0,0:1|0:0,0:0:0:0:
405,168,215069,1,0,0:0:0:0:
405,168,215154,70,0,P|431:206|421:272,1,95.2000011621094,2|0,1:0|0:0,0:0:0:0:
375,88,215497,1,10,0:0:0:0:
352,230,215668,2,0,P|322:274|261:275,1,95.2000011621094,2|2,0:1|1:2,0:0:0:0:
277,203,216011,2,0,P|252:196|227:161,2,47.6000005810547,2|0|8,0:1|0:0|0:0,0:0:0:0:
337,147,216354,1,8,0:0:0:0:
337,147,216439,1,8,0:0:0:0:
337,147,216526,5,6,1:0:0:0:
352,230,216697,1,0,0:0:0:0:
427,256,216868,1,8,0:0:0:0:
450,143,217040,69,2,0:1:0:0:
352,230,217211,1,0,1:0:0:0:
232,192,217383,1,0,0:0:0:0:
129,360,217556,6,0,P|142:323|129:284,1,47.6000005810547,10|0,0:1|0:0,0:0:0:0:
115,260,217726,2,0,P|139:294|140:328,1,47.6000005810547,2|0,0:0|0:0,0:0:0:0:
66,316,217897,1,0,1:0:0:0:
219,117,218069,70,2,P|190:157|211:241,1,95.2000011621094,2|8,0:1|0:0,0:1:0:0:
265,268,218411,2,0,P|213:250|190:182,1,95.2000011621094,2|0,0:0|1:2,0:0:0:0:
219,117,218754,1,0,0:0:0:0:
331,219,218925,1,10,0:0:0:0:
192,286,219097,1,0,0:0:0:0:
96,185,219269,6,0,L|203:174,1,95.2000011621094,2|0,1:0|0:0,0:0:0:0:
287,199,219612,70,0,L|203:191,1,85,10|0,0:1|0:0,0:0:0:0:
285,182,219955,6,0,L|383:173,1,74.8000022827149,2|0,1:0|0:0,0:0:0:0:
414,196,220297,70,0,L|350:189,1,64.5999992114258,10|0,0:1|0:0,0:0:0:0:
255,23,220640,6,0,B|235:49|235:49|245:110,1,95.2000011621094,2|0,1:2|0:0,0:0:0:0:
285,182,220897,1,8,0:0:0:0:
285,182,220983,2,0,P|254:192|219:187,1,47.6000005810547,2|0,1:2|0:0,0:0:0:0:
178,259,221155,2,0,P|212:267|244:291,1,47.6000005810547,2|0,0:0|0:0,0:0:0:0:
297,310,221326,2,0,L|316:230,1,47.6000005810547,2|0,1:2|0:0,0:0:0:0:
495,87,221497,69,8,0:0:0:0:
468,118,221583,1,8,0:3:0:0:
432,127,221669,1,4,0:3:0:0:
410,122,221755,1,4,0:3:0:0:
398,116,221840,1,0,1:0:0:0:
393,108,221926,1,0,1:0:0:0:
363,40,222012,6,0,P|374:105|344:214,1,142.800001743164,4|0,1:2|0:0,0:0:0:0:
352,197,222355,1,10,0:1:0:0:
268,65,222526,1,0,0:0:0:0:
266,169,222698,1,2,1:1:0:0:
186,87,222869,1,0,0:0:0:0:
184,140,223040,1,10,0:1:0:0:
108,112,223212,1,0,0:0:0:0:
158,320,223383,69,2,1:0:0:0:
232,304,223555,1,0,0:0:0:0:
307,286,223726,2,0,P|293:234|290:185,1,95.2000011621094,8|0,0:0|0:0,0:0:0:0:
221,80,224069,5,2,1:0:0:0:
314,95,224240,1,0,0:0:0:0:
409,112,224412,2,0,P|411:57|426:11,1,95.2000011621094,8|0,0:0|0:0,0:0:0:0:
274,265,224755,70,0,B|220:286|188:263|188:263|134:231|84:268,2,190.400002324219,2|8|0,1:2|0:0|1:0,0:0:0:0:
235,190,225612,1,2,0:0:0:0:
116,346,225783,2,0,P|86:289|104:244,1,95.2000011621094,8|2,0:0|0:0,0:0:0:0:
155,98,226126,6,0,L|138:217,1,95.2000011621094,2|0,1:0|0:0,0:0:0:0:
126,301,226469,70,0,L|146:160,1,110.499994941712,10|0,0:1|0:0,0:0:0:0:
118,67,226812,6,0,L|144:205,1,125.800003071289,2|0,1:0|0:0,0:0:0:0:
166,329,227155,70,0,L|135:161,1,141.100002045364,10|0,0:1|0:0,0:0:0:0:
34,113,227412,1,0,1:0:0:0:
30,91,227497,5,4,1:2:0:0:
119,57,227669,1,2,0:0:0:0:
200,101,227840,2,0,L|191:156,1,47.6000005810547,10|0,0:1|0:0,0:0:0:0:
302,231,228012,69,2,0:0:0:0:
192,147,228183,1,0,1:0:0:0:
73,209,228355,1,0,0:0:0:0:
73,209,228440,1,0,0:0:0:0:
73,209,228526,2,0,L|44:340,1,95.2000011621094,10|0,0:1|0:0,0:0:0:0:
146,280,228869,5,0,1:0:0:0:
2,141,229040,1,2,0:0:0:0:
176,32,229212,2,2,B|224:10|265:36|265:36|326:64|370:30,1,190.400002324219,10|2,0:1|1:2,0:1:0:0:
225,111,229726,1,0,0:0:0:0:
311,133,229897,2,0,P|365:131|409:93,1,95.2000011621094,8|0,0:0|0:0,0:0:0:0:
250,326,230240,70,0,L|241:214,1,95.2000011621094,6|0,1:2|0:0,0:0:0:0:
250,326,230583,1,8,0:0:0:0:
326,247,230755,1,2,0:0:0:0:
326,247,230840,1,0,0:0:0:0:
326,247,230926,6,0,L|330:305,1,47.6000005810547,6|0,1:2|0:0,0:0:0:0:
138,253,231098,1,10,0:0:0:0:
126,215,231183,1,8,0:0:0:0:
131,176,231269,1,8,0:3:0:0:
151,142,231355,1,4,0:3:0:0:
173,109,231441,1,4,0:3:0:0:
179,70,231526,1,0,1:0:0:0:
169,32,231612,69,2,1:2:0:0:
67,89,231726,2,0,P|33:99|-10:94,1,63.4666674414063,10|8,0:1|0:0,0:0:0:0:
143,204,231955,5,2,1:2:0:0:
145,89,232069,2,0,P|153:54|179:19,1,63.4666674414063,10|8,0:1|0:0,0:0:0:0:
143,204,232297,38,0,P|128:177|105:156,1,63.4666674414063,10|0,0:1|0:0,0:0:0:0:
5,98,232526,2,0,P|36:98|67:89,1,63.4666674414063,10|0,0:1|0:0,0:0:0:0:
168,31,232755,2,0,P|151:58|145:89,1,63.4666674414063,10|0,0:1|0:0,0:0:0:0:
191,160,232983,22,0,B|231:148|255:124|255:124|289:147|353:157,1,152.999995330811,6|0,1:2|0:0,0:0:0:0:
328,152,233497,1,2,0:0:0:0:
207,243,233669,1,10,0:0:0:0:
207,243,233840,2,0,P|130:258|88:192,1,152.999995330811,0|0,1:2|0:0,0:0:0:0:
303,243,234355,1,2,1:2:0:0:
303,243,234526,2,0,P|380:258|422:192,1,152.999995330811,8|0,0:0|0:0,0:0:0:0:
323,353,235040,1,10,0:0:0:0:
323,353,235212,2,0,B|253:318|253:318|178:359,1,152.999995330811,0|0,1:0|0:0,0:0:0:0:
172,41,235726,6,0,L|353:18,1,152.999995330811,2|0,1:2|0:0,0:0:0:0:
323,21,236240,1,0,1:0:0:0:
343,136,236412,69,10,0:0:0:0:
343,136,236583,2,0,L|137:120,1,203.999993774414,0|0,1:0|0:0,0:0:0:0:
118,240,237097,5,2,1:2:0:0:
118,240,237269,2,0,L|398:212,1,255.000009727478,8|0,0:0|0:0,0:0:0:0:
507,351,237783,70,0,B|418:276|338:339|338:339|259:417|177:350|177:350|75:268|-21:386,1,561.000005350113,10|2,0:0|0:3,0:0:0:0:
19,279,239840,21,2,0:0:0:0:
33,196,241040,1,2,1:2:0:0:
33,196,241125,1,0,1:0:0:0:
33,196,241212,53,6,1:2:0:0:
47,298,241383,1,0,1:0:0:0:
158,171,241554,5,2,1:2:0:0:
139,316,241725,1,0,1:0:0:0:
254,147,241897,69,2,1:2:0:0:
285,333,242068,1,0,1:0:0:0:
408,106,242240,5,2,1:2:0:0:
373,344,242411,1,8,1:0:0:0:
198,174,242583,37,10,1:2:0:0:
441,254,242754,1,8,1:0:0:0:
150,302,242925,5,10,1:2:0:0:
399,184,243097,1,8,1:0:0:0:
85,126,243268,69,10,1:2:0:0:
361,259,243440,1,8,1:0:0:0:
12,309,243611,5,10,1:2:0:0:
320,194,243783,1,8,1:0:0:0:
323,82,244297,6,0,B|319:-7|472:4|433:127|371:130|371:130|320:88|258:111|258:111|251:65|210:36|210:36|221:117|177:168|177:168|62:262|-61:126|140:12|153:92|156:188|251:201|251:201|323:142|425:247|309:329|261:297|239:248,1,1275,4|0,0:0|0:0,0:0:0:0:
