osu file format v14

[General]
AudioFilename: audio.mp3
AudioLeadIn: 0
PreviewTime: 106041
Countdown: 0
SampleSet: Soft
StackLeniency: 0.3
Mode: 0
LetterboxInBreaks: 0
WidescreenStoryboard: 1

[Editor]
Bookmarks: 78612,102955,150269,192098,207526,209583,220897,226726,249782
DistanceSpacing: 0.5
BeatDivisor: 4
GridSize: 8
TimelineZoom: 2.4

[Metadata]
Title:Kiss no Hitotsu de
TitleUnicode:キスのひとつで
Artist:Sasaki Sayaka
ArtistUnicode:佐咲紗花
Creator:Left
Version:NiNo's Insane
Source:ちいさな彼女の小夜曲
Tags:chiisana kanojo no serenade ending Kalibe Akitoshi Garden Yamicchi SnowNiNo_
BeatmapID:1348405
BeatmapSetID:613158

[Difficulty]
HPDrainRate:5.5
CircleSize:4
OverallDifficulty:7
ApproachRate:9
SliderMultiplier:1.8
SliderTickRate:1

[Events]
//Background and Video events
0,0,"bg1.jpg",0,0
//Break Periods
2,180726,185412
//Storyboard Layer 0 (Background)
//Storyboard Layer 1 (Fail)
//Storyboard Layer 2 (Pass)
//Storyboard Layer 3 (Foreground)
//Storyboard Sound Samples

[TimingPoints]
185,342.857142857143,4,2,1,35,1,0
870,-166.666666666667,4,2,1,35,0,0
22127,-100,4,2,1,55,0,0
27613,-95.2380952380952,4,2,1,55,0,0
27699,-100,4,2,1,5,0,0
28985,-95.2380952380952,4,2,1,55,0,0
29070,-100,4,2,1,5,0,0
29670,-100,4,2,1,55,0,0
31727,-133.333333333333,4,2,1,55,0,0
32242,-100,4,2,1,55,0,0
33099,-83.3333333333333,4,2,1,75,0,1
58127,342.857142857143,4,2,1,45,1,0
58127,-125,4,2,1,45,0,0
58212,-133.333333333333,4,2,1,5,0,0
59498,-133.333333333333,4,2,1,45,0,0
59584,-133.333333333333,4,2,1,5,0,0
60784,-133.333333333333,4,2,1,45,0,0
67812,-133.333333333333,4,2,1,5,0,0
68412,-133.333333333333,4,2,1,45,0,0
68498,-133.333333333333,4,2,1,5,0,0
69098,-133.333333333333,4,2,1,45,0,0
70469,-100,4,2,1,55,0,0
106127,-83.3333333333333,4,2,1,75,0,1
133898,342.857142857143,4,2,1,45,1,0
133898,-133.333333333333,4,2,1,45,0,0
144869,-125,4,2,1,45,0,0
144955,-133.333333333333,4,2,1,5,0,0
146240,-125,4,2,1,45,0,0
146326,-133.333333333333,4,2,1,5,0,0
147612,-125,4,2,1,45,0,0
147698,-133.333333333333,4,2,1,5,0,0
148983,-133.333333333333,4,2,1,45,0,0
149069,-133.333333333333,4,2,1,5,0,0
149669,-133.333333333333,4,2,1,45,0,0
150355,-100,4,2,1,65,0,0
179155,-133.333333333333,4,2,1,65,0,0
186012,-133.333333333333,4,2,1,45,0,0
190126,-133.333333333333,4,2,1,65,0,0
192183,-100,4,2,1,65,0,0
194069,-83.3333333333333,4,2,1,75,0,1
205555,342.857142857143,4,2,1,68,1,0
238383,-100,4,2,1,5,0,0
238469,-95.2380952380952,4,2,1,68,0,0
238555,-100,4,2,1,5,0,0
239840,-95.2380952380952,4,2,1,68,0,0
239926,-100,4,2,1,5,0,0
241040,-100,4,2,1,68,0,0
244297,342.857142857143,4,2,1,80,1,0
244297,-200,4,2,1,80,0,0
244382,-133.333333333333,4,2,1,5,0,0

[Colours]
Combo1 : 208,255,183
Combo2 : 255,244,208
Combo3 : 154,221,254

[HitObjects]
352,317,185,5,2,0:3:0:0:
352,317,870,2,0,L|356:252,2,53.9999983520508,2|0|0,0:0|0:0|0:0,0:0:0:0:
287,366,1385,1,2,0:0:0:0:
287,366,1556,2,0,P|246:342|181:333,1,107.999996704102,0|0,0:0|0:0,0:0:0:0:
106,346,2070,1,2,0:0:0:0:
106,346,2242,2,0,P|65:370|0:379,1,107.999996704102,0|0,0:0|0:0,0:0:0:0:
10,298,2756,1,2,0:0:0:0:
10,298,2927,6,0,L|19:168,1,107.999996704102,2|0,0:0|0:0,0:0:0:0:
98,181,3442,1,0,0:0:0:0:
98,181,3613,2,0,L|94:234,2,53.9999983520508,2|0|0,0:0|0:0|0:0,0:0:0:0:
104,100,4127,1,2,0:0:0:0:
104,100,4299,2,0,P|144:70|219:63,1,107.999996704102,0|0,0:0|0:0,0:0:0:0:
271,99,4813,1,2,0:0:0:0:
271,99,4985,2,0,P|311:129|386:136,1,107.999996704102,0|0,0:0|0:0,0:0:0:0:
445,118,5499,1,0,0:0:0:0:
445,118,5670,6,0,L|451:238,1,107.999996704102,2|0,0:0|0:0,0:0:0:0:
387,277,6185,1,0,0:0:0:0:
387,277,6356,2,0,L|383:337,2,53.9999983520508,2|0|0,0:0|0:0|0:0,0:0:0:0:
378,196,6870,1,2,0:0:0:0:
378,196,7042,2,0,P|344:167|263:165,1,107.999996704102,0|0,0:0|0:0,0:0:0:0:
223,214,7556,1,2,0:0:0:0:
223,214,7728,2,0,P|189:243|108:245,1,107.999996704102,0|0,0:0|0:0,0:0:0:0:
49,228,8242,1,0,0:0:0:0:
49,228,8413,6,0,L|59:115,1,107.999996704102,2|0,0:0|0:0,0:0:0:0:
74,40,8927,1,0,0:0:0:0:
74,40,9099,2,0,L|9:36,2,53.9999983520508,2|2|0,0:0|0:0|0:0,0:0:0:0:
134,93,9613,1,2,0:0:0:0:
134,93,9785,2,0,L|252:85,1,107.999996704102,0|0,0:0|0:0,0:0:0:0:
296,26,10299,1,2,0:0:0:0:
296,26,10471,2,0,L|414:33,1,107.999996704102,0|0,0:0|0:0,0:0:0:0:
485,34,10985,1,0,0:0:0:0:
485,34,11156,6,0,L|495:157,1,107.999996704102,4|0,0:0|0:0,0:0:0:0:
431,194,11670,1,0,0:0:0:0:
431,194,11842,2,0,L|426:255,2,53.9999983520508,2|0|0,0:0|0:0|0:0,0:0:0:0:
350,182,12356,1,0,0:0:0:0:
350,182,12527,2,0,L|340:305,1,107.999996704102,2|2,0:0|0:0,0:0:0:0:
259,281,13042,1,0,0:0:0:0:
259,281,13213,2,0,L|269:158,1,107.999996704102,0|2,0:0|0:0,0:0:0:0:
246,95,13727,1,0,0:0:0:0:
246,95,13899,6,0,P|216:74|134:61,1,107.999996704102,0|0,0:0|0:0,0:0:0:0:
72,91,14413,1,2,0:0:0:0:
72,91,14585,2,0,L|78:149,1,53.9999983520508,2|0,0:0|0:0,0:0:0:0:
24,205,14927,2,0,L|18:263,1,53.9999983520508,0|2,0:0|0:0,0:0:0:0:
18,339,15270,2,0,P|52:357|136:366,1,107.999996704102,0|0,0:0|0:0,0:0:0:0:
184,317,15785,1,2,0:0:0:0:
184,317,15956,2,0,P|218:299|302:290,1,107.999996704102,0|0,0:0|0:0,0:0:0:0:
364,308,16470,1,0,0:0:0:0:
364,308,16642,6,0,L|371:239,1,53.9999983520508,2|0,0:0|0:0,0:0:0:0:
442,219,16985,2,0,L|435:155,1,53.9999983520508,0|0,0:0|0:0,0:0:0:0:
365,126,17327,2,0,L|371:62,2,53.9999983520508,2|0|2,0:0|0:0|0:0,0:0:0:0:
311,187,17842,1,0,0:0:0:0:
311,187,18013,2,0,P|278:217|205:229,1,107.999996704102,2|0,0:0|0:0,0:0:0:0:
145,192,18527,2,0,L|149:136,1,53.9999983520508,2|0,0:0|0:0,0:0:0:0:
230,133,18870,2,0,L|226:79,1,53.9999983520508,0|0,0:0|0:0,0:0:0:0:
285,23,19213,1,2,0:0:0:0:
285,23,19385,6,0,P|335:44|390:42,1,107.999996704102,0|0,0:0|0:0,0:0:0:0:
467,25,19899,1,0,0:0:0:0:
467,25,20070,2,0,L|478:135,1,107.999996704102,2|2,0:0|0:0,0:0:0:0:
415,185,20585,1,0,0:0:0:0:
415,185,20756,5,2,1:2:0:0:
489,216,20927,1,10,0:0:0:0:
489,216,21270,1,2,0:0:0:0:
489,216,21442,2,0,L|486:294,1,53.9999983520508,0|0,0:0|0:0,0:0:0:0:
410,297,21785,2,0,L|413:375,1,53.9999983520508,2|0,0:0|0:0,0:0:0:0:
334,252,22127,6,0,L|329:141,1,90,4|2,1:2|0:0,0:0:0:0:
244,82,22470,2,0,L|247:171,1,90,0|2,1:0|0:0,0:0:0:0:
166,257,22813,2,0,L|162:167,1,90,0|2,1:0|0:0,0:0:0:0:
129,53,23156,1,2,1:2:0:0:
129,53,23327,1,0,0:0:0:0:
244,82,23499,6,0,P|293:77|345:55,1,90,2|0,1:0|0:0,0:0:0:0:
162,167,23842,2,0,P|119:151|75:147,1,90,2|0,1:0|0:0,0:0:0:0:
277,196,24185,2,0,P|290:247|294:297,1,90,2|0,1:0|0:0,0:0:0:0:
241,367,24527,1,2,1:2:0:0:
195,281,24699,1,0,0:0:0:0:
195,281,24785,1,0,0:0:0:0:
195,281,24870,6,0,L|105:275,1,90,2|0,1:2|0:0,0:0:0:0:
277,196,25213,2,0,L|367:190,1,90,0|2,1:0|0:1,0:0:0:0:
236,114,25556,2,0,P|200:146|184:195,1,90,2|2,1:2|0:1,0:0:0:0:
402,271,25899,2,0,P|438:239|454:190,1,90,2|2,1:2|0:1,0:0:0:0:
356,101,26242,6,0,L|369:202,1,90,2|0,1:2|0:0,0:0:0:0:
297,349,26585,2,0,L|310:248,1,90,0|0,1:0|0:0,0:0:0:0:
280,180,26927,1,2,1:2:0:0:
402,271,27099,2,0,L|408:322,5,45,0|8|8|8|4|4,0:0|0:3|0:3|0:3|0:3|0:3,0:0:0:0:
367,190,27613,6,0,B|411:173|454:191|474:222|474:222|434:149|467:102|467:102|375:76|306:113|306:113|279:180|279:180|304:62|198:9,1,661.499979812623,2|0,0:3|0:0,0:0:0:0:
142,75,28985,6,0,P|202:105|88:122,1,283.499991348267,2|0,0:0|0:0,0:0:0:0:
122,281,29670,6,0,P|173:281|230:252,1,90,2|0,0:0|0:0,0:0:0:0:
276,207,30013,1,2,0:0:0:0:
294,295,30185,1,0,0:0:0:0:
294,295,30270,1,0,0:0:0:0:
294,295,30356,5,6,1:2:0:0:
190,179,30527,1,0,1:0:0:0:
362,235,30699,2,0,L|357:142,1,90,0|0,1:0|1:0,0:0:0:0:
208,267,31042,1,10,1:2:0:0:
380,323,31213,1,8,1:2:0:0:
276,207,31385,2,0,L|271:114,1,90,10|8,1:2|1:2,0:0:0:0:
208,267,31727,6,0,L|203:360,2,67.5000025749208,0|2|2,0:0|0:0|0:0,0:0:0:0:
276,207,32242,2,0,P|297:247|293:300,1,90,2|0,0:0|0:0,0:0:0:0:
208,267,32585,1,8,0:0:0:0:
191,179,32756,1,4,0:3:0:0:
191,179,32842,1,4,0:3:0:0:
191,179,32927,1,0,1:0:0:0:
191,179,33013,1,0,1:0:0:0:
191,179,33099,6,0,P|228:131|359:179,1,215.999993408203,6|8,1:2|0:0,0:0:0:0:
352,270,33613,1,2,0:0:0:0:
261,309,33785,2,0,P|255:254|277:205,1,107.999996704102,2|0,1:0|0:0,0:0:0:0:
443,231,34127,2,0,P|449:284|428:333,1,107.999996704102,10|0,0:1|0:0,0:0:0:0:
357,173,34470,6,0,P|402:134|454:130,1,107.999996704102,6|0,1:0|0:0,0:0:0:0:
352,270,34813,1,10,0:0:0:0:
276,207,34985,2,0,L|268:73,1,107.999996704102,2|4,0:1|1:0,0:0:0:0:
193,239,35327,2,0,L|185:373,1,107.999996704102,2|10,0:1|0:0,0:0:0:0:
96,355,35670,1,2,0:1:0:0:
192,151,35842,6,0,P|238:162|279:214,1,107.999996704102,4|0,1:0|0:0,0:0:0:0:
118,199,36185,2,0,P|105:153|129:92,1,107.999996704102,8|2,0:0|0:0,0:0:0:0:
193,239,36527,2,0,P|156:276|34:194,1,215.999993408203,2|10,1:0|0:1,0:0:0:0:
25,109,37042,1,0,0:0:0:0:
124,97,37213,6,0,L|232:86,1,107.999996704102,6|0,1:0|0:0,0:0:0:0:
331,76,37556,1,10,0:0:0:0:
288,168,37727,2,0,L|180:179,1,107.999996704102,2|4,0:1|1:0,0:0:0:0:
388,158,38070,2,0,P|429:191|445:260,1,107.999996704102,2|10,0:1|0:0,0:0:0:0:
345,250,38413,1,2,0:1:0:0:
345,250,38499,1,0,0:1:0:0:
345,250,38585,6,0,L|237:261,1,107.999996704102,4|0,1:0|0:0,0:0:0:0:
388,158,38927,2,0,L|496:169,1,107.999996704102,8|2,0:0|0:1,0:0:0:0:
402,332,39270,2,0,L|294:343,1,107.999996704102,0|0,1:0|0:0,0:0:0:0:
130,250,39613,2,0,L|238:261,1,107.999996704102,10|0,0:1|0:0,0:0:0:0:
345,250,39956,6,0,P|301:218|326:72,1,215.999993408203,2|10,1:2|0:0,0:0:0:0:
203,161,40470,2,0,P|213:218|249:273,1,107.999996704102,2|0,0:1|1:0,0:0:0:0:
299,333,40813,1,2,0:0:0:0:
205,352,40985,2,0,L|91:344,1,107.999996704102,10|0,0:1|0:0,0:0:0:0:
238,261,41327,6,0,P|297:240|388:351,1,215.999993408203,2|10,1:2|0:0,0:0:0:0:
205,352,41842,1,2,0:1:0:0:
144,280,42013,2,0,P|150:219|195:176,1,107.999996704102,0|2,1:0|0:0,0:0:0:0:
273,165,42356,2,0,P|267:226|222:269,1,107.999996704102,10|0,0:1|0:0,0:0:0:0:
212,93,42699,6,0,P|269:68|317:79,1,107.999996704102,2|10,1:0|0:1,0:0:0:0:
312,76,42956,1,0,0:0:0:0:
312,76,43042,1,8,0:3:0:0:
369,161,43213,1,0,1:0:0:0:
369,161,43299,1,0,1:0:0:0:
369,161,43385,6,0,L|374:223,1,53.9999983520508,2|0,1:0|1:0,0:0:0:0:
376,296,43556,2,0,L|314:301,1,53.9999983520508,8|8,0:3|0:3,0:0:0:0:
240,302,43727,2,0,L|235:240,1,53.9999983520508,4|4,0:3|0:3,0:0:0:0:
233,167,43899,2,0,L|295:162,1,53.9999983520508,0|0,1:0|1:0,0:0:0:0:
312,76,44070,6,0,L|84:94,1,215.999993408203,6|8,1:2|0:0,0:0:0:0:
40,160,44585,1,2,0:0:0:0:
125,175,44756,2,0,L|242:165,1,107.999996704102,2|0,1:0|0:0,0:0:0:0:
69,242,45099,2,0,P|45:303|45:355,1,107.999996704102,10|0,0:1|0:0,0:0:0:0:
138,369,45442,6,0,L|367:356,1,215.999993408203,6|10,1:0|0:0,0:0:0:0:
287,273,45956,2,0,L|155:280,1,107.999996704102,2|4,0:1|1:0,0:0:0:0:
391,257,46299,2,0,P|438:291|461:346,1,107.999996704102,2|10,0:1|0:0,0:0:0:0:
287,273,46642,1,2,0:1:0:0:
326,175,46813,6,0,P|380:154|495:250,1,215.999993408203,4|8,1:0|0:0,0:0:0:0:
287,273,47327,1,2,0:0:0:0:
221,190,47499,2,0,L|231:72,1,107.999996704102,2|0,1:0|0:0,0:0:0:0:
391,257,47842,2,0,L|381:364,1,107.999996704102,10|0,0:1|0:0,0:0:0:0:
250,297,48185,6,0,L|229:81,1,215.999993408203,6|10,1:0|0:0,0:0:0:0:
144,159,48699,2,0,L|154:270,1,107.999996704102,2|4,0:1|1:0,0:0:0:0:
337,252,49042,2,0,L|326:144,1,107.999996704102,2|10,0:1|0:0,0:0:0:0:
229,81,49385,1,2,1:0:0:0:
229,81,49470,1,4,0:3:0:0:
229,81,49556,6,0,P|185:38|27:83,1,215.999993408203,4|8,1:0|0:0,0:0:0:0:
129,141,50070,1,2,0:1:0:0:
230,197,50242,2,0,P|290:179|327:141,1,107.999996704102,0|0,1:0|0:0,0:0:0:0:
131,256,50585,2,0,L|121:369,1,107.999996704102,10|0,0:1|0:0,0:0:0:0:
239,304,50927,6,0,L|229:191,1,107.999996704102,2|0,1:2|0:0,0:0:0:0:
129,141,51270,1,10,0:0:0:0:
227,82,51442,2,0,P|281:92|330:143,1,107.999996704102,2|0,0:1|1:0,0:0:0:0:
329,252,51785,1,2,0:0:0:0:
434,181,51956,2,0,L|442:72,1,107.999996704102,10|0,0:1|0:0,0:0:0:0:
227,82,52299,6,0,L|234:189,1,107.999996704102,2|0,1:2|0:0,0:0:0:0:
329,252,52642,1,10,0:1:0:0:
227,303,52813,2,0,P|165:282|134:240,1,107.999996704102,2|0,0:0|1:0,0:0:0:0:
133,136,53156,1,10,0:1:0:0:
234,189,53327,1,8,0:3:0:0:
261,187,53412,1,4,0:3:0:0:
288,185,53498,1,4,0:3:0:0:
315,182,53584,1,0,1:0:0:0:
342,180,53669,5,2,1:2:0:0:
452,56,53842,1,10,0:1:0:0:
448,240,54013,1,10,0:1:0:0:
367,92,54185,1,4,0:3:0:0:
367,92,54270,1,0,1:0:0:0:
367,92,54356,6,0,L|298:78,1,53.9999983520508,8|0,0:0|0:0,0:0:0:0:
265,16,54527,2,0,L|218:68,1,53.9999983520508,2|0,1:0|1:0,0:0:0:0:
147,65,54699,2,0,L|169:131,1,53.9999983520508,0|0,1:0|1:0,0:0:0:0:
134,191,54870,2,0,L|202:205,1,53.9999983520508,0|0,1:0|1:0,0:0:0:0:
238,273,55042,6,0,L|350:250,1,107.999996704102,10|0,0:1|0:0,0:0:0:0:
187,202,55385,1,2,0:0:0:0:
294,349,55556,6,0,L|406:326,1,107.999996704102,10|0,0:1|0:0,0:0:0:0:
246,280,55899,1,2,0:0:0:0:
246,280,55985,1,0,0:0:0:0:
246,280,56070,6,0,P|212:327|217:378,1,107.999996704102,10|0,0:1|0:0,0:0:0:0:
294,349,56413,1,2,0:0:0:0:
199,205,56585,1,4,0:0:0:0:
186,201,58127,6,0,B|99:164|99:164|183:193|249:143|249:143|280:177|280:235|263:257|233:292|194:300|151:287|128:262,1,504,2|0,0:0|0:0,0:0:0:0:
151,360,59498,6,0,B|234:379|307:331|335:271|335:271|380:237|432:241|474:279|474:279|457:215|410:183,1,472.500018024445,2|0,0:0|0:0,0:0:0:0:
348,179,60784,6,0,L|343:154,2,16.8750006437302,0|0|2,0:0|0:0|0:3,0:0:0:0:
348,179,62241,6,0,L|204:172,1,135.000005149842,4|0,0:0|0:0,0:0:0:0:
138,204,62755,1,0,0:0:0:0:
138,204,62927,2,0,L|66:207,1,67.5000025749208,2|0,3:2|0:0,0:0:0:0:
75,287,63269,2,0,L|147:283,1,67.5000025749208,2|0,0:0|0:0,0:0:0:0:
193,347,63612,6,0,L|327:353,1,135.000005149842,2|2,3:2|0:0,0:0:0:0:
409,355,64127,1,0,0:0:0:0:
409,355,64298,2,0,L|415:220,1,135.000005149842,2|2,3:2|0:0,0:0:0:0:
415,220,64984,6,0,P|380:227|301:151,1,135.000005149842,2|0,3:2|0:0,0:0:0:0:
382,146,65498,1,0,0:0:0:0:
382,146,65669,2,0,L|380:76,1,67.5000025749208,2|0,3:2|0:0,0:0:0:0:
304,105,66012,2,0,L|305:172,1,67.5000025749208,2|0,0:0|0:0,0:0:0:0:
229,200,66355,5,2,1:2:0:0:
214,79,66527,2,0,P|236:38|267:18,1,67.5000025749208,8|0,0:0|0:0,0:0:0:0:
303,104,66869,1,4,0:3:0:0:
303,104,66955,1,4,0:3:0:0:
303,104,67041,2,0,L|305:177,1,67.5000025749208,2|0,0:0|0:0,0:0:0:0:
378,205,67384,2,0,L|375:278,1,67.5000025749208,0|2,0:0|0:0,0:0:0:0:
327,337,67727,6,0,B|254:305|254:305|179:335|179:335|89:299,1,236.250009012223,6|0,0:2|0:0,0:0:0:0:
109,224,68412,6,0,B|173:250|173:250|177:175|177:175|79:136,1,236.250009012223,2|0,0:2|0:0,0:0:0:0:
14,114,69098,5,2,1:2:0:0:
14,34,69270,1,0,1:0:0:0:
91,10,69441,1,8,1:2:0:0:
136,74,69613,1,8,1:2:0:0:
92,141,69784,2,0,L|88:189,2,33.7500012874604,8|8|8,0:0|0:0|0:0,0:0:0:0:
136,74,70127,1,2,1:2:0:0:
173,146,70298,1,8,0:0:0:0:
173,146,70384,1,0,0:0:0:0:
173,146,70469,6,0,L|266:155,1,90,4|0,0:0|0:0,0:0:0:0:
300,236,70812,2,0,L|210:227,1,90,2|0,1:2|1:0,0:0:0:0:
351,162,71155,1,2,1:2:0:0:
390,244,71327,1,0,1:0:0:0:
339,318,71498,2,0,L|249:309,1,90,2|0,1:2|1:0,0:0:0:0:
351,162,71841,5,10,1:2:0:0:
429,326,72012,1,8,1:2:0:0:
300,236,72184,1,10,1:2:0:0:
480,252,72355,1,8,1:2:0:0:
339,318,72527,2,0,L|294:313,3,45,10|8|4|2,0:0|0:3|0:3|1:2,0:0:0:0:
273,304,72869,1,10,0:0:0:0:
261,284,72955,1,8,0:3:0:0:
262,261,73041,1,4,0:3:0:0:
274,242,73126,1,0,1:0:0:0:
294,232,73212,6,0,P|317:187|313:138,1,90,4|0,1:2|0:0,0:0:0:0:
144,242,73555,2,0,P|121:287|125:336,1,90,8|0,0:0|0:0,0:0:0:0:
240,174,73898,1,0,1:0:0:0:
240,174,74069,1,0,1:0:0:0:
133,124,74241,2,0,L|40:117,1,90,8|0,0:0|0:0,0:0:0:0:
144,242,74584,5,2,1:0:0:0:
144,242,74755,1,0,1:0:0:0:
240,174,74927,2,0,P|251:119|242:80,1,90,8|0,0:0|0:0,0:0:0:0:
144,242,75269,1,2,1:0:0:0:
144,242,75440,1,0,0:0:0:0:
250,291,75612,2,0,P|303:273|332:245,1,90,8|0,0:0|0:0,0:0:0:0:
144,242,75955,6,0,L|136:343,1,90,0|0,1:0|0:0,0:0:0:0:
240,174,76298,2,0,L|232:73,1,90,8|0,0:0|0:0,0:0:0:0:
125,34,76641,1,0,1:0:0:0:
125,34,76812,1,0,1:0:0:0:
136,152,76984,2,0,L|143:241,1,90,8|2,0:0|0:0,0:0:0:0:
243,202,77327,5,2,1:0:0:0:
243,202,77498,1,0,1:0:0:0:
232,84,77669,2,0,P|189:44|145:31,1,90,8|2,0:0|0:0,0:0:0:0:
243,202,78012,1,2,1:0:0:0:
243,202,78183,1,0,0:0:0:0:
339,134,78355,2,0,P|352:76|341:32,1,90,8|2,0:0|0:0,0:0:0:0:
346,46,78612,1,0,0:0:0:0:
346,46,78698,6,0,P|306:24|245:20,1,90,0|0,1:0|0:0,0:0:0:0:
181,88,79041,2,0,P|141:110|80:114,1,90,8|0,0:0|0:0,0:0:0:0:
29,37,79384,1,0,1:0:0:0:
29,37,79555,1,0,1:0:0:0:
21,164,79727,2,0,P|61:198|104:204,1,90,8|0,0:0|0:0,0:0:0:0:
181,88,80069,5,2,1:0:0:0:
181,88,80241,1,0,1:0:0:0:
215,209,80412,2,0,P|252:237|303:245,1,90,8|0,0:0|0:0,0:0:0:0:
181,88,80755,1,2,1:0:0:0:
181,88,80927,1,0,1:0:0:0:
96,204,81098,2,0,P|90:250|108:298,1,90,8|0,0:0|0:0,0:0:0:0:
199,295,81441,6,0,P|215:255|214:207,1,90,0|0,1:0|0:0,0:0:0:0:
103,290,81784,2,0,P|115:348|143:377,1,90,8|0,0:0|0:0,0:0:0:0:
199,295,82127,1,0,1:0:0:0:
199,295,82298,1,0,1:0:0:0:
96,204,82469,2,0,L|1:194,1,90,10|0,0:1|0:0,0:0:0:0:
214,208,82812,5,0,1:0:0:0:
214,208,82983,1,0,0:0:0:0:
158,103,83155,2,0,P|137:59|131:14,1,90,10|0,0:1|0:0,0:0:0:0:
214,208,83498,1,2,1:2:0:0:
214,208,83669,2,0,L|209:260,5,45,0|0|4|8|8|8,1:0|1:0|0:3|0:3|0:0|0:0,0:0:0:0:
288,151,84184,6,0,P|249:120|205:116,1,90,4|0,1:2|0:0,0:0:0:0:
300,243,84527,2,0,P|346:224|371:188,1,90,8|0,0:0|0:0,0:0:0:0:
214,208,84869,1,0,1:0:0:0:
214,208,85041,1,2,1:0:0:0:
226,299,85212,2,0,P|261:330|329:336,1,90,8|0,0:0|0:0,0:0:0:0:
300,243,85555,5,2,1:2:0:0:
300,243,85727,1,0,1:0:0:0:
214,208,85898,2,0,P|181:197|111:199,1,90,10|0,0:1|0:0,0:0:0:0:
300,243,86241,1,0,1:0:0:0:
300,243,86413,1,2,1:0:0:0:
288,151,86584,2,0,P|281:116|244:57,1,90,8|2,0:0|1:0,0:0:0:0:
375,187,86927,6,0,P|401:163|434:101,1,90,0|0,1:0|0:0,0:0:0:0:
214,208,87269,2,0,L|224:307,1,90,8|0,0:0|0:0,0:0:0:0:
288,151,87612,1,0,0:0:0:0:
288,151,87784,1,0,1:0:0:0:
300,243,87955,2,0,L|310:342,1,90,8|2,0:0|0:1,0:0:0:0:
214,208,88298,5,0,1:0:0:0:
214,208,88469,1,0,1:0:0:0:
375,187,88641,2,0,L|385:286,1,90,8|0,0:0|0:0,0:0:0:0:
214,208,88984,1,2,1:0:0:0:
214,208,89155,1,0,1:0:0:0:
366,98,89327,2,0,L|376:197,1,90,10|0,0:1|0:0,0:0:0:0:
223,297,89669,6,0,L|213:207,1,90,4|0,1:2|0:0,0:0:0:0:
109,168,90012,2,0,L|118:257,1,90,8|0,0:0|0:0,0:0:0:0:
194,97,90355,1,0,0:0:0:0:
194,97,90527,1,2,1:0:0:0:
213,207,90698,2,0,P|260:224|310:226,1,90,8|2,0:0|0:1,0:0:0:0:
109,168,91041,5,0,1:0:0:0:
109,168,91212,1,0,1:0:0:0:
128,278,91384,2,0,P|110:325|85:356,1,90,10|0,0:1|0:0,0:0:0:0:
109,169,91727,1,0,1:0:0:0:
109,169,91898,1,0,1:0:0:0:
213,207,92070,2,0,P|244:246|259:283,1,90,10|0,0:1|0:0,0:0:0:0:
194,97,92412,6,0,P|211:55|239:21,1,90,0|0,1:0|0:0,0:0:0:0:
302,215,92755,2,0,L|203:206,1,90,8|0,0:0|0:0,0:0:0:0:
379,131,93098,1,2,1:0:0:0:
379,131,93269,1,0,1:0:0:0:
414,240,93441,2,0,P|390:292|359:315,1,90,8|0,0:0|0:0,0:0:0:0:
254,316,93784,5,2,0:0:0:0:
254,316,93869,1,0,0:0:0:0:
254,316,93955,2,0,L|247:365,2,45,2|0|0,1:0|0:0|1:0,0:0:0:0:
302,215,94298,1,2,1:0:0:0:
189,251,94469,2,0,P|166:289|165:338,1,90,0|0,0:0|0:0,0:0:0:0:
319,381,94812,2,0,P|342:343|343:294,1,90,10|4,0:1|0:3,0:0:0:0:
302,215,95155,5,6,1:2:0:0:
302,215,95498,1,0,1:0:0:0:
302,215,95841,1,0,1:0:0:0:
302,215,96184,1,0,1:0:0:0:
217,184,96355,6,0,L|205:85,1,90,2|0,0:1|1:0,0:0:0:0:
227,273,96698,2,0,L|215:174,1,90,10|0,0:1|1:0,0:0:0:0:
216,183,97212,1,0,1:0:0:0:
216,183,97555,1,0,1:0:0:0:
216,183,97898,5,4,1:2:0:0:
360,114,98069,1,10,0:1:0:0:
370,220,98241,1,0,1:0:0:0:
370,220,98584,1,0,1:0:0:0:
370,220,98927,1,0,1:0:0:0:
360,114,99098,2,0,P|314:126|278:165,1,90,10|0,0:1|1:0,0:0:0:0:
436,73,99441,2,0,P|390:85|354:124,1,90,10|0,0:1|1:0,0:0:0:0:
370,220,99784,2,0,P|412:200|356:114,1,180,8|2,0:3|0:0,0:0:0:0:
284,155,100298,1,2,0:0:0:0:
209,197,100469,1,0,0:0:0:0:
285,69,100641,5,2,0:0:0:0:
285,69,101155,1,0,0:0:0:0:
199,32,101327,1,0,0:0:0:0:
135,153,101841,6,0,L|37:146,1,90
38,236,102184,2,0,L|127:242,1,90,2|0,0:0|0:0,0:0:0:0:
208,204,102527,1,2,0:0:0:0:
72,315,102698,2,0,P|43:278|40:229,1,90,8|0,0:0|1:0,0:0:0:0:
38,236,102955,1,4,0:3:0:0:
38,236,103041,2,0,L|45:142,1,90,8|4,0:3|0:3,0:0:0:0:
125,106,103384,5,4,1:2:0:0:
119,197,103555,1,0,0:0:0:0:
50,55,103727,2,0,P|94:21|139:20,1,90,0|0,1:0|1:0,0:0:0:0:
201,157,104069,1,8,1:0:0:0:
125,106,104240,1,0,0:0:0:0:
283,116,104412,2,0,P|293:160|279:211,1,90,8|8,1:0|1:0,0:0:0:0:
195,249,104755,5,0,0:0:0:0:
201,157,104926,1,8,0:3:0:0:
277,295,105098,1,8,0:0:0:0:
277,295,105184,1,8,0:3:0:0:
277,295,105269,1,4,0:3:0:0:
283,203,105441,2,0,L|388:195,1,90,6|8,1:2|0:3,0:0:0:0:
195,249,105784,1,4,0:3:0:0:
172,247,105869,1,4,0:3:0:0:
150,245,105955,1,0,1:0:0:0:
127,243,106041,1,0,1:0:0:0:
105,242,106127,6,0,P|58:209|91:62,1,215.999993408203,4|8,1:2|0:0,0:0:0:0:
182,34,106641,1,2,0:0:0:0:
236,127,106812,2,0,P|180:154|121:141,1,107.999996704102,2|0,1:1|0:0,0:0:0:0:
289,33,107155,2,0,P|332:69|349:127,1,107.999996704102,10|0,0:1|0:0,0:0:0:0:
340,301,107498,6,0,P|304:259|294:199,1,107.999996704102,6|0,1:0|0:0,0:0:0:0:
402,208,107841,1,10,0:0:0:0:
447,309,108012,2,0,L|331:300,1,107.999996704102,2|4,0:1|1:0,0:0:0:0:
186,217,108355,2,0,L|302:208,1,107.999996704102,2|10,0:1|0:0,0:0:0:0:
349,117,108698,1,2,0:1:0:0:
242,114,108869,6,0,L|-6:133,1,215.999993408203,4|8,1:0|0:0,0:0:0:0:
13,22,109384,1,2,0:0:0:0:
120,17,109555,2,0,L|236:8,1,107.999996704102,2|0,1:0|0:0,0:0:0:0:
350,123,109898,2,0,L|234:114,1,107.999996704102,10|0,0:1|0:0,0:0:0:0:
382,28,110241,6,0,P|428:57|454:109,1,107.999996704102,6|0,1:0|0:0,0:0:0:0:
444,209,110584,1,10,0:0:0:0:
338,230,110755,2,0,L|350:123,1,107.999996704102,2|4,0:1|1:0,0:0:0:0:
444,208,111098,2,0,L|433:316,1,107.999996704102,2|10,0:1|0:0,0:0:0:0:
326,337,111441,1,2,0:1:0:0:
326,337,111527,1,0,0:0:0:0:
326,337,111612,6,0,P|269:311|256:163,1,215.999993408203,4|8,1:0|0:0,0:0:0:0:
338,230,112127,1,2,0:1:0:0:
226,371,112298,2,0,P|188:332|164:270,1,107.999996704102,0|0,1:0|0:0,0:0:0:0:
160,114,112641,2,0,P|138:163|100:201,1,107.999996704102,10|0,0:1|0:0,0:0:0:0:
249,172,112984,6,0,P|298:134|433:186,1,215.999993408203,0|10,1:0|0:0,0:0:0:0:
244,279,113498,2,0,P|192:262|159:218,1,107.999996704102,2|0,0:1|1:0,0:0:0:0:
338,230,113841,1,2,0:0:0:0:
333,337,114012,2,0,P|282:360|214:360,1,107.999996704102,10|0,0:1|0:0,0:0:0:0:
94,345,114355,6,0,P|134:299|124:142,1,215.999993408203,0|10,1:0|0:2,0:0:0:0:
45,104,114869,1,2,0:1:0:0:
128,47,115041,2,0,P|185:64|220:100,1,107.999996704102,0|2,1:2|0:0,0:0:0:0:
221,203,115384,2,0,P|164:186|129:150,1,107.999996704102,10|0,0:1|0:0,0:0:0:0:
323,157,115727,5,4,1:2:0:0:
322,265,115898,2,0,L|326:323,2,53.9999983520508,0|8|8,0:0|0:0|0:3,0:0:0:0:
228,210,116240,1,0,0:0:0:0:
228,210,116327,1,0,0:0:0:0:
228,210,116412,6,0,L|224:156,1,53.9999983520508,2|0,1:2|0:0,0:0:0:0:
258,81,116584,2,0,L|302:50,1,53.9999983520508,8|8,0:3|0:3,0:0:0:0:
383,58,116755,2,0,L|431:81,1,53.9999983520508,4|4,0:3|0:3,0:0:0:0:
478,149,116927,2,0,L|481:202,1,53.9999983520508,0|0,1:0|1:0,0:0:0:0:
398,273,117098,6,0,L|382:47,1,215.999993408203,4|8,1:2|0:0,0:0:0:0:
490,41,117612,1,2,0:0:0:0:
478,149,117784,2,0,L|484:259,1,107.999996704102,2|0,1:0|0:0,0:0:0:0:
311,260,118127,2,0,L|304:152,1,107.999996704102,10|0,0:1|0:0,0:0:0:0:
308,27,118469,6,0,P|268:88|118:65,1,215.999993408203,6|10,1:0|0:0,0:0:0:0:
204,183,118984,2,0,P|269:173|316:142,1,107.999996704102,2|4,0:1|1:0,0:0:0:0:
105,179,119327,2,0,L|98:295,1,107.999996704102,2|10,0:1|0:0,0:0:0:0:
24,365,119669,1,2,0:1:0:0:
132,374,119841,6,0,L|246:365,1,107.999996704102,4|0,1:0|0:0,0:0:0:0:
325,263,120184,2,0,L|211:254,1,107.999996704102,8|2,0:0|0:0,0:0:0:0:
391,175,120527,2,0,P|428:224|434:282,1,107.999996704102,2|0,1:0|0:0,0:0:0:0:
281,357,120869,2,0,P|291:304|325:263,1,107.999996704102,10|0,0:1|0:0,0:0:0:0:
484,355,121212,6,0,L|363:342,1,107.999996704102,2|2,1:0|0:0,0:0:0:0:
325,263,121555,1,8,0:0:0:0:
435,268,121727,2,0,P|425:219|382:168,1,107.999996704102,2|8,1:0|0:3,0:0:0:0:
214,259,122069,2,0,P|224:308|267:359,1,107.999996704102,2|8,1:0|0:3,0:0:0:0:
168,165,122412,1,4,0:3:0:0:
168,165,122498,1,8,0:3:0:0:
168,165,122584,6,0,P|124:204|107:255,1,107.999996704102,12|0,0:0|0:0,0:0:0:0:
155,344,122927,2,0,P|200:300|214:248,1,107.999996704102,10|0,0:1|0:0,0:0:0:0:
9,218,123269,2,0,P|63:249|115:247,1,107.999996704102,2|0,1:0|0:0,0:0:0:0:
266,134,123612,2,0,P|212:136|167:164,1,107.999996704102,10|0,0:1|0:0,0:0:0:0:
213,258,123955,6,0,L|326:274,1,107.999996704102,2|0,1:2|0:0,0:0:0:0:
154,343,124298,1,10,0:1:0:0:
108,249,124469,2,0,P|130:194|178:160,1,107.999996704102,0|2,0:0|1:0,0:0:0:0:
277,173,124812,1,0,0:0:0:0:
319,273,124984,2,0,L|213:258,1,107.999996704102,10|0,0:1|0:0,0:0:0:0:
384,182,125327,6,0,P|420:222|435:285,1,107.999996704102,0|0,1:0|0:0,0:0:0:0:
319,273,125669,1,10,0:1:0:0:
277,173,125841,2,0,L|292:47,1,107.999996704102,2|2,0:0|1:2,0:0:0:0:
213,258,126184,1,0,0:0:0:0:
171,158,126355,1,10,0:1:0:0:
144,156,126440,1,0,0:0:0:0:
117,155,126526,1,4,0:3:0:0:
90,153,126612,1,4,0:3:0:0:
63,152,126698,5,2,1:0:0:0:
123,62,126869,1,0,1:0:0:0:
171,158,127041,2,0,L|174:231,1,53.9999983520508,10|0,0:1|0:0,0:0:0:0:
181,292,127212,1,8,0:3:0:0:
181,292,127298,1,4,0:3:0:0:
181,292,127384,6,0,L|234:289,1,53.9999983520508,2|0,1:2|0:0,0:0:0:0:
296,343,127555,2,0,L|321:295,1,53.9999983520508,2|0,1:0|1:2,0:0:0:0:
399,271,127727,2,0,L|370:225,1,53.9999983520508,0|0,1:2|1:2,0:0:0:0:
386,145,127898,2,0,L|332:147,1,53.9999983520508,0|0,1:2|1:2,0:0:0:0:
265,85,128069,6,0,L|204:200,1,107.999996704102,10|0,0:1|0:1,0:0:0:0:
203,27,128412,1,8,0:1:0:0:
332,147,128584,6,0,L|271:262,1,107.999996704102,2|4,1:0|0:3,0:0:0:0:
272,92,128927,1,8,0:1:0:0:
272,92,129012,1,8,0:0:0:0:
272,92,129098,6,0,P|326:64|376:79,1,107.999996704102,2|2,1:0|1:2,0:0:0:0:
332,147,129441,1,2,1:2:0:0:
212,37,129612,1,6,1:2:0:0:
212,37,131069,6,0,L|215:63,2,26.9999991760254,0|0|2,0:0|0:0|0:3,0:0:0:0:
367,213,133898,6,0,B|323:208|299:273|299:273|296:207|239:192|188:198|171:247,1,270.000010299683,6|2,0:0|0:0,0:0:0:0:
161,101,135269,6,0,B|218:61|279:85|279:85|229:39|144:32,1,270.000010299683,2|2,0:0|0:0,0:0:0:0:
2,182,136640,6,0,B|33:222|89:213|89:213|101:239|92:287|92:287|137:262|185:292,1,270.000010299683,2|0,0:0|0:0,0:0:0:0:
185,292,137669,5,0,0:0:0:0:
264,339,138012,1,2,0:0:0:0:
268,245,138355,1,0,0:0:0:0:
185,292,138698,1,2,0:0:0:0:
264,339,139040,1,0,0:0:0:0:
347,292,139383,6,0,P|355:214|184:206,1,270.000010299683,2|2,0:0|0:0,0:0:0:0:
268,245,140755,6,0,B|277:83|277:83|345:169,1,270.000010299683,2|2,0:0|0:0,0:0:0:0:
406,238,141783,1,2,0:0:0:0:
351,315,142126,2,0,B|138:340,1,202.500007724762,2|0,0:0|0:0,0:0:0:0:
103,347,142726,1,0,0:0:0:0:
103,347,142812,2,0,P|64:258|212:217,1,270.000010299683,2|8,0:0|0:0,0:0:0:0:
194,201,144183,5,0,0:0:0:0:
259,269,144526,1,0,0:0:0:0:
351,250,144869,6,0,B|337:198|299:164|233:160|194:201|194:201|244:140|240:70|240:70|212:127|145:146|90:110,1,504,4|0,1:2|0:0,0:0:0:0:
24,170,146240,6,0,P|123:26|76:209,1,504
224,234,147612,6,0,B|254:205|274:162|277:101|257:53|257:53|301:111|364:100|364:100|371:164|371:164|406:133|454:130|487:159,1,504
433,222,148983,6,0,B|401:254|358:257|320:233|320:233|356:274|357:314,1,202.500007724762,2|0,0:0|0:0,0:0:0:0:
289,347,149669,6,0,P|273:301|247:267,1,67.5000025749208,0|0,0:0|0:0,0:0:0:0:
176,287,150012,2,0,P|192:241|218:207,1,67.5000025749208,0|0,1:0|0:0,0:0:0:0:
202,225,150269,1,4,0:3:0:0:
202,225,150355,6,0,L|195:123,1,90,14|0,0:2|1:0,0:0:0:0:
263,286,150698,1,0,1:0:0:0:
285,202,150869,6,0,L|278:100,1,90,10|0,0:1|1:0,0:0:0:0:
346,263,151212,1,0,1:0:0:0:
368,179,151383,6,0,L|361:77,1,90,10|0,0:1|1:0,0:0:0:0:
429,240,151727,1,0,1:0:0:0:
451,156,151898,6,0,L|444:54,1,90,10|0,0:1|1:0,0:0:0:0:
512,217,152240,1,0,1:0:0:0:
368,179,152412,5,10,0:1:0:0:
429,240,152583,2,0,L|435:290,5,45,0|4|8|8|4|0,1:0|0:3|0:3|0:3|0:3|1:0,0:0:0:0:
346,263,153098,6,0,L|241:281,1,90,2|0,1:2|1:0,0:0:0:0:
160,230,153440,1,2,1:0:0:0:
251,171,153612,1,0,1:0:0:0:
154,123,153783,2,0,L|49:141,1,90,2|8,1:0|1:2,0:0:0:0:
245,64,154126,1,10,1:0:0:0:
251,171,154298,1,8,1:2:0:0:
148,16,154469,5,2,1:0:0:0:
245,64,154640,2,0,L|298:73,2,45,8|8|8,0:3|0:3|0:3,0:0:0:0:
154,123,154983,2,0,L|100:132,2,45,0|0|10,1:0|1:0|1:0,0:0:0:0:
251,171,155326,2,0,L|259:219,1,45,0|0,1:0|1:0,0:0:0:0:
337,239,155498,2,0,L|329:287,1,45,0|4,1:0|0:3,0:0:0:0:
251,296,155669,2,0,L|259:344,1,45,8|8,0:3|0:3,0:0:0:0:
334,372,155840,6,0,P|381:353|411:317,1,90,4|0,1:2|0:0,0:0:0:0:
410,191,156183,2,0,P|363:210|333:246,1,90,8|0,0:0|0:0,0:0:0:0:
251,296,156526,2,0,L|242:194,1,90,0|0,1:0|1:0,0:0:0:0:
417,101,156869,2,0,L|408:203,1,90,8|0,0:0|0:0,0:0:0:0:
283,72,157212,5,2,1:0:0:0:
283,72,157383,1,2,1:2:0:0:
243,206,157555,2,0,P|186:233|145:230,1,90,8|2,0:0|0:1,0:0:0:0:
283,72,157898,1,2,1:2:0:0:
283,72,158069,1,0,1:0:0:0:
351,164,158240,2,0,L|359:264,1,90,10|0,0:1|0:0,0:0:0:0:
153,323,158583,6,0,L|160:233,1,90,2|0,1:2|0:0,0:0:0:0:
135,122,158926,2,0,P|89:143|55:191,1,90,8|0,0:0|0:0,0:0:0:0:
268,266,159269,2,0,P|272:215|248:162,1,90,2|0,1:2|1:0,0:0:0:0:
239,63,159612,2,0,P|286:89|339:94,1,90,10|0,0:0|0:0,0:0:0:0:
420,37,159955,5,2,1:0:0:0:
420,37,160126,1,0,1:0:0:0:
419,153,160298,2,0,P|416:208|436:259,1,90,8|0,0:0|0:0,0:0:0:0:
422,37,160640,1,2,1:0:0:0:
422,37,160811,1,0,1:0:0:0:
321,94,160983,1,8,0:0:0:0:
419,153,161155,1,0,0:0:0:0:
419,153,161240,1,0,0:0:0:0:
419,153,161326,6,0,L|511:143,1,90,2|0,1:2|0:0,0:0:0:0:
359,276,161669,2,0,L|267:266,1,90,8|0,0:0|0:0,0:0:0:0:
463,282,162012,2,0,P|485:340|488:384,1,90,2|0,1:2|0:0,0:0:0:0:
324,175,162355,2,0,P|331:130|349:89,1,90,8|0,0:0|0:0,0:0:0:0:
359,276,162698,5,2,1:0:0:0:
359,276,162869,1,0,0:0:0:0:
254,256,163040,2,0,P|191:242|157:216,1,90,8|0,0:0|0:0,0:0:0:0:
359,276,163383,1,2,1:0:0:0:
359,276,163554,1,0,0:0:0:0:
324,175,163726,2,0,P|304:113|310:70,1,90,8|0,0:0|0:0,0:0:0:0:
434,198,164069,5,2,1:0:0:0:
434,198,164240,1,0,0:0:0:0:
359,276,164412,2,0,L|248:268,1,90,8|2,0:0|0:0,0:0:0:0:
434,198,164755,1,2,1:0:0:0:
434,198,164926,1,2,1:2:0:0:
445,372,165098,2,0,L|334:364,1,90,12|0,0:0|0:0,0:0:0:0:
269,269,165440,5,2,1:0:0:0:
359,276,165612,1,10,0:0:0:0:
355,365,165783,1,2,1:0:0:0:
265,358,165955,1,0,1:0:0:0:
265,358,166040,1,0,0:0:0:0:
265,358,166126,2,0,L|199:362,2,60,8|8|4,0:0|0:3|0:3,0:0:0:0:
359,276,166469,2,0,L|427:280,2,60,4|0|0,0:3|1:0|1:0,0:0:0:0:
269,269,166812,6,0,P|242:216|130:208,1,180,6|0,1:2|0:0,0:0:0:0:
49,244,167326,1,2,1:2:0:0:
49,244,167498,2,0,P|42:184|132:117,1,180,8|0,0:0|0:0,0:0:0:0:
198,57,168012,1,2,0:2:0:0:
198,57,168183,5,0,1:0:0:0:
218,144,168355,2,0,L|225:255,1,90,10|0,0:1|0:0,0:0:0:0:
180,312,168698,1,0,1:0:0:0:
269,311,168869,2,0,P|305:272|311:222,1,90,10|0,0:1|0:0,0:0:0:0:
135,234,169212,2,0,P|99:273|93:323,1,90,2|0,0:2|0:0,0:0:0:0:
224,233,169555,6,0,L|212:47,1,180,2|0,1:2|0:0,0:0:0:0:
297,82,170069,1,0,1:0:0:0:
297,82,170240,2,0,L|304:193,2,90,10|0|0,0:0|0:0|0:0,0:0:0:0:
387,76,170755,1,2,0:0:0:0:
387,76,170926,5,0,1:0:0:0:
393,165,171098,2,0,P|368:233|255:247,1,180,10|0,0:1|1:0,0:0:0:0:
218,184,171612,2,0,P|271:166|304:172,1,90,10|0,0:1|0:0,0:0:0:0:
184,265,171955,1,10,0:0:0:0:
161,263,172040,1,8,0:0:0:0:
139,261,172126,1,8,0:0:0:0:
116,260,172212,1,8,0:0:0:0:
94,258,172298,6,0,L|4:250,1,90,12|0,1:2|0:0,0:0:0:0:
128,176,172640,2,0,L|217:183,1,90,10|0,0:0|0:0,0:0:0:0:
53,131,172983,2,0,P|19:104|1:39,1,90,2|0,1:0|0:0,0:0:0:0:
87,49,173326,2,0,L|176:56,1,90,10|0,0:1|0:0,0:0:0:0:
143,138,173669,6,0,L|54:131,1,90,2|0,1:0|0:0,0:0:0:0:
231,126,174012,2,0,P|225:179|193:215,1,90,10|0,0:1|0:0,0:0:0:0:
177,56,174355,1,2,0:1:0:0:
265,44,174526,1,0,0:0:0:0:
265,44,174612,1,8,0:3:0:0:
265,44,174698,2,0,P|305:76|318:125,1,90,8|2,0:0|1:2,0:0:0:0:
224,216,175040,6,0,L|232:115,1,90,10|0,0:1|1:0,0:0:0:0:
318,112,175383,1,0,1:0:0:0:
219,221,175555,6,0,L|228:110,1,90,10|0,0:1|1:0,0:0:0:0:
322,106,175898,1,0,1:0:0:0:
214,226,176069,6,0,L|223:104,1,90,10|0,0:1|1:0,0:0:0:0:
327,101,176412,1,0,1:0:0:0:
208,233,176583,6,0,L|216:125,1,90,10|0,0:1|1:0,0:0:0:0:
333,94,176926,1,0,1:0:0:0:
202,240,177098,5,10,0:1:0:0:
215,143,177269,1,0,1:0:0:0:
192,141,177354,1,4,0:3:0:0:
170,139,177440,1,8,0:3:0:0:
147,137,177526,1,8,0:0:0:0:
125,136,177611,1,8,0:3:0:0:
102,134,177697,1,4,0:3:0:0:
80,132,177783,6,0,L|38:43,1,90,6|0,1:2|1:0,0:0:0:0:
170,139,178126,2,0,L|113:220,1,90,2|8,1:0|1:0,0:0:0:0:
80,132,178469,1,10,1:0:0:0:
132,58,178640,1,8,1:0:0:0:
170,139,178812,1,10,1:0:0:0:
42,51,178983,1,10,1:0:0:0:
260,146,179155,6,0,B|310:149|339:114|339:114|305:176|327:232|327:232|313:276|270:290|270:290|257:249|220:217|220:217|192:271|150:277|110:277|103:252|111:237|131:239,1,540.000020599366,4|2,0:0|0:3,0:0:0:0:
69,87,186012,5,6,1:2:0:0:
44,219,186355,1,2,1:2:0:0:
177,241,186698,1,2,1:2:0:0:
202,109,187041,1,2,1:2:0:0:
443,87,187383,5,2,1:2:0:0:
468,219,187726,1,2,1:2:0:0:
335,241,188069,1,2,1:2:0:0:
310,109,188412,1,2,1:2:0:0:
256,352,188755,5,2,1:2:0:0:
256,144,189098,1,2,1:2:0:0:
256,248,189440,1,2,1:2:0:0:
256,40,189783,1,2,1:2:0:0:
166,92,189955,1,0,0:0:0:0:
166,92,190040,1,4,0:3:0:0:
166,92,190126,5,8,1:2:0:0:
346,92,190298,1,8,1:2:0:0:
166,196,190469,1,8,1:2:0:0:
344,187,190640,1,8,1:2:0:0:
256,40,190812,1,10,1:2:0:0:
256,56,190897,1,0,0:0:0:0:
256,73,190983,1,10,1:2:0:0:
256,90,191069,1,8,1:2:0:0:
256,107,191155,2,0,L|256:150,3,33.7500012874604,8|8|8|8,1:2|1:2|1:2|1:2,0:0:0:0:
256,175,191498,6,0,B|256:305|256:305|339:262,1,202.500007724762,2|0,0:0|1:0,0:0:0:0:
320,271,192098,1,4,0:3:0:0:
320,271,192183,6,0,L|386:261,1,45,4|0,1:0|0:0,0:0:0:0:
459,262,192355,1,0,0:0:0:0:
444,244,192440,1,0,0:0:0:0:
433,225,192526,1,8,0:0:0:0:
426,203,192612,1,8,0:3:0:0:
424,181,192697,1,4,0:3:0:0:
425,158,192783,1,0,1:0:0:0:
431,137,192869,6,0,B|424:84|463:43|463:43|427:62|375:47,1,180,2|2,1:0|1:2,0:0:0:0:
256,175,193383,1,10,1:0:0:0:
270,17,193726,1,10,1:0:0:0:
141,130,194069,6,0,P|170:171|67:284,1,215.999993408203,6|0,1:2|0:0,0:0:0:0:
243,254,194583,2,0,P|254:194|238:131,1,107.999996704102,10|2,0:0|0:0,0:0:0:0:
180,343,194926,2,0,L|303:356,1,107.999996704102,2|0,1:0|0:0,0:0:0:0:
350,242,195269,2,0,L|227:255,1,107.999996704102,10|0,0:1|0:0,0:0:0:0:
401,328,195612,6,0,P|440:282|381:144,1,215.999993408203,6|10,1:0|0:0,0:0:0:0:
281,50,196126,2,0,P|247:113|250:169,1,107.999996704102,2|4,0:1|1:0,0:0:0:0:
350,242,196469,2,0,L|237:254,1,107.999996704102,2|10,0:1|0:0,0:0:0:0:
152,198,196812,1,2,1:0:0:0:
152,198,196898,1,4,0:3:0:0:
152,198,196983,6,0,P|224:178|219:46,1,215.999993408203,4|10,1:0|0:0,0:0:0:0:
130,15,197498,1,2,0:1:0:0:
91,112,197669,2,0,P|49:81|26:24,1,107.999996704102,0|2,1:0|0:0,0:0:0:0:
152,198,198012,2,0,P|111:225|40:232,1,107.999996704102,10|0,0:1|0:0,0:0:0:0:
243,145,198355,6,0,P|281:190|225:337,1,215.999993408203,2|8,1:2|0:0,0:0:0:0:
152,198,198869,1,2,0:1:0:0:
152,93,199040,2,0,P|196:51|246:41,1,107.999996704102,2|0,1:2|0:0,0:0:0:0:
331,197,199383,2,0,P|279:183|242:144,1,107.999996704102,10|0,0:0|0:0,0:0:0:0:
366,94,199726,6,0,P|421:130|388:281,1,215.999993408203,2|10,1:2|0:1,0:0:0:0:
311,298,200240,1,2,0:0:0:0:
311,298,200326,1,0,0:0:0:0:
311,298,200412,1,2,1:0:0:0:
331,197,200583,2,0,L|324:134,1,53.9999983520508,2|0,0:0|0:0,0:0:0:0:
240,63,200755,2,0,L|233:126,1,53.9999983520508,8|8,0:0|0:3,0:0:0:0:
169,185,200926,1,4,0:3:0:0:
169,185,201012,1,0,1:0:0:0:
169,185,201098,6,0,L|110:179,1,53.9999983520508,2|0,1:2|0:0,0:0:0:0:
325,143,201269,1,10,0:1:0:0:
304,282,201440,1,10,0:1:0:0:
277,279,201525,1,8,0:3:0:0:
250,276,201611,1,4,0:3:0:0:
223,273,201697,1,0,1:0:0:0:
196,270,201783,6,0,L|137:264,1,53.9999983520508,8|0,0:0|0:0,0:0:0:0:
71,223,201955,2,0,L|46:168,1,53.9999983520508,2|0,1:0|1:0,0:0:0:0:
61,93,202126,2,0,L|95:44,1,53.9999983520508,0|0,1:0|1:0,0:0:0:0:
168,18,202298,2,0,L|226:24,1,53.9999983520508,0|0,1:0|1:0,0:0:0:0:
274,134,202469,6,0,L|127:148,1,107.999996704102,10|0,0:1|0:0,0:0:0:0:
334,47,202812,1,2,0:0:0:0:
320,229,202983,6,0,L|173:243,1,107.999996704102,10|0,0:1|0:0,0:0:0:0:
380,142,203326,1,2,0:0:0:0:
380,142,203412,1,0,0:0:0:0:
380,142,203498,6,0,P|416:185|427:249,1,107.999996704102,10|0,0:1|0:0,0:0:0:0:
320,229,203840,1,2,0:0:0:0:
440,55,204012,1,4,0:0:0:0:
440,55,204869,6,0,L|499:48,7,53.9999983520508,2|4|4|8|10|8|4|0,1:2|0:3|0:3|0:3|0:0|0:3|0:3|1:0,0:0:0:0:
377,121,205555,6,0,P|350:76|354:26,1,90,6|0,1:2|0:0,0:0:0:0:
465,143,205897,2,0,P|439:188|394:210,1,90,8|2,0:0|0:1,0:0:0:0:
318,190,206240,1,2,1:2:0:0:
318,190,206412,1,0,0:0:0:0:
349,277,206583,2,0,P|392:299|452:282,1,90,10|2,0:1|0:0,0:0:0:0:
259,260,206926,5,0,0:0:0:0:
259,260,207097,1,2,0:1:0:0:
290,347,207269,2,0,L|187:357,1,90,2|0,1:2|0:0,0:0:0:0:
200,355,207526,1,8,0:0:0:0:
200,355,207612,2,0,P|157:312|152:268,1,90,2|0,1:2|0:0,0:0:0:0:
210,190,207955,2,0,P|253:233|258:277,1,90,10|0,0:1|0:0,0:0:0:0:
99,189,208297,6,0,P|121:124|228:80,1,180,2|10,1:2|0:0,0:0:0:0:
300,146,208812,1,2,0:1:0:0:
210,190,208983,2,0,L|201:279,1,90,2|0,1:2|0:0,0:0:0:0:
398,191,209326,2,0,L|389:101,1,90,8|8,0:0|0:3,0:0:0:0:
389,101,209583,1,4,0:3:0:0:
389,101,209669,6,0,P|351:58|311:46,1,90,2|2,1:0|1:2,0:0:0:0:
219,87,210012,1,2,1:0:0:0:
300,146,210183,1,2,1:2:0:0:
210,190,210355,1,10,0:1:0:0:
210,190,210440,1,0,0:0:0:0:
210,190,210526,1,2,1:2:0:0:
291,249,210697,2,0,L|337:254,2,45,8|4|4,0:3|0:3|0:3,0:0:0:0:
224,310,211040,6,0,P|179:341|43:352,1,180,6|8,1:2|0:0,0:0:0:0:
14,265,211555,1,0,0:0:0:0:
89,200,211726,2,0,P|98:147|94:102,1,90,2|0,1:2|0:0,0:0:0:0:
173,31,212069,2,0,P|213:80|254:100,1,90,10|0,0:0|0:0,0:0:0:0:
341,154,212412,6,0,P|288:165|190:246,1,180,2|8,1:0|0:0,0:0:0:0:
214,336,212926,1,2,0:1:0:0:
309,331,213097,2,0,P|362:336|406:331,1,90,2|2,1:2|0:1,0:0:0:0:
472,251,213440,2,0,P|427:247|382:252,1,90,10|2,0:0|0:1,0:0:0:0:
341,154,213783,6,0,P|401:134|435:25,1,180,2|10,1:2|0:1,0:0:0:0:
339,53,214297,1,0,0:0:0:0:
252,105,214469,2,0,L|246:205,1,90,2|0,1:2|0:0,0:0:0:0:
347,244,214812,2,0,L|341:144,1,90,10|0,0:1|0:0,0:0:0:0:
263,289,215155,6,0,P|304:330|416:310,1,180,2|10,1:0|0:0,0:0:0:0:
247,195,215669,2,0,P|203:211|171:253,1,90,2|2,0:1|1:2,0:0:0:0:
342,154,216012,2,0,P|322:118|259:93,1,90,2|8,0:1|0:0,0:0:0:0:
347,244,216355,1,8,0:0:0:0:
347,244,216440,1,8,0:0:0:0:
347,244,216526,6,0,P|411:215|421:112,1,180,2|8,1:2|0:0,0:0:0:0:
362,32,217040,1,2,0:1:0:0:
281,95,217212,2,0,L|266:210,1,90,0|0,1:0|0:0,0:0:0:0:
255,277,217555,1,10,0:1:0:0:
341,242,217726,1,2,0:0:0:0:
269,184,217897,6,0,P|206:166|168:166,1,90,0|2,1:0|0:1,0:0:0:0:
87,76,218240,2,0,P|131:71|174:57,1,90,8|2,0:0|0:0,0:0:0:0:
81,184,218583,2,0,L|73:277,1,90,0|0,1:2|0:0,0:0:0:0:
272,104,218926,2,0,L|264:11,1,90,10|0,0:0|0:0,0:0:0:0:
182,165,219269,6,0,P|239:211|359:175,1,180,2|10,1:0|0:1,0:0:0:0:
174,57,219783,1,2,0:0:0:0:
84,117,219955,2,0,P|71:166|80:210,1,90,2|2,1:0|0:0,0:0:0:0:
255,214,220297,2,0,P|219:178|176:164,1,90,10|2,0:1|0:0,0:0:0:0:
164,274,220640,6,0,L|169:366,1,90,2|0,1:2|0:0,0:0:0:0:
168,363,220897,1,8,0:0:0:0:
168,363,220983,2,0,P|228:366|265:348,1,90,2|2,1:2|0:0,0:0:0:0:
350,313,221326,2,0,L|356:259,3,45,2|0|8|8,1:2|0:0|0:0|0:3,0:0:0:0:
429,337,221669,2,0,L|435:391,3,45,4|4|0|0,0:3|0:3|1:0|1:0,0:0:0:0:
478,274,222012,6,0,P|449:224|454:98,1,180,4|10,1:2|0:1,0:0:0:0:
496,14,222526,1,0,0:0:0:0:
384,62,222697,2,0,P|365:115|360:159,1,90,2|0,1:1|0:0,0:0:0:0:
333,253,223040,2,0,P|293:213|237:184,1,90,10|0,0:1|0:0,0:0:0:0:
158,149,223383,6,0,P|212:124|241:7,1,180,2|8,1:0|0:0,0:0:0:0:
144,43,223897,1,0,0:0:0:0:
63,109,224069,2,0,L|52:298,1,180,2|8,1:0|0:0,0:0:0:0:
141,335,224583,1,0,0:0:0:0:
153,239,224755,6,0,L|158:149,1,90,2|0,1:2|0:0,0:0:0:0:
247,196,225097,2,0,L|241:285,1,90,8|0,0:0|0:0,0:0:0:0:
310,352,225440,2,0,P|333:308|333:260,1,90,0|2,1:0|0:0,0:0:0:0:
272,112,225783,2,0,P|249:156|249:204,1,90,8|0,0:0|0:0,0:0:0:0:
242,285,226126,5,2,1:0:0:0:
335,268,226297,1,2,0:0:0:0:
247,195,226469,2,0,L|150:190,1,90,10|2,0:1|0:0,0:0:0:0:
157,190,226726,1,0,0:0:0:0:
157,190,226812,2,0,P|109:155|92:115,1,90,2|2,1:0|0:0,0:0:0:0:
106,27,227155,1,10,0:1:0:0:
204,58,227326,1,4,0:3:0:0:
204,58,227412,1,0,1:0:0:0:
204,58,227497,6,0,L|396:69,1,180,4|10,1:2|0:1,0:0:0:0:
482,66,228012,1,2,0:0:0:0:
437,154,228183,2,0,L|347:148,1,90,0|0,1:0|0:0,0:0:0:0:
302,237,228526,2,0,L|391:242,1,90,10|0,0:1|0:0,0:0:0:0:
490,235,228869,5,0,1:0:0:0:
445,322,229040,2,0,L|355:316,1,90,2|10,0:0|0:1,0:0:0:0:
265,360,229383,1,0,0:0:0:0:
220,271,229555,2,0,L|130:276,1,90,0|2,1:0|0:0,0:0:0:0:
23,364,229897,2,0,L|112:369,1,90,8|0,0:0|0:0,0:0:0:0:
130,276,230240,6,0,P|98:233|108:92,1,180,2|8,1:0|0:0,0:0:0:0:
177,41,230755,1,2,0:0:0:0:
177,41,230840,1,0,0:0:0:0:
177,41,230926,1,2,1:0:0:0:
215,136,231097,2,0,L|206:195,5,45,10|8|8|4|4|0,0:0|0:0|0:3|0:3|0:3|1:0,0:0:0:0:
299,80,231612,5,2,1:2:0:0:
299,80,231726,2,0,L|362:77,4,60,10|8|2|10|8,0:1|0:0|1:2|0:1|0:0,0:0:0:0:
215,136,232297,2,0,L|79:125,2,120,10|10|10,0:1|0:1|0:1,0:0:0:0:
307,238,232983,6,0,L|494:216,1,180,6|0,1:2|0:0,0:0:0:0:
423,131,233497,1,2,0:0:0:0:
405,306,233669,1,10,0:0:0:0:
405,306,233840,1,0,1:2:0:0:
405,306,234183,5,0,0:0:0:0:
405,306,234355,1,2,1:2:0:0:
340,133,234526,2,0,L|247:125,1,90,8|0,0:0|0:0,0:0:0:0:
164,176,234869,1,0,0:0:0:0:
248,31,235040,1,10,0:0:0:0:
248,31,235212,1,0,1:0:0:0:
248,31,235555,5,0,0:0:0:0:
150,64,235726,2,0,L|135:246,1,180,2|0,1:2|0:0,0:0:0:0:
51,186,236240,1,0,1:0:0:0:
227,141,236412,1,10,0:0:0:0:
227,141,236583,1,0,1:0:0:0:
227,141,236926,1,0,0:0:0:0:
263,324,237097,5,2,1:2:0:0:
263,324,237269,2,0,L|358:315,1,90,8|0,0:0|0:0,0:0:0:0:
460,312,237612,1,0,0:0:0:0:
460,312,237697,1,0,0:0:0:0:
460,312,237783,6,0,B|493:210|493:210|430:128|430:128|391:238,1,315,10|0,0:0|0:0,0:0:0:0:
352,315,238469,6,0,B|325:306|292:268|290:229|302:193|302:193|258:221|196:218|196:218|211:182|202:149|202:149|252:149|287:115|287:115|341:119|368:139|377:185|377:185|405:113|383:52,1,661.499979812623,2|0,0:3|0:0,0:0:0:0:
305,34,239840,6,0,B|267:28|237:52|237:52|207:81|169:81|86:60|86:60|121:169|121:169|75:194|72:258|72:258|22:301|45:364,1,566.999982696534,2|0,0:0|0:0,0:0:0:0:
126,332,241040,5,2,1:2:0:0:
126,332,241126,1,0,1:0:0:0:
126,332,241212,2,0,L|234:327,1,90,6|0,1:2|1:0,0:0:0:0:
256,249,241555,1,2,1:2:0:0:
167,252,241726,1,0,1:0:0:0:
304,325,241897,2,0,L|412:320,1,90,2|0,1:2|1:0,0:0:0:0:
208,173,242240,2,0,L|118:178,1,90,2|8,1:2|1:0,0:0:0:0:
256,249,242583,5,10,1:2:0:0:
297,170,242755,1,8,1:0:0:0:
345,246,242926,1,10,1:2:0:0:
208,173,243097,1,8,1:0:0:0:
304,325,243269,1,10,1:2:0:0:
386,167,243440,1,8,1:0:0:0:
393,322,243612,1,10,1:2:0:0:
297,170,243783,1,8,1:0:0:0:
304,177,244126,1,0,0:0:0:0:
304,177,244212,1,0,0:0:0:0:
304,177,244297,6,0,B|266:144|193:146|193:146|248:117|251:65|251:65|303:72|346:101|346:101|357:41|400:17|456:18|489:42|515:82|513:137|471:171|471:171|499:205|484:281|439:312|439:312|398:267|325:268|285:307|285:307|276:238|255:220|220:221|172:220|172:220|126:204|108:158|117:123|136:100|136:100|93:140|34:167|-1:155|1:125|26:110|37:114,1,1440,4|0,0:0|0:0,0:0:0:0:
